osu file format v14

[General]
AudioFilename: Oregairu Season 2 (Zoku) OP - Opening - Harumodoki by Yanagi Nagi.mp3
AudioLeadIn: 0
PreviewTime: -1
Countdown: 1
SampleSet: None
StackLeniency: 0.7
Mode: 3
LetterboxInBreaks: 1
SpecialStyle: 0
WidescreenStoryboard: 1

[Editor]
DistanceSpacing: 0.8
BeatDivisor: 4
GridSize: 32
TimelineZoom: 2.2

[Metadata]
Title:Harumodoki - (TV Size)
TitleUnicode:Harumodoki - (TV Size)
Artist:Yanaginagi
ArtistUnicode:Yanaginagi
Creator:-Mirinai Mina-
Version:MX
Source:
Tags:Oregairu
BeatmapID:682111
BeatmapSetID:304469

[Difficulty]
HPDrainRate:5
CircleSize:4
OverallDifficulty:5
ApproachRate:5
SliderMultiplier:1.4
SliderTickRate:1

[Events]
//Background and Video events
0,0,"Yahari ore no seishun love come wa machiagatteiru.jpg",0,0
//Break Periods
//Storyboard Layer 0 (Background)
//Storyboard Layer 1 (Fail)
//Storyboard Layer 2 (Pass)
//Storyboard Layer 3 (Foreground)
//Storyboard Sound Samples

[TimingPoints]
3123.9018404908,368.098159509202,4,2,0,100,1,0

[HitObjects]
64,192,455,5,0,0:0:0:0:
192,192,547,1,0,0:0:0:0:
320,192,639,1,0,0:0:0:0:
448,192,731,1,0,0:0:0:0:
64,192,823,1,0,0:0:0:0:
192,192,915,1,0,0:0:0:0:
320,192,1007,1,0,0:0:0:0:
448,192,1099,1,0,0:0:0:0:
64,192,1191,1,0,0:0:0:0:
192,192,1191,1,0,0:0:0:0:
320,192,1559,1,0,0:0:0:0:
448,192,1559,1,0,0:0:0:0:
192,192,1559,1,0,0:0:0:0:
64,192,1927,1,0,0:0:0:0:
192,192,1927,1,0,0:0:0:0:
320,192,2203,1,0,0:0:0:0:
448,192,2203,1,0,0:0:0:0:
192,192,2203,1,0,0:0:0:0:
64,192,2571,1,0,0:0:0:0:
192,192,2571,1,0,0:0:0:0:
320,192,2939,1,0,0:0:0:0:
448,192,2939,1,0,0:0:0:0:
192,192,2939,1,0,0:0:0:0:
64,192,3123,1,0,0:0:0:0:
192,192,3215,1,0,0:0:0:0:
320,192,3307,1,0,0:0:0:0:
448,192,3399,1,0,0:0:0:0:
64,192,3584,1,0,0:0:0:0:
448,192,3584,128,0,7265:0:0:0:0:
192,192,3584,1,0,0:0:0:0:
320,192,3584,1,0,0:0:0:0:
64,192,3768,1,0,0:0:0:0:
192,192,3860,1,0,0:0:0:0:
320,192,3952,1,0,0:0:0:0:
64,192,4044,1,0,0:0:0:0:
192,192,4136,1,0,0:0:0:0:
320,192,4228,1,0,0:0:0:0:
64,192,4320,1,0,0:0:0:0:
192,192,4412,1,0,0:0:0:0:
320,192,4504,1,0,0:0:0:0:
64,192,6712,1,0,0:0:0:0:
192,192,6712,1,0,0:0:0:0:
64,192,6896,1,0,0:0:0:0:
192,192,6896,1,0,0:0:0:0:
320,192,6896,1,0,0:0:0:0:
64,192,6988,1,0,0:0:0:0:
192,192,7080,1,0,0:0:0:0:
320,192,7172,1,0,0:0:0:0:
64,192,7265,1,0,0:0:0:0:
192,192,7265,1,0,0:0:0:0:
320,192,7541,1,0,0:0:0:0:
192,192,7633,1,0,0:0:0:0:
64,192,7725,1,0,0:0:0:0:
192,192,7817,1,0,0:0:0:0:
320,192,7909,1,0,0:0:0:0:
448,192,8001,1,0,0:0:0:0:
320,192,8093,1,0,0:0:0:0:
192,192,8185,1,0,0:0:0:0:
320,192,8277,1,0,0:0:0:0:
448,192,8369,1,0,0:0:0:0:
320,192,8461,1,0,0:0:0:0:
192,192,8553,1,0,0:0:0:0:
64,192,8645,1,0,0:0:0:0:
192,192,8737,1,0,0:0:0:0:
320,192,8829,1,0,0:0:0:0:
192,192,8921,1,0,0:0:0:0:
64,192,9013,1,0,0:0:0:0:
192,192,9105,1,0,0:0:0:0:
320,192,9197,1,0,0:0:0:0:
192,192,9289,1,0,0:0:0:0:
64,192,9381,1,0,0:0:0:0:
192,192,9473,1,0,0:0:0:0:
320,192,9565,1,0,0:0:0:0:
448,192,9657,1,0,0:0:0:0:
320,192,9749,1,0,0:0:0:0:
192,192,9841,1,0,0:0:0:0:
64,192,9933,1,0,0:0:0:0:
192,192,10025,1,0,0:0:0:0:
320,192,10025,1,0,0:0:0:0:
64,192,10025,1,0,0:0:0:0:
448,192,10117,1,0,0:0:0:0:
320,192,10209,1,0,0:0:0:0:
192,192,10301,1,0,0:0:0:0:
64,192,10393,1,0,0:0:0:0:
448,192,10485,1,0,0:0:0:0:
320,192,10577,1,0,0:0:0:0:
192,192,10669,1,0,0:0:0:0:
64,192,10761,1,0,0:0:0:0:
448,192,10853,1,0,0:0:0:0:
320,192,10945,1,0,0:0:0:0:
192,192,11038,1,0,0:0:0:0:
64,192,11130,1,0,0:0:0:0:
192,192,11222,1,0,0:0:0:0:
448,192,11314,1,0,0:0:0:0:
320,192,11406,1,0,0:0:0:0:
192,192,11498,1,0,0:0:0:0:
320,192,11590,1,0,0:0:0:0:
448,192,11682,1,0,0:0:0:0:
320,192,11774,1,0,0:0:0:0:
192,192,11866,1,0,0:0:0:0:
64,192,11958,1,0,0:0:0:0:
192,192,12050,1,0,0:0:0:0:
320,192,12142,1,0,0:0:0:0:
448,192,12234,1,0,0:0:0:0:
320,192,12326,1,0,0:0:0:0:
192,192,12418,1,0,0:0:0:0:
64,192,12510,1,0,0:0:0:0:
192,192,12510,1,0,0:0:0:0:
320,192,12510,1,0,0:0:0:0:
448,192,12694,1,0,0:0:0:0:
320,192,12694,1,0,0:0:0:0:
192,192,12694,1,0,0:0:0:0:
64,192,12878,1,0,0:0:0:0:
192,192,12970,1,0,0:0:0:0:
320,192,13062,1,0,0:0:0:0:
448,192,13154,1,0,0:0:0:0:
320,192,13246,1,0,0:0:0:0:
192,192,13338,1,0,0:0:0:0:
320,192,13430,1,0,0:0:0:0:
448,192,13522,1,0,0:0:0:0:
320,192,13614,1,0,0:0:0:0:
192,192,13706,1,0,0:0:0:0:
64,192,13798,1,0,0:0:0:0:
192,192,13890,1,0,0:0:0:0:
320,192,13982,1,0,0:0:0:0:
448,192,14074,1,0,0:0:0:0:
320,192,14166,1,0,0:0:0:0:
192,192,14258,1,0,0:0:0:0:
64,192,14350,1,0,0:0:0:0:
192,192,14442,1,0,0:0:0:0:
320,192,14534,1,0,0:0:0:0:
448,192,14626,1,0,0:0:0:0:
320,192,14718,1,0,0:0:0:0:
192,192,14811,1,0,0:0:0:0:
64,192,14903,1,0,0:0:0:0:
192,192,14995,1,0,0:0:0:0:
320,192,15087,1,0,0:0:0:0:
448,192,15179,1,0,0:0:0:0:
320,192,15271,1,0,0:0:0:0:
192,192,15363,1,0,0:0:0:0:
64,192,15455,1,0,0:0:0:0:
192,192,15455,1,0,0:0:0:0:
320,192,15455,1,0,0:0:0:0:
320,192,15823,1,0,0:0:0:0:
320,192,15915,1,0,0:0:0:0:
192,192,16283,1,0,0:0:0:0:
448,192,16651,1,0,0:0:0:0:
192,192,17019,1,0,0:0:0:0:
64,192,17295,1,0,0:0:0:0:
192,192,17663,1,0,0:0:0:0:
320,192,17663,1,0,0:0:0:0:
64,192,17847,1,0,0:0:0:0:
192,192,17847,1,0,0:0:0:0:
320,192,17847,1,0,0:0:0:0:
64,192,18215,1,0,0:0:0:0:
192,192,18215,1,0,0:0:0:0:
320,192,18215,1,0,0:0:0:0:
448,192,18215,1,0,0:0:0:0:
64,192,18491,1,0,0:0:0:0:
448,192,18491,1,0,0:0:0:0:
192,192,18676,1,0,0:0:0:0:
320,192,18860,1,0,0:0:0:0:
448,192,19044,1,0,0:0:0:0:
64,192,19044,1,0,0:0:0:0:
320,192,19228,1,0,0:0:0:0:
192,192,19412,1,0,0:0:0:0:
64,192,19596,1,0,0:0:0:0:
448,192,19596,1,0,0:0:0:0:
192,192,19780,1,0,0:0:0:0:
320,192,19964,1,0,0:0:0:0:
448,192,20148,1,0,0:0:0:0:
64,192,20148,1,0,0:0:0:0:
64,192,20516,1,0,0:0:0:0:
192,192,20516,1,0,0:0:0:0:
320,192,20516,1,0,0:0:0:0:
192,192,20700,1,0,0:0:0:0:
320,192,20700,1,0,0:0:0:0:
448,192,20700,1,0,0:0:0:0:
64,192,21068,1,0,0:0:0:0:
192,192,21068,1,0,0:0:0:0:
320,192,21068,1,0,0:0:0:0:
448,192,21068,1,0,0:0:0:0:
64,192,21436,1,0,0:0:0:0:
448,192,21436,1,0,0:0:0:0:
192,192,21620,1,0,0:0:0:0:
320,192,21804,1,0,0:0:0:0:
192,192,21988,1,0,0:0:0:0:
64,192,22172,1,0,0:0:0:0:
448,192,22172,1,0,0:0:0:0:
192,192,22357,1,0,0:0:0:0:
320,192,22541,1,0,0:0:0:0:
448,192,22725,1,0,0:0:0:0:
64,192,22725,1,0,0:0:0:0:
320,192,22909,1,0,0:0:0:0:
192,192,23093,1,0,0:0:0:0:
64,192,23277,1,0,0:0:0:0:
448,192,23277,1,0,0:0:0:0:
192,192,23277,1,0,0:0:0:0:
320,192,23277,1,0,0:0:0:0:
64,192,23461,1,0,0:0:0:0:
192,192,23461,1,0,0:0:0:0:
320,192,23461,1,0,0:0:0:0:
448,192,23461,1,0,0:0:0:0:
64,192,23737,1,0,0:0:0:0:
192,192,23737,1,0,0:0:0:0:
320,192,23737,1,0,0:0:0:0:
448,192,23737,1,0,0:0:0:0:
64,192,24105,1,0,0:0:0:0:
448,192,24105,1,0,0:0:0:0:
192,192,24289,1,0,0:0:0:0:
320,192,24473,1,0,0:0:0:0:
448,192,24657,1,0,0:0:0:0:
64,192,24657,1,0,0:0:0:0:
320,192,24841,1,0,0:0:0:0:
192,192,25025,1,0,0:0:0:0:
64,192,25209,1,0,0:0:0:0:
448,192,25209,1,0,0:0:0:0:
192,192,25393,1,0,0:0:0:0:
320,192,25577,1,0,0:0:0:0:
448,192,25761,1,0,0:0:0:0:
64,192,25761,1,0,0:0:0:0:
64,192,26038,1,0,0:0:0:0:
192,192,26038,1,0,0:0:0:0:
320,192,26038,1,0,0:0:0:0:
192,192,26222,1,0,0:0:0:0:
320,192,26222,1,0,0:0:0:0:
448,192,26222,1,0,0:0:0:0:
64,192,26498,1,0,0:0:0:0:
192,192,26498,1,0,0:0:0:0:
320,192,26498,1,0,0:0:0:0:
448,192,26498,1,0,0:0:0:0:
64,192,26866,1,0,0:0:0:0:
192,192,26866,1,0,0:0:0:0:
192,192,27050,1,0,0:0:0:0:
320,192,27234,1,0,0:0:0:0:
448,192,27418,1,0,0:0:0:0:
320,192,27602,1,0,0:0:0:0:
192,192,27786,1,0,0:0:0:0:
320,192,27970,1,0,0:0:0:0:
448,192,28154,1,0,0:0:0:0:
320,192,28338,1,0,0:0:0:0:
192,192,28522,1,0,0:0:0:0:
64,192,28706,1,0,0:0:0:0:
192,192,28706,1,0,0:0:0:0:
320,192,28706,1,0,0:0:0:0:
448,192,28706,1,0,0:0:0:0:
64,192,28890,1,0,0:0:0:0:
192,192,28890,1,0,0:0:0:0:
320,192,28890,1,0,0:0:0:0:
448,192,28890,1,0,0:0:0:0:
64,192,29258,1,0,0:0:0:0:
192,192,29258,1,0,0:0:0:0:
320,192,29258,1,0,0:0:0:0:
448,192,29258,1,0,0:0:0:0:
64,192,29626,1,0,0:0:0:0:
448,192,29626,1,0,0:0:0:0:
192,192,29811,1,0,0:0:0:0:
320,192,29995,1,0,0:0:0:0:
448,192,30179,1,0,0:0:0:0:
64,192,30179,1,0,0:0:0:0:
320,192,30363,1,0,0:0:0:0:
192,192,30547,1,0,0:0:0:0:
64,192,30731,1,0,0:0:0:0:
448,192,30731,1,0,0:0:0:0:
192,192,30915,1,0,0:0:0:0:
64,192,31099,1,0,0:0:0:0:
448,192,31099,1,0,0:0:0:0:
192,192,31283,1,0,0:0:0:0:
320,192,31467,1,0,0:0:0:0:
448,192,31559,1,0,0:0:0:0:
320,192,31559,1,0,0:0:0:0:
192,192,31559,1,0,0:0:0:0:
64,192,31743,1,0,0:0:0:0:
192,192,31743,1,0,0:0:0:0:
320,192,31743,1,0,0:0:0:0:
192,192,32111,1,0,0:0:0:0:
64,192,32111,1,0,0:0:0:0:
320,192,32111,1,0,0:0:0:0:
448,192,32111,1,0,0:0:0:0:
64,192,32387,1,0,0:0:0:0:
192,192,32571,1,0,0:0:0:0:
64,192,32755,1,0,0:0:0:0:
192,192,32939,1,0,0:0:0:0:
64,192,33123,1,0,0:0:0:0:
192,192,33307,1,0,0:0:0:0:
320,192,33491,1,0,0:0:0:0:
448,192,33676,1,0,0:0:0:0:
320,192,33860,1,0,0:0:0:0:
448,192,34044,1,0,0:0:0:0:
320,192,34228,1,0,0:0:0:0:
64,192,34320,1,0,0:0:0:0:
192,192,34320,1,0,0:0:0:0:
320,192,34320,1,0,0:0:0:0:
192,192,34504,1,0,0:0:0:0:
320,192,34504,1,0,0:0:0:0:
448,192,34504,1,0,0:0:0:0:
64,192,34780,1,0,0:0:0:0:
192,192,34780,1,0,0:0:0:0:
320,192,34780,1,0,0:0:0:0:
448,192,34780,1,0,0:0:0:0:
64,192,35056,1,0,0:0:0:0:
448,192,35056,1,0,0:0:0:0:
192,192,35240,1,0,0:0:0:0:
320,192,35240,1,0,0:0:0:0:
320,192,35424,1,0,0:0:0:0:
192,192,35424,1,0,0:0:0:0:
448,192,35608,1,0,0:0:0:0:
64,192,35608,1,0,0:0:0:0:
192,192,35792,1,0,0:0:0:0:
320,192,35976,1,0,0:0:0:0:
448,192,36160,1,0,0:0:0:0:
320,192,36252,1,0,0:0:0:0:
192,192,36344,1,0,0:0:0:0:
64,192,36436,1,0,0:0:0:0:
192,192,36528,1,0,0:0:0:0:
320,192,36620,1,0,0:0:0:0:
448,192,36712,1,0,0:0:0:0:
320,192,36804,1,0,0:0:0:0:
192,192,36896,1,0,0:0:0:0:
64,192,36988,1,0,0:0:0:0:
192,192,36988,1,0,0:0:0:0:
320,192,36988,1,0,0:0:0:0:
192,192,37172,1,0,0:0:0:0:
320,192,37172,1,0,0:0:0:0:
448,192,37172,1,0,0:0:0:0:
64,192,37541,1,0,0:0:0:0:
192,192,37541,1,0,0:0:0:0:
320,192,37541,1,0,0:0:0:0:
448,192,37541,1,0,0:0:0:0:
64,192,37909,1,0,0:0:0:0:
448,192,37909,1,0,0:0:0:0:
192,192,38093,1,0,0:0:0:0:
320,192,38277,1,0,0:0:0:0:
448,192,38461,1,0,0:0:0:0:
64,192,38461,1,0,0:0:0:0:
320,192,38645,1,0,0:0:0:0:
192,192,38829,1,0,0:0:0:0:
64,192,39013,1,0,0:0:0:0:
448,192,39013,1,0,0:0:0:0:
192,192,39197,1,0,0:0:0:0:
320,192,39381,1,0,0:0:0:0:
448,192,39565,1,0,0:0:0:0:
64,192,39565,1,0,0:0:0:0:
192,192,39749,1,0,0:0:0:0:
320,192,39933,1,0,0:0:0:0:
448,192,40117,1,0,0:0:0:0:
64,192,40117,1,0,0:0:0:0:
64,192,40393,1,0,0:0:0:0:
192,192,40393,1,0,0:0:0:0:
320,192,40393,1,0,0:0:0:0:
448,192,40945,1,0,0:0:0:0:
64,192,40945,1,0,0:0:0:0:
320,192,41130,1,0,0:0:0:0:
192,192,41314,1,0,0:0:0:0:
64,192,41498,1,0,0:0:0:0:
192,192,41682,1,0,0:0:0:0:
320,192,41866,1,0,0:0:0:0:
448,192,42050,1,0,0:0:0:0:
320,192,42234,1,0,0:0:0:0:
192,192,42418,1,0,0:0:0:0:
64,192,42602,1,0,0:0:0:0:
192,192,42694,1,0,0:0:0:0:
448,192,42878,128,0,46099:0:0:0:0:
192,192,42878,1,0,0:0:0:0:
320,192,42878,1,0,0:0:0:0:
64,192,42970,1,0,0:0:0:0:
192,192,43062,1,0,0:0:0:0:
320,192,43154,1,0,0:0:0:0:
192,192,43246,1,0,0:0:0:0:
64,192,43338,1,0,0:0:0:0:
192,192,43430,1,0,0:0:0:0:
320,192,43522,1,0,0:0:0:0:
192,192,43614,1,0,0:0:0:0:
64,192,43706,1,0,0:0:0:0:
192,192,43798,1,0,0:0:0:0:
320,192,43890,1,0,0:0:0:0:
192,192,43982,1,0,0:0:0:0:
64,192,44074,1,0,0:0:0:0:
192,192,44166,1,0,0:0:0:0:
320,192,44258,1,0,0:0:0:0:
192,192,44350,1,0,0:0:0:0:
64,192,44442,1,0,0:0:0:0:
192,192,44534,1,0,0:0:0:0:
320,192,44626,1,0,0:0:0:0:
192,192,44718,1,0,0:0:0:0:
64,192,44811,1,0,0:0:0:0:
192,192,44903,1,0,0:0:0:0:
320,192,44995,1,0,0:0:0:0:
192,192,45087,1,0,0:0:0:0:
64,192,45179,1,0,0:0:0:0:
192,192,45271,1,0,0:0:0:0:
320,192,45363,1,0,0:0:0:0:
64,192,45363,1,0,0:0:0:0:
192,192,45363,1,0,0:0:0:0:
64,192,45547,1,0,0:0:0:0:
192,192,45547,1,0,0:0:0:0:
192,192,45731,1,0,0:0:0:0:
320,192,45731,1,0,0:0:0:0:
64,192,45731,1,0,0:0:0:0:
64,192,45823,1,0,0:0:0:0:
192,192,45915,1,0,0:0:0:0:
320,192,46007,1,0,0:0:0:0:
192,192,46099,1,0,0:0:0:0:
64,192,46099,1,0,0:0:0:0:
192,192,46467,1,0,0:0:0:0:
64,192,46467,1,0,0:0:0:0:
320,192,46651,1,0,0:0:0:0:
448,192,46835,1,0,0:0:0:0:
320,192,47019,1,0,0:0:0:0:
448,192,47203,1,0,0:0:0:0:
320,192,47387,1,0,0:0:0:0:
192,192,47571,1,0,0:0:0:0:
64,192,47571,1,0,0:0:0:0:
320,192,47755,1,0,0:0:0:0:
192,192,47939,1,0,0:0:0:0:
320,192,48123,1,0,0:0:0:0:
192,192,48307,1,0,0:0:0:0:
64,192,48491,1,0,0:0:0:0:
192,192,48491,1,0,0:0:0:0:
192,192,48676,1,0,0:0:0:0:
320,192,48860,1,0,0:0:0:0:
192,192,49044,1,0,0:0:0:0:
64,192,49228,1,0,0:0:0:0:
192,192,49228,1,0,0:0:0:0:
192,192,49412,1,0,0:0:0:0:
320,192,49596,1,0,0:0:0:0:
448,192,49780,1,0,0:0:0:0:
320,192,49780,1,0,0:0:0:0:
64,192,50424,1,0,0:0:0:0:
192,192,50424,1,0,0:0:0:0:
192,192,50792,1,0,0:0:0:0:
320,192,50792,1,0,0:0:0:0:
320,192,51160,1,0,0:0:0:0:
192,192,51160,1,0,0:0:0:0:
448,192,51160,1,0,0:0:0:0:
64,192,51896,1,0,0:0:0:0:
192,192,52080,1,0,0:0:0:0:
320,192,52265,1,0,0:0:0:0:
448,192,52449,1,0,0:0:0:0:
320,192,52541,1,0,0:0:0:0:
192,192,52633,1,0,0:0:0:0:
64,192,52725,1,0,0:0:0:0:
448,192,52725,1,0,0:0:0:0:
320,192,52817,1,0,0:0:0:0:
192,192,52909,1,0,0:0:0:0:
64,192,53001,1,0,0:0:0:0:
192,192,53185,1,0,0:0:0:0:
320,192,53369,1,0,0:0:0:0:
448,192,53553,1,0,0:0:0:0:
64,192,53553,128,0,58246:0:0:0:0:
192,192,53553,1,0,0:0:0:0:
320,192,53553,1,0,0:0:0:0:
192,192,53829,1,0,0:0:0:0:
320,192,54013,1,0,0:0:0:0:
448,192,54197,1,0,0:0:0:0:
320,192,54381,1,0,0:0:0:0:
192,192,54565,1,0,0:0:0:0:
320,192,54749,1,0,0:0:0:0:
448,192,54933,1,0,0:0:0:0:
320,192,55117,1,0,0:0:0:0:
192,192,55301,1,0,0:0:0:0:
320,192,55485,1,0,0:0:0:0:
448,192,55669,1,0,0:0:0:0:
320,192,55853,1,0,0:0:0:0:
192,192,56038,1,0,0:0:0:0:
320,192,56222,1,0,0:0:0:0:
448,192,56406,1,0,0:0:0:0:
320,192,56590,1,0,0:0:0:0:
192,192,56774,1,0,0:0:0:0:
192,192,57142,1,0,0:0:0:0:
320,192,57234,1,0,0:0:0:0:
448,192,57326,1,0,0:0:0:0:
320,192,57418,1,0,0:0:0:0:
192,192,57510,1,0,0:0:0:0:
320,192,57602,1,0,0:0:0:0:
448,192,57694,1,0,0:0:0:0:
320,192,57786,1,0,0:0:0:0:
192,192,57878,1,0,0:0:0:0:
320,192,57970,1,0,0:0:0:0:
448,192,58062,1,0,0:0:0:0:
320,192,58154,1,0,0:0:0:0:
192,192,58246,1,0,0:0:0:0:
320,192,58246,1,0,0:0:0:0:
448,192,58246,1,0,0:0:0:0:
320,192,58522,1,0,0:0:0:0:
448,192,58522,1,0,0:0:0:0:
64,192,58706,1,0,0:0:0:0:
192,192,58706,1,0,0:0:0:0:
320,192,58890,1,0,0:0:0:0:
448,192,58890,1,0,0:0:0:0:
64,192,59166,1,0,0:0:0:0:
192,192,59166,1,0,0:0:0:0:
64,192,59811,1,0,0:0:0:0:
192,192,59903,1,0,0:0:0:0:
320,192,59995,1,0,0:0:0:0:
448,192,60087,1,0,0:0:0:0:
320,192,60179,1,0,0:0:0:0:
192,192,60271,1,0,0:0:0:0:
320,192,60363,1,0,0:0:0:0:
448,192,60455,1,0,0:0:0:0:
320,192,60547,1,0,0:0:0:0:
192,192,60639,1,0,0:0:0:0:
64,192,60731,1,0,0:0:0:0:
192,192,60823,1,0,0:0:0:0:
320,192,60915,1,0,0:0:0:0:
448,192,61007,1,0,0:0:0:0:
320,192,61099,1,0,0:0:0:0:
192,192,61191,1,0,0:0:0:0:
64,192,61283,1,0,0:0:0:0:
192,192,61375,1,0,0:0:0:0:
320,192,61467,1,0,0:0:0:0:
448,192,61559,1,0,0:0:0:0:
320,192,61651,1,0,0:0:0:0:
192,192,61743,1,0,0:0:0:0:
64,192,61835,1,0,0:0:0:0:
192,192,61927,1,0,0:0:0:0:
320,192,62019,1,0,0:0:0:0:
448,192,62111,1,0,0:0:0:0:
320,192,62203,1,0,0:0:0:0:
192,192,62295,1,0,0:0:0:0:
320,192,62387,1,0,0:0:0:0:
448,192,62479,1,0,0:0:0:0:
320,192,62571,1,0,0:0:0:0:
192,192,62663,1,0,0:0:0:0:
64,192,62755,1,0,0:0:0:0:
192,192,62847,1,0,0:0:0:0:
320,192,62939,1,0,0:0:0:0:
448,192,62939,128,0,64688:0:0:0:0:
64,192,63215,1,0,0:0:0:0:
192,192,63215,1,0,0:0:0:0:
192,192,63399,1,0,0:0:0:0:
320,192,63399,1,0,0:0:0:0:
64,192,63584,1,0,0:0:0:0:
192,192,63584,1,0,0:0:0:0:
192,192,63768,1,0,0:0:0:0:
320,192,63768,1,0,0:0:0:0:
64,192,63952,1,0,0:0:0:0:
192,192,64044,1,0,0:0:0:0:
320,192,64136,1,0,0:0:0:0:
192,192,64228,1,0,0:0:0:0:
320,192,64320,1,0,0:0:0:0:
192,192,64412,1,0,0:0:0:0:
64,192,64504,1,0,0:0:0:0:
192,192,64596,1,0,0:0:0:0:
320,192,64688,1,0,0:0:0:0:
64,192,64872,1,0,0:0:0:0:
192,192,64964,1,0,0:0:0:0:
320,192,65056,1,0,0:0:0:0:
448,192,65148,1,0,0:0:0:0:
64,192,65240,1,0,0:0:0:0:
192,192,65332,1,0,0:0:0:0:
320,192,65424,1,0,0:0:0:0:
448,192,65516,1,0,0:0:0:0:
64,192,65608,1,0,0:0:0:0:
192,192,65700,1,0,0:0:0:0:
320,192,65792,1,0,0:0:0:0:
448,192,65884,1,0,0:0:0:0:
192,192,66160,1,0,0:0:0:0:
64,192,66160,1,0,0:0:0:0:
320,192,66160,1,0,0:0:0:0:
320,192,66436,1,0,0:0:0:0:
448,192,66436,1,0,0:0:0:0:
64,192,66896,1,0,0:0:0:0:
192,192,66896,1,0,0:0:0:0:
320,192,66896,1,0,0:0:0:0:
320,192,67357,1,0,0:0:0:0:
448,192,67357,1,0,0:0:0:0:
64,192,67725,1,0,0:0:0:0:
192,192,67725,1,0,0:0:0:0:
320,192,67725,1,0,0:0:0:0:
320,192,68001,1,0,0:0:0:0:
192,192,68001,1,0,0:0:0:0:
192,192,68369,1,0,0:0:0:0:
64,192,68369,1,0,0:0:0:0:
320,192,68737,1,0,0:0:0:0:
448,192,68737,1,0,0:0:0:0:
64,192,69105,1,0,0:0:0:0:
192,192,69105,1,0,0:0:0:0:
448,192,69105,128,0,70301:0:0:0:0:
64,192,70301,1,0,0:0:0:0:
192,192,70301,1,0,0:0:0:0:
64,192,70761,1,0,0:0:0:0:
192,192,70853,1,0,0:0:0:0:
320,192,70945,1,0,0:0:0:0:
448,192,71038,1,0,0:0:0:0:
320,192,71130,1,0,0:0:0:0:
192,192,71222,1,0,0:0:0:0:
64,192,71314,1,0,0:0:0:0:
192,192,71406,1,0,0:0:0:0:
320,192,71498,1,0,0:0:0:0:
448,192,71590,1,0,0:0:0:0:
320,192,71682,1,0,0:0:0:0:
192,192,71774,1,0,0:0:0:0:
64,192,71866,1,0,0:0:0:0:
192,192,71958,1,0,0:0:0:0:
320,192,72050,1,0,0:0:0:0:
448,192,72142,1,0,0:0:0:0:
320,192,72234,1,0,0:0:0:0:
192,192,72326,1,0,0:0:0:0:
64,192,72418,1,0,0:0:0:0:
192,192,72510,1,0,0:0:0:0:
320,192,72602,1,0,0:0:0:0:
448,192,72694,1,0,0:0:0:0:
320,192,72786,1,0,0:0:0:0:
192,192,72878,1,0,0:0:0:0:
64,192,72970,1,0,0:0:0:0:
192,192,73062,1,0,0:0:0:0:
320,192,73154,1,0,0:0:0:0:
448,192,73246,1,0,0:0:0:0:
64,192,73338,1,0,0:0:0:0:
192,192,73430,1,0,0:0:0:0:
320,192,73522,1,0,0:0:0:0:
448,192,73614,1,0,0:0:0:0:
64,192,73890,1,0,0:0:0:0:
192,192,73890,1,0,0:0:0:0:
192,192,74258,1,0,0:0:0:0:
320,192,74258,1,0,0:0:0:0:
448,192,74258,128,0,76007:0:0:0:0:
64,192,74442,1,0,0:0:0:0:
192,192,74534,1,0,0:0:0:0:
320,192,74626,1,0,0:0:0:0:
64,192,74718,1,0,0:0:0:0:
192,192,74811,1,0,0:0:0:0:
320,192,74903,1,0,0:0:0:0:
64,192,74995,1,0,0:0:0:0:
192,192,75087,1,0,0:0:0:0:
320,192,75179,1,0,0:0:0:0:
64,192,75271,1,0,0:0:0:0:
192,192,75363,1,0,0:0:0:0:
320,192,75455,1,0,0:0:0:0:
64,192,75547,1,0,0:0:0:0:
192,192,75639,1,0,0:0:0:0:
320,192,75731,1,0,0:0:0:0:
64,192,75823,1,0,0:0:0:0:
192,192,75915,1,0,0:0:0:0:
320,192,76007,1,0,0:0:0:0:
64,192,76283,1,0,0:0:0:0:
192,192,76283,1,0,0:0:0:0:
320,192,76467,1,0,0:0:0:0:
448,192,76467,1,0,0:0:0:0:
64,192,76559,1,0,0:0:0:0:
192,192,76651,1,0,0:0:0:0:
320,192,76743,1,0,0:0:0:0:
64,192,76927,1,0,0:0:0:0:
192,192,76927,1,0,0:0:0:0:
320,192,76927,1,0,0:0:0:0:
64,192,77387,1,0,0:0:0:0:
192,192,77571,1,0,0:0:0:0:
320,192,77847,1,0,0:0:0:0:
448,192,78031,1,0,0:0:0:0:
64,192,78031,128,0,81896:0:0:0:0:
192,192,78307,1,0,0:0:0:0:
320,192,78399,1,0,0:0:0:0:
448,192,78491,1,0,0:0:0:0:
192,192,78584,1,0,0:0:0:0:
320,192,78676,1,0,0:0:0:0:
448,192,78768,1,0,0:0:0:0:
192,192,78860,1,0,0:0:0:0:
320,192,78952,1,0,0:0:0:0:
448,192,79044,1,0,0:0:0:0:
192,192,79136,1,0,0:0:0:0:
320,192,79228,1,0,0:0:0:0:
448,192,79320,1,0,0:0:0:0:
192,192,79412,1,0,0:0:0:0:
320,192,79504,1,0,0:0:0:0:
448,192,79596,1,0,0:0:0:0:
448,192,79780,1,0,0:0:0:0:
320,192,79872,1,0,0:0:0:0:
192,192,79964,1,0,0:0:0:0:
320,192,80056,1,0,0:0:0:0:
448,192,80148,1,0,0:0:0:0:
320,192,80240,1,0,0:0:0:0:
192,192,80332,1,0,0:0:0:0:
320,192,80424,1,0,0:0:0:0:
448,192,80516,1,0,0:0:0:0:
320,192,80608,1,0,0:0:0:0:
192,192,80700,1,0,0:0:0:0:
320,192,80792,1,0,0:0:0:0:
448,192,80884,1,0,0:0:0:0:
320,192,80976,1,0,0:0:0:0:
192,192,81160,1,0,0:0:0:0:
320,192,81160,1,0,0:0:0:0:
192,192,81528,1,0,0:0:0:0:
320,192,81528,1,0,0:0:0:0:
448,192,81528,1,0,0:0:0:0:
192,192,81712,1,0,0:0:0:0:
320,192,81804,1,0,0:0:0:0:
448,192,81896,1,0,0:0:0:0:
320,192,81896,1,0,0:0:0:0:
64,192,82080,1,0,0:0:0:0:
192,192,82172,1,0,0:0:0:0:
320,192,82265,1,0,0:0:0:0:
448,192,82357,1,0,0:0:0:0:
320,192,82449,1,0,0:0:0:0:
192,192,82541,1,0,0:0:0:0:
64,192,82633,1,0,0:0:0:0:
192,192,82725,1,0,0:0:0:0:
320,192,82817,1,0,0:0:0:0:
448,192,82909,1,0,0:0:0:0:
320,192,83001,1,0,0:0:0:0:
192,192,83093,1,0,0:0:0:0:
64,192,83185,1,0,0:0:0:0:
192,192,83277,1,0,0:0:0:0:
320,192,83369,1,0,0:0:0:0:
448,192,83461,1,0,0:0:0:0:
320,192,83553,1,0,0:0:0:0:
192,192,83645,1,0,0:0:0:0:
64,192,83737,1,0,0:0:0:0:
192,192,83829,1,0,0:0:0:0:
320,192,83921,1,0,0:0:0:0:
448,192,84013,1,0,0:0:0:0:
320,192,84105,1,0,0:0:0:0:
192,192,84197,1,0,0:0:0:0:
64,192,84289,1,0,0:0:0:0:
192,192,84381,1,0,0:0:0:0:
320,192,84473,1,0,0:0:0:0:
448,192,84565,1,0,0:0:0:0:
320,192,84657,1,0,0:0:0:0:
192,192,84657,1,0,0:0:0:0:
64,192,84933,1,0,0:0:0:0:
192,192,84933,1,0,0:0:0:0:
320,192,84933,1,0,0:0:0:0:
320,192,85117,1,0,0:0:0:0:
448,192,85117,1,0,0:0:0:0:
192,192,85117,1,0,0:0:0:0:
64,192,85393,1,0,0:0:0:0:
192,192,85393,1,0,0:0:0:0:
320,192,85393,1,0,0:0:0:0:
320,192,85761,1,0,0:0:0:0:
448,192,85761,1,0,0:0:0:0:
192,192,85761,1,0,0:0:0:0:
64,192,85761,128,0,88430:0:0:0:0:
64,192,88614,1,0,0:0:0:0:
192,192,88706,1,0,0:0:0:0:
