osu file format v14

[General]
AudioFilename: Oregairu Season 2 (Zoku) OP - Opening - Harumodoki by Yanagi Nagi.mp3
AudioLeadIn: 0
PreviewTime: -1
Countdown: 1
SampleSet: None
StackLeniency: 0.7
Mode: 3
LetterboxInBreaks: 1
SpecialStyle: 0
WidescreenStoryboard: 1

[Editor]
DistanceSpacing: 0.8
BeatDivisor: 4
GridSize: 32
TimelineZoom: 2.2

[Metadata]
Title:Harumodoki - (TV Size)
TitleUnicode:Harumodoki - (TV Size)
Artist:Yanaginagi
ArtistUnicode:Yanaginagi
Creator:-Mirinai Mina-
Version:HD
Source:
Tags:Oregairu
BeatmapID:682110
BeatmapSetID:304469

[Difficulty]
HPDrainRate:5
CircleSize:4
OverallDifficulty:5
ApproachRate:5
SliderMultiplier:1.4
SliderTickRate:1

[Events]
//Background and Video events
0,0,"Yahari ore no seishun love come wa machiagatteiru.jpg",0,0
//Break Periods
//Storyboard Layer 0 (Background)
//Storyboard Layer 1 (Fail)
//Storyboard Layer 2 (Pass)
//Storyboard Layer 3 (Foreground)
//Storyboard Sound Samples

[TimingPoints]
3123.9018404908,368.098159509202,4,2,0,100,1,0

[HitObjects]
64,192,455,5,0,0:0:0:0:
448,192,823,1,0,0:0:0:0:
64,192,1191,1,0,0:0:0:0:
448,192,1559,1,0,0:0:0:0:
64,192,1927,1,0,0:0:0:0:
448,192,2295,1,0,0:0:0:0:
64,192,2571,1,0,0:0:0:0:
448,192,2939,1,0,0:0:0:0:
64,192,3584,128,0,7265:0:0:0:0:
192,192,3584,1,0,0:0:0:0:
320,192,3584,1,0,0:0:0:0:
320,192,3768,1,0,0:0:0:0:
192,192,3952,1,0,0:0:0:0:
320,192,4136,1,0,0:0:0:0:
448,192,4320,1,0,0:0:0:0:
320,192,4504,1,0,0:0:0:0:
192,192,4688,1,0,0:0:0:0:
320,192,4872,1,0,0:0:0:0:
448,192,5056,1,0,0:0:0:0:
320,192,5240,1,0,0:0:0:0:
192,192,5424,1,0,0:0:0:0:
320,192,5608,1,0,0:0:0:0:
448,192,5792,1,0,0:0:0:0:
320,192,5976,1,0,0:0:0:0:
192,192,6160,1,0,0:0:0:0:
320,192,6344,1,0,0:0:0:0:
448,192,6528,1,0,0:0:0:0:
320,192,6712,1,0,0:0:0:0:
192,192,6896,1,0,0:0:0:0:
320,192,6988,1,0,0:0:0:0:
448,192,7080,1,0,0:0:0:0:
320,192,7172,1,0,0:0:0:0:
192,192,7265,1,0,0:0:0:0:
320,192,7265,1,0,0:0:0:0:
64,192,7541,1,0,0:0:0:0:
192,192,7725,1,0,0:0:0:0:
320,192,7909,1,0,0:0:0:0:
448,192,8093,1,0,0:0:0:0:
320,192,8277,1,0,0:0:0:0:
192,192,8461,1,0,0:0:0:0:
64,192,8645,1,0,0:0:0:0:
192,192,8829,1,0,0:0:0:0:
320,192,9013,1,0,0:0:0:0:
448,192,9197,1,0,0:0:0:0:
320,192,9381,1,0,0:0:0:0:
192,192,9565,1,0,0:0:0:0:
64,192,9749,1,0,0:0:0:0:
320,192,10025,1,0,0:0:0:0:
448,192,10025,1,0,0:0:0:0:
448,192,10301,1,0,0:0:0:0:
320,192,10485,1,0,0:0:0:0:
192,192,10669,1,0,0:0:0:0:
64,192,10853,1,0,0:0:0:0:
192,192,11038,1,0,0:0:0:0:
320,192,11222,1,0,0:0:0:0:
448,192,11406,1,0,0:0:0:0:
320,192,11590,1,0,0:0:0:0:
192,192,11774,1,0,0:0:0:0:
64,192,11958,1,0,0:0:0:0:
192,192,12142,1,0,0:0:0:0:
320,192,12326,1,0,0:0:0:0:
448,192,12510,1,0,0:0:0:0:
192,192,12786,1,0,0:0:0:0:
320,192,12786,1,0,0:0:0:0:
64,192,13154,1,0,0:0:0:0:
192,192,13338,1,0,0:0:0:0:
320,192,13522,1,0,0:0:0:0:
448,192,13706,1,0,0:0:0:0:
320,192,13890,1,0,0:0:0:0:
192,192,14074,1,0,0:0:0:0:
64,192,14258,1,0,0:0:0:0:
192,192,14442,1,0,0:0:0:0:
320,192,14626,1,0,0:0:0:0:
448,192,14811,1,0,0:0:0:0:
320,192,14995,1,0,0:0:0:0:
192,192,15179,1,0,0:0:0:0:
64,192,15363,1,0,0:0:0:0:
448,192,15547,128,0,17755:0:0:0:0:
192,192,15547,1,0,0:0:0:0:
320,192,15547,1,0,0:0:0:0:
192,192,17755,1,0,0:0:0:0:
320,192,17755,1,0,0:0:0:0:
192,192,17939,1,0,0:0:0:0:
320,192,17939,1,0,0:0:0:0:
64,192,18215,1,0,0:0:0:0:
448,192,18215,1,0,0:0:0:0:
64,192,18491,1,0,0:0:0:0:
192,192,18676,1,0,0:0:0:0:
64,192,18860,1,0,0:0:0:0:
448,192,18860,1,0,0:0:0:0:
320,192,19044,1,0,0:0:0:0:
448,192,19228,1,0,0:0:0:0:
64,192,19228,1,0,0:0:0:0:
192,192,19412,1,0,0:0:0:0:
64,192,19596,1,0,0:0:0:0:
448,192,19596,1,0,0:0:0:0:
320,192,19780,1,0,0:0:0:0:
448,192,19964,1,0,0:0:0:0:
64,192,19964,1,0,0:0:0:0:
192,192,20148,1,0,0:0:0:0:
64,192,20332,1,0,0:0:0:0:
192,192,20516,1,0,0:0:0:0:
320,192,20516,1,0,0:0:0:0:
192,192,20700,1,0,0:0:0:0:
320,192,20700,1,0,0:0:0:0:
64,192,20976,1,0,0:0:0:0:
448,192,20976,1,0,0:0:0:0:
64,192,21252,1,0,0:0:0:0:
192,192,21436,1,0,0:0:0:0:
320,192,21620,1,0,0:0:0:0:
448,192,21804,1,0,0:0:0:0:
320,192,21988,1,0,0:0:0:0:
192,192,22172,1,0,0:0:0:0:
64,192,22357,1,0,0:0:0:0:
192,192,22541,1,0,0:0:0:0:
320,192,22725,1,0,0:0:0:0:
448,192,22909,1,0,0:0:0:0:
320,192,23093,1,0,0:0:0:0:
192,192,23277,1,0,0:0:0:0:
320,192,23277,1,0,0:0:0:0:
192,192,23461,1,0,0:0:0:0:
320,192,23461,1,0,0:0:0:0:
64,192,23737,1,0,0:0:0:0:
448,192,23737,1,0,0:0:0:0:
448,192,24105,1,0,0:0:0:0:
320,192,24197,1,0,0:0:0:0:
192,192,24289,1,0,0:0:0:0:
64,192,24381,1,0,0:0:0:0:
64,192,24565,1,0,0:0:0:0:
192,192,24657,1,0,0:0:0:0:
320,192,24749,1,0,0:0:0:0:
448,192,24841,1,0,0:0:0:0:
320,192,24933,1,0,0:0:0:0:
192,192,25025,1,0,0:0:0:0:
64,192,25117,1,0,0:0:0:0:
192,192,25209,1,0,0:0:0:0:
320,192,25301,1,0,0:0:0:0:
448,192,25393,1,0,0:0:0:0:
320,192,25485,1,0,0:0:0:0:
192,192,25577,1,0,0:0:0:0:
64,192,25669,1,0,0:0:0:0:
320,192,25945,1,0,0:0:0:0:
192,192,25945,1,0,0:0:0:0:
320,192,26130,1,0,0:0:0:0:
192,192,26130,1,0,0:0:0:0:
448,192,26498,1,0,0:0:0:0:
64,192,26498,1,0,0:0:0:0:
192,192,26498,128,0,29350:0:0:0:0:
320,192,26498,128,0,29350:0:0:0:0:
64,192,28798,1,0,0:0:0:0:
448,192,28798,1,0,0:0:0:0:
64,192,28982,1,0,0:0:0:0:
448,192,28982,1,0,0:0:0:0:
64,192,29350,1,0,0:0:0:0:
448,192,29350,1,0,0:0:0:0:
64,192,29718,1,0,0:0:0:0:
192,192,29811,1,0,0:0:0:0:
320,192,29903,1,0,0:0:0:0:
448,192,29995,1,0,0:0:0:0:
64,192,30087,1,0,0:0:0:0:
192,192,30179,1,0,0:0:0:0:
320,192,30271,1,0,0:0:0:0:
448,192,30363,1,0,0:0:0:0:
64,192,30455,1,0,0:0:0:0:
192,192,30547,1,0,0:0:0:0:
320,192,30639,1,0,0:0:0:0:
448,192,30731,1,0,0:0:0:0:
64,192,30823,1,0,0:0:0:0:
192,192,30915,1,0,0:0:0:0:
320,192,31007,1,0,0:0:0:0:
448,192,31099,1,0,0:0:0:0:
192,192,31559,1,0,0:0:0:0:
320,192,31559,1,0,0:0:0:0:
192,192,31743,1,0,0:0:0:0:
320,192,31743,1,0,0:0:0:0:
64,192,32111,1,0,0:0:0:0:
448,192,32111,1,0,0:0:0:0:
64,192,32479,1,0,0:0:0:0:
192,192,32663,1,0,0:0:0:0:
320,192,32847,1,0,0:0:0:0:
448,192,33031,1,0,0:0:0:0:
320,192,33215,1,0,0:0:0:0:
448,192,33399,1,0,0:0:0:0:
320,192,33584,1,0,0:0:0:0:
448,192,33768,1,0,0:0:0:0:
320,192,33952,1,0,0:0:0:0:
448,192,34136,1,0,0:0:0:0:
192,192,34320,1,0,0:0:0:0:
320,192,34320,1,0,0:0:0:0:
192,192,34504,1,0,0:0:0:0:
320,192,34504,1,0,0:0:0:0:
64,192,34872,1,0,0:0:0:0:
448,192,34872,1,0,0:0:0:0:
64,192,35148,1,0,0:0:0:0:
192,192,35240,1,0,0:0:0:0:
320,192,35332,1,0,0:0:0:0:
448,192,35424,1,0,0:0:0:0:
448,192,35608,1,0,0:0:0:0:
320,192,35792,1,0,0:0:0:0:
192,192,35976,1,0,0:0:0:0:
64,192,36160,1,0,0:0:0:0:
192,192,36344,1,0,0:0:0:0:
320,192,36528,1,0,0:0:0:0:
448,192,36712,1,0,0:0:0:0:
192,192,37080,1,0,0:0:0:0:
320,192,37080,1,0,0:0:0:0:
192,192,37265,1,0,0:0:0:0:
320,192,37265,1,0,0:0:0:0:
64,192,37633,1,0,0:0:0:0:
448,192,37633,1,0,0:0:0:0:
64,192,37909,1,0,0:0:0:0:
192,192,38001,1,0,0:0:0:0:
320,192,38093,1,0,0:0:0:0:
448,192,38185,1,0,0:0:0:0:
448,192,38369,1,0,0:0:0:0:
320,192,38553,1,0,0:0:0:0:
192,192,38737,1,0,0:0:0:0:
64,192,38921,1,0,0:0:0:0:
192,192,39105,1,0,0:0:0:0:
320,192,39289,1,0,0:0:0:0:
448,192,39473,1,0,0:0:0:0:
320,192,39657,1,0,0:0:0:0:
192,192,39841,1,0,0:0:0:0:
64,192,40025,1,0,0:0:0:0:
192,192,40209,1,0,0:0:0:0:
320,192,40393,1,0,0:0:0:0:
448,192,40393,1,0,0:0:0:0:
64,192,41038,1,0,0:0:0:0:
192,192,41222,1,0,0:0:0:0:
320,192,41406,1,0,0:0:0:0:
192,192,41590,1,0,0:0:0:0:
64,192,41774,1,0,0:0:0:0:
192,192,41958,1,0,0:0:0:0:
320,192,42142,1,0,0:0:0:0:
192,192,42326,1,0,0:0:0:0:
64,192,42510,1,0,0:0:0:0:
448,192,42510,128,0,46099:0:0:0:0:
192,192,42510,1,0,0:0:0:0:
64,192,42694,1,0,0:0:0:0:
192,192,42878,1,0,0:0:0:0:
320,192,43062,1,0,0:0:0:0:
192,192,43246,1,0,0:0:0:0:
64,192,43430,1,0,0:0:0:0:
192,192,43614,1,0,0:0:0:0:
320,192,43798,1,0,0:0:0:0:
192,192,43982,1,0,0:0:0:0:
64,192,44166,1,0,0:0:0:0:
192,192,44350,1,0,0:0:0:0:
320,192,44534,1,0,0:0:0:0:
192,192,44718,1,0,0:0:0:0:
64,192,44903,1,0,0:0:0:0:
192,192,45087,1,0,0:0:0:0:
320,192,45271,1,0,0:0:0:0:
192,192,45455,1,0,0:0:0:0:
64,192,45639,1,0,0:0:0:0:
320,192,45639,1,0,0:0:0:0:
192,192,45731,1,0,0:0:0:0:
320,192,45823,1,0,0:0:0:0:
192,192,45915,1,0,0:0:0:0:
64,192,46007,1,0,0:0:0:0:
192,192,46099,1,0,0:0:0:0:
64,192,46467,1,0,0:0:0:0:
192,192,46651,1,0,0:0:0:0:
320,192,46835,1,0,0:0:0:0:
448,192,47019,1,0,0:0:0:0:
320,192,47203,1,0,0:0:0:0:
192,192,47387,1,0,0:0:0:0:
320,192,47571,1,0,0:0:0:0:
448,192,47755,1,0,0:0:0:0:
320,192,47939,1,0,0:0:0:0:
192,192,48123,1,0,0:0:0:0:
320,192,48307,1,0,0:0:0:0:
192,192,48491,1,0,0:0:0:0:
64,192,48676,1,0,0:0:0:0:
192,192,48860,1,0,0:0:0:0:
320,192,49044,1,0,0:0:0:0:
192,192,49228,1,0,0:0:0:0:
64,192,49412,1,0,0:0:0:0:
192,192,49596,1,0,0:0:0:0:
320,192,49780,1,0,0:0:0:0:
64,192,50056,1,0,0:0:0:0:
192,192,50148,1,0,0:0:0:0:
320,192,50240,1,0,0:0:0:0:
448,192,50332,1,0,0:0:0:0:
448,192,50516,1,0,0:0:0:0:
320,192,50700,1,0,0:0:0:0:
192,192,50884,1,0,0:0:0:0:
64,192,51068,1,0,0:0:0:0:
192,192,51252,1,0,0:0:0:0:
320,192,51436,1,0,0:0:0:0:
448,192,51620,1,0,0:0:0:0:
320,192,51804,1,0,0:0:0:0:
192,192,51988,1,0,0:0:0:0:
64,192,52172,1,0,0:0:0:0:
192,192,52357,1,0,0:0:0:0:
320,192,52541,1,0,0:0:0:0:
448,192,52725,1,0,0:0:0:0:
320,192,52909,1,0,0:0:0:0:
192,192,53093,1,0,0:0:0:0:
64,192,53277,1,0,0:0:0:0:
192,192,53369,1,0,0:0:0:0:
320,192,53461,1,0,0:0:0:0:
448,192,53553,1,0,0:0:0:0:
64,192,53645,128,0,58338:0:0:0:0:
192,192,53645,1,0,0:0:0:0:
320,192,53829,1,0,0:0:0:0:
448,192,54013,1,0,0:0:0:0:
320,192,54197,1,0,0:0:0:0:
192,192,54381,1,0,0:0:0:0:
320,192,54565,1,0,0:0:0:0:
448,192,54749,1,0,0:0:0:0:
320,192,54933,1,0,0:0:0:0:
192,192,55117,1,0,0:0:0:0:
320,192,55301,1,0,0:0:0:0:
448,192,55485,1,0,0:0:0:0:
320,192,55669,1,0,0:0:0:0:
192,192,55853,1,0,0:0:0:0:
320,192,56038,1,0,0:0:0:0:
448,192,56222,1,0,0:0:0:0:
320,192,56406,1,0,0:0:0:0:
192,192,56590,1,0,0:0:0:0:
320,192,56774,1,0,0:0:0:0:
448,192,56958,1,0,0:0:0:0:
320,192,57142,1,0,0:0:0:0:
192,192,57326,1,0,0:0:0:0:
320,192,57510,1,0,0:0:0:0:
448,192,57694,1,0,0:0:0:0:
192,192,57878,1,0,0:0:0:0:
320,192,57970,1,0,0:0:0:0:
448,192,58062,1,0,0:0:0:0:
320,192,58154,1,0,0:0:0:0:
192,192,58246,1,0,0:0:0:0:
192,192,58338,1,0,0:0:0:0:
320,192,58338,1,0,0:0:0:0:
64,192,59811,1,0,0:0:0:0:
192,192,59903,1,0,0:0:0:0:
320,192,59995,1,0,0:0:0:0:
448,192,60087,1,0,0:0:0:0:
320,192,60179,1,0,0:0:0:0:
192,192,60271,1,0,0:0:0:0:
64,192,60363,1,0,0:0:0:0:
192,192,60455,1,0,0:0:0:0:
320,192,60547,1,0,0:0:0:0:
448,192,60639,1,0,0:0:0:0:
320,192,60731,1,0,0:0:0:0:
192,192,60823,1,0,0:0:0:0:
64,192,60915,1,0,0:0:0:0:
192,192,61007,1,0,0:0:0:0:
320,192,61099,1,0,0:0:0:0:
448,192,61191,1,0,0:0:0:0:
320,192,61283,1,0,0:0:0:0:
192,192,61375,1,0,0:0:0:0:
64,192,61467,1,0,0:0:0:0:
192,192,61559,1,0,0:0:0:0:
320,192,61651,1,0,0:0:0:0:
192,192,61743,1,0,0:0:0:0:
64,192,61835,1,0,0:0:0:0:
192,192,61927,1,0,0:0:0:0:
320,192,62019,1,0,0:0:0:0:
192,192,62111,1,0,0:0:0:0:
64,192,62203,1,0,0:0:0:0:
192,192,62295,1,0,0:0:0:0:
320,192,62387,1,0,0:0:0:0:
448,192,62479,1,0,0:0:0:0:
320,192,62571,1,0,0:0:0:0:
192,192,62663,1,0,0:0:0:0:
64,192,62755,1,0,0:0:0:0:
192,192,62847,1,0,0:0:0:0:
320,192,62939,1,0,0:0:0:0:
448,192,63031,1,0,0:0:0:0:
320,192,63123,1,0,0:0:0:0:
192,192,63215,1,0,0:0:0:0:
64,192,63307,1,0,0:0:0:0:
192,192,63399,1,0,0:0:0:0:
320,192,63491,1,0,0:0:0:0:
448,192,63584,1,0,0:0:0:0:
64,192,63584,128,0,64596:0:0:0:0:
64,192,64872,1,0,0:0:0:0:
192,192,65056,1,0,0:0:0:0:
320,192,65240,1,0,0:0:0:0:
448,192,65424,1,0,0:0:0:0:
320,192,65608,1,0,0:0:0:0:
448,192,65792,1,0,0:0:0:0:
320,192,65976,1,0,0:0:0:0:
448,192,66160,1,0,0:0:0:0:
64,192,66528,1,0,0:0:0:0:
192,192,66528,1,0,0:0:0:0:
320,192,66528,1,0,0:0:0:0:
192,192,66988,1,0,0:0:0:0:
320,192,67172,1,0,0:0:0:0:
448,192,67357,1,0,0:0:0:0:
320,192,67541,1,0,0:0:0:0:
192,192,67725,1,0,0:0:0:0:
64,192,67909,1,0,0:0:0:0:
192,192,68093,1,0,0:0:0:0:
320,192,68093,1,0,0:0:0:0:
320,192,68461,1,0,0:0:0:0:
448,192,68461,1,0,0:0:0:0:
64,192,68737,1,0,0:0:0:0:
192,192,68737,1,0,0:0:0:0:
320,192,68737,1,0,0:0:0:0:
448,192,69105,128,0,70209:0:0:0:0:
320,192,69105,1,0,0:0:0:0:
64,192,69105,1,0,0:0:0:0:
64,192,70669,1,0,0:0:0:0:
192,192,70761,1,0,0:0:0:0:
320,192,70853,1,0,0:0:0:0:
448,192,70945,1,0,0:0:0:0:
64,192,71038,1,0,0:0:0:0:
192,192,71130,1,0,0:0:0:0:
320,192,71222,1,0,0:0:0:0:
448,192,71314,1,0,0:0:0:0:
320,192,71406,1,0,0:0:0:0:
192,192,71498,1,0,0:0:0:0:
64,192,71590,1,0,0:0:0:0:
448,192,71682,1,0,0:0:0:0:
320,192,71774,1,0,0:0:0:0:
192,192,71866,1,0,0:0:0:0:
64,192,71958,1,0,0:0:0:0:
448,192,72050,1,0,0:0:0:0:
320,192,72142,1,0,0:0:0:0:
192,192,72234,1,0,0:0:0:0:
64,192,72326,1,0,0:0:0:0:
448,192,72418,1,0,0:0:0:0:
320,192,72510,1,0,0:0:0:0:
192,192,72602,1,0,0:0:0:0:
64,192,72694,1,0,0:0:0:0:
320,192,72878,1,0,0:0:0:0:
448,192,72878,1,0,0:0:0:0:
64,192,73246,1,0,0:0:0:0:
192,192,73246,1,0,0:0:0:0:
448,192,73890,128,0,76007:0:0:0:0:
320,192,73890,1,0,0:0:0:0:
192,192,73890,1,0,0:0:0:0:
192,192,76007,1,0,0:0:0:0:
320,192,76007,1,0,0:0:0:0:
64,192,76375,1,0,0:0:0:0:
192,192,76467,1,0,0:0:0:0:
448,192,76651,1,0,0:0:0:0:
320,192,76743,1,0,0:0:0:0:
192,192,76835,1,0,0:0:0:0:
64,192,76927,1,0,0:0:0:0:
192,192,77019,1,0,0:0:0:0:
320,192,77387,1,0,0:0:0:0:
448,192,77479,1,0,0:0:0:0:
320,192,77571,1,0,0:0:0:0:
192,192,77663,1,0,0:0:0:0:
64,192,77755,1,0,0:0:0:0:
192,192,77847,1,0,0:0:0:0:
320,192,77939,1,0,0:0:0:0:
448,192,78031,1,0,0:0:0:0:
320,192,78123,1,0,0:0:0:0:
192,192,78123,1,0,0:0:0:0:
64,192,79044,1,0,0:0:0:0:
192,192,79412,1,0,0:0:0:0:
320,192,79688,1,0,0:0:0:0:
448,192,80056,1,0,0:0:0:0:
320,192,80424,1,0,0:0:0:0:
64,192,80884,1,0,0:0:0:0:
192,192,81160,1,0,0:0:0:0:
448,192,81344,128,0,83921:0:0:0:0:
320,192,81344,1,0,0:0:0:0:
320,192,81804,1,0,0:0:0:0:
192,192,81896,1,0,0:0:0:0:
64,192,81988,1,0,0:0:0:0:
320,192,82080,1,0,0:0:0:0:
192,192,82172,1,0,0:0:0:0:
64,192,82265,1,0,0:0:0:0:
320,192,82357,1,0,0:0:0:0:
192,192,82449,1,0,0:0:0:0:
64,192,82541,1,0,0:0:0:0:
320,192,82633,1,0,0:0:0:0:
192,192,82725,1,0,0:0:0:0:
64,192,82817,1,0,0:0:0:0:
320,192,82909,1,0,0:0:0:0:
192,192,83001,1,0,0:0:0:0:
64,192,83093,1,0,0:0:0:0:
320,192,83185,1,0,0:0:0:0:
192,192,83277,1,0,0:0:0:0:
64,192,83369,1,0,0:0:0:0:
320,192,83461,1,0,0:0:0:0:
192,192,83553,1,0,0:0:0:0:
64,192,83645,1,0,0:0:0:0:
320,192,83737,1,0,0:0:0:0:
192,192,83829,1,0,0:0:0:0:
64,192,83921,1,0,0:0:0:0:
192,192,84565,1,0,0:0:0:0:
320,192,84933,1,0,0:0:0:0:
448,192,85117,1,0,0:0:0:0:
320,192,85485,1,0,0:0:0:0:
192,192,85761,1,0,0:0:0:0:
64,192,85761,128,0,88246:0:0:0:0:
