osu file format v14

[General]
AudioFilename: Yahari Ore no Seishun Love Come wa Machigatteiru. Zoku OP - Haru Modoki by Nagi Yanagi.mp3
AudioLeadIn: 0
PreviewTime: 436
Countdown: 0
SampleSet: Soft
StackLeniency: 0.7
Mode: 3
LetterboxInBreaks: 0
SpecialStyle: 0
WidescreenStoryboard: 0

[Editor]
DistanceSpacing: 0.8
BeatDivisor: 4
GridSize: 8
TimelineZoom: 1

[Metadata]
Title:Haru Modoki
TitleUnicode:Haru Modoki
Artist:Yanagi, Nagi
ArtistUnicode:Yanagi, Nagi
Creator:[nano]Shiroe
Version:EZ
Source:やはり俺の青春ラブコメはまちがっている。続
Tags:Nagi
BeatmapID:692152
BeatmapSetID:309340

[Difficulty]
HPDrainRate:7
CircleSize:4
OverallDifficulty:7
ApproachRate:5
SliderMultiplier:1.4
SliderTickRate:1

[Events]
//Background and Video events
0,0,"vlcsnap-2015-04-03-20h51m56s47.png",0,0
//Break Periods
//Storyboard Layer 0 (Background)
//Storyboard Layer 1 (Fail)
//Storyboard Layer 2 (Pass)
//Storyboard Layer 3 (Foreground)
//Storyboard Sound Samples

[TimingPoints]
9486,344.748333716387,4,2,0,10,1,0
60336,-100,4,2,0,10,0,1
86364,-100,4,2,0,10,0,0

[HitObjects]
192,192,1039,5,0,0:0:0:0:
192,192,2418,1,0,0:0:0:0:
320,192,3797,1,0,0:0:0:0:
448,192,5176,128,0,7762:0:0:0:0:
64,192,7245,1,0,0:0:0:0:
192,192,7417,1,0,0:0:0:0:
64,192,7589,1,0,0:0:0:0:
192,192,7762,1,0,0:0:0:0:
192,192,8107,1,0,0:0:0:0:
64,192,8279,1,0,0:0:0:0:
320,192,8451,1,0,0:0:0:0:
192,192,8624,1,0,0:0:0:0:
192,192,8968,1,0,0:0:0:0:
64,192,9141,1,0,0:0:0:0:
448,192,9313,1,0,0:0:0:0:
192,192,9486,1,0,0:0:0:0:
320,192,9658,1,0,0:0:0:0:
192,192,9830,1,0,0:0:0:0:
448,192,10003,1,0,0:0:0:0:
64,192,10520,1,0,0:0:0:0:
192,192,10520,1,0,0:0:0:0:
320,192,10864,1,0,0:0:0:0:
448,192,11037,1,0,0:0:0:0:
64,192,11209,1,0,0:0:0:0:
192,192,11382,1,0,0:0:0:0:
320,192,11726,1,0,0:0:0:0:
64,192,12071,1,0,0:0:0:0:
320,192,12416,1,0,0:0:0:0:
320,192,12761,1,0,0:0:0:0:
448,192,13278,1,0,0:0:0:0:
64,192,13278,1,0,0:0:0:0:
320,192,13622,1,0,0:0:0:0:
192,192,13795,1,0,0:0:0:0:
64,192,13967,1,0,0:0:0:0:
448,192,14140,1,0,0:0:0:0:
192,192,14312,1,0,0:0:0:0:
320,192,14484,1,0,0:0:0:0:
448,192,14657,1,0,0:0:0:0:
192,192,14829,1,0,0:0:0:0:
64,192,15001,1,0,0:0:0:0:
320,192,15174,1,0,0:0:0:0:
448,192,15346,1,0,0:0:0:0:
192,192,15519,1,0,0:0:0:0:
64,192,15519,1,0,0:0:0:0:
320,192,15691,1,0,0:0:0:0:
192,192,16036,1,0,0:0:0:0:
448,192,16036,1,0,0:0:0:0:
320,192,16380,1,0,0:0:0:0:
448,192,16553,1,0,0:0:0:0:
64,192,16898,1,0,0:0:0:0:
448,192,17242,1,0,0:0:0:0:
192,192,17587,1,0,0:0:0:0:
320,192,17932,1,0,0:0:0:0:
64,192,18277,1,0,0:0:0:0:
192,192,18449,1,0,0:0:0:0:
448,192,18794,1,0,0:0:0:0:
64,192,18794,1,0,0:0:0:0:
64,192,19311,1,0,0:0:0:0:
320,192,19311,1,0,0:0:0:0:
448,192,19656,1,0,0:0:0:0:
192,192,20000,1,0,0:0:0:0:
64,192,20517,1,0,0:0:0:0:
192,192,20690,1,0,0:0:0:0:
320,192,21035,128,0,21207:0:0:0:0:
64,192,21552,1,0,0:0:0:0:
448,192,21552,1,0,0:0:0:0:
448,192,22069,1,0,0:0:0:0:
320,192,22069,1,0,0:0:0:0:
64,192,22414,1,0,0:0:0:0:
192,192,22758,1,0,0:0:0:0:
320,192,23275,1,0,0:0:0:0:
64,192,23448,1,0,0:0:0:0:
192,192,23793,128,0,23965:0:0:0:0:
448,192,24310,1,0,0:0:0:0:
64,192,24310,1,0,0:0:0:0:
320,192,24827,1,0,0:0:0:0:
64,192,24827,1,0,0:0:0:0:
448,192,25172,1,0,0:0:0:0:
320,192,25516,1,0,0:0:0:0:
64,192,26033,1,0,0:0:0:0:
192,192,26206,1,0,0:0:0:0:
320,192,26551,128,0,26723:0:0:0:0:
448,192,27068,1,0,0:0:0:0:
64,192,27068,1,0,0:0:0:0:
448,192,29136,1,0,0:0:0:0:
64,192,29309,1,0,0:0:0:0:
320,192,29481,1,0,0:0:0:0:
192,192,29826,1,0,0:0:0:0:
448,192,29826,1,0,0:0:0:0:
192,192,30343,1,0,0:0:0:0:
64,192,30688,1,0,0:0:0:0:
448,192,31032,1,0,0:0:0:0:
320,192,31377,1,0,0:0:0:0:
192,192,31549,1,0,0:0:0:0:
64,192,31722,1,0,0:0:0:0:
448,192,32067,128,0,32239:0:0:0:0:
64,192,32584,1,0,0:0:0:0:
192,192,32584,1,0,0:0:0:0:
320,192,33101,1,0,0:0:0:0:
448,192,33446,1,0,0:0:0:0:
192,192,33790,1,0,0:0:0:0:
320,192,34135,1,0,0:0:0:0:
64,192,34307,1,0,0:0:0:0:
192,192,34480,1,0,0:0:0:0:
448,192,34825,128,0,34997:0:0:0:0:
64,192,35342,1,0,0:0:0:0:
320,192,35342,1,0,0:0:0:0:
320,192,35859,1,0,0:0:0:0:
192,192,36203,1,0,0:0:0:0:
320,192,36548,1,0,0:0:0:0:
448,192,36548,1,0,0:0:0:0:
320,192,36893,1,0,0:0:0:0:
64,192,36893,1,0,0:0:0:0:
192,192,37065,1,0,0:0:0:0:
64,192,37238,1,0,0:0:0:0:
320,192,37582,128,0,37755:0:0:0:0:
448,192,38100,1,0,0:0:0:0:
64,192,38100,1,0,0:0:0:0:
192,192,38617,1,0,0:0:0:0:
320,192,38961,1,0,0:0:0:0:
192,192,39306,1,0,0:0:0:0:
64,192,39479,1,0,0:0:0:0:
192,192,39823,1,0,0:0:0:0:
448,192,39996,1,0,0:0:0:0:
192,192,40340,1,0,0:0:0:0:
192,192,40513,1,0,0:0:0:0:
64,192,41030,1,0,0:0:0:0:
320,192,41030,1,0,0:0:0:0:
64,192,41719,128,0,46546:0:0:0:0:
448,192,41719,1,0,0:0:0:0:
192,192,42409,1,0,0:0:0:0:
192,192,43098,1,0,0:0:0:0:
320,192,43788,1,0,0:0:0:0:
320,192,44477,1,0,0:0:0:0:
448,192,45167,1,0,0:0:0:0:
192,192,45856,1,0,0:0:0:0:
320,192,46546,1,0,0:0:0:0:
448,192,47235,128,0,52062:0:0:0:0:
64,192,47235,1,0,0:0:0:0:
320,192,47925,1,0,0:0:0:0:
64,192,48614,1,0,0:0:0:0:
192,192,49304,1,0,0:0:0:0:
320,192,49993,1,0,0:0:0:0:
64,192,50683,1,0,0:0:0:0:
192,192,51372,1,0,0:0:0:0:
320,192,52407,1,0,0:0:0:0:
64,192,52407,1,0,0:0:0:0:
192,192,53096,1,0,0:0:0:0:
448,192,53096,1,0,0:0:0:0:
192,192,53786,1,0,0:0:0:0:
320,192,53786,1,0,0:0:0:0:
448,192,54475,1,0,0:0:0:0:
64,192,54475,1,0,0:0:0:0:
448,192,54820,128,0,55165:0:0:0:0:
320,192,55337,128,0,55682:0:0:0:0:
192,192,55854,128,0,56199:0:0:0:0:
64,192,56371,128,0,56888:0:0:0:0:
192,192,56888,128,0,57578:0:0:0:0:
320,192,57578,128,0,58095:0:0:0:0:
448,192,58095,128,0,58785:0:0:0:0:
64,192,58785,1,0,0:0:0:0:
192,192,59819,128,0,59991:0:0:0:0:
448,192,59819,128,0,59991:0:0:0:0:
192,192,60336,1,0,0:0:0:0:
64,192,60336,1,0,0:0:0:0:
320,192,60681,1,0,0:0:0:0:
448,192,60681,1,0,0:0:0:0:
64,192,61025,1,0,0:0:0:0:
320,192,61370,1,0,0:0:0:0:
448,192,61370,1,0,0:0:0:0:
192,192,61715,1,0,0:0:0:0:
192,192,62060,1,0,0:0:0:0:
64,192,62060,1,0,0:0:0:0:
448,192,62404,1,0,0:0:0:0:
192,192,62749,1,0,0:0:0:0:
320,192,62749,1,0,0:0:0:0:
448,192,63094,1,0,0:0:0:0:
64,192,63439,1,0,0:0:0:0:
320,192,63439,1,0,0:0:0:0:
448,192,63783,1,0,0:0:0:0:
448,192,64128,1,0,0:0:0:0:
64,192,64128,1,0,0:0:0:0:
192,192,64473,1,0,0:0:0:0:
448,192,64818,1,0,0:0:0:0:
192,192,64818,1,0,0:0:0:0:
320,192,65162,1,0,0:0:0:0:
320,192,65507,1,0,0:0:0:0:
192,192,65507,1,0,0:0:0:0:
192,192,65852,1,0,0:0:0:0:
448,192,66197,1,0,0:0:0:0:
64,192,66197,1,0,0:0:0:0:
320,192,66541,1,0,0:0:0:0:
64,192,66886,1,0,0:0:0:0:
448,192,66886,1,0,0:0:0:0:
320,192,67058,1,0,0:0:0:0:
192,192,67576,1,0,0:0:0:0:
320,192,67576,1,0,0:0:0:0:
192,192,67920,1,0,0:0:0:0:
448,192,68265,1,0,0:0:0:0:
320,192,68265,1,0,0:0:0:0:
192,192,68610,1,0,0:0:0:0:
64,192,68955,1,0,0:0:0:0:
192,192,68955,1,0,0:0:0:0:
320,192,69299,1,0,0:0:0:0:
320,192,69644,1,0,0:0:0:0:
192,192,69989,1,0,0:0:0:0:
448,192,69989,1,0,0:0:0:0:
320,192,70161,1,0,0:0:0:0:
64,192,70334,1,0,0:0:0:0:
192,192,70506,1,0,0:0:0:0:
320,192,70506,1,0,0:0:0:0:
320,192,70851,128,0,71368:0:0:0:0:
64,192,71368,128,0,72747:0:0:0:0:
192,192,71368,1,0,0:0:0:0:
448,192,71713,1,0,0:0:0:0:
320,192,72057,1,0,0:0:0:0:
192,192,72402,1,0,0:0:0:0:
320,192,72747,1,0,0:0:0:0:
448,192,72747,128,0,74126:0:0:0:0:
192,192,73092,1,0,0:0:0:0:
64,192,73436,1,0,0:0:0:0:
192,192,73781,1,0,0:0:0:0:
320,192,74126,1,0,0:0:0:0:
192,192,74126,128,0,75505:0:0:0:0:
448,192,74471,1,0,0:0:0:0:
64,192,74815,1,0,0:0:0:0:
320,192,75160,1,0,0:0:0:0:
64,192,75505,1,0,0:0:0:0:
320,192,75505,128,0,76884:0:0:0:0:
192,192,75850,1,0,0:0:0:0:
448,192,76194,1,0,0:0:0:0:
192,192,76539,1,0,0:0:0:0:
64,192,76884,1,0,0:0:0:0:
448,192,76884,128,0,79297:0:0:0:0:
320,192,77229,1,0,0:0:0:0:
64,192,77573,1,0,0:0:0:0:
320,192,77918,1,0,0:0:0:0:
192,192,78263,1,0,0:0:0:0:
320,192,78608,1,0,0:0:0:0:
64,192,78952,1,0,0:0:0:0:
192,192,79297,1,0,0:0:0:0:
320,192,79642,128,0,81021:0:0:0:0:
192,192,81021,1,0,0:0:0:0:
64,192,81366,128,0,82055:0:0:0:0:
448,192,82400,1,0,0:0:0:0:
320,192,82745,1,0,0:0:0:0:
192,192,83089,1,0,0:0:0:0:
448,192,83089,1,0,0:0:0:0:
320,192,83434,1,0,0:0:0:0:
64,192,83779,1,0,0:0:0:0:
320,192,83779,1,0,0:0:0:0:
192,192,84124,1,0,0:0:0:0:
320,192,84468,1,0,0:0:0:0:
448,192,84468,1,0,0:0:0:0:
64,192,84813,1,0,0:0:0:0:
320,192,85158,1,0,0:0:0:0:
192,192,85158,1,0,0:0:0:0:
192,192,85503,128,0,86364:0:0:0:0:
448,192,86364,128,0,88950:0:0:0:0:
