osu file format v9

[General]
AudioFilename: toaru kaizoku ou no kimagure .mp3
AudioLeadIn: 0
PreviewTime: -1
Countdown: 1
SampleSet: Soft
StackLeniency: 0.7
Mode: 0
LetterboxInBreaks: 1

[Editor]
DistanceSpacing: 1.2
BeatDivisor: 4
GridSize: 8

[Metadata]
Title:Toaru kaizoku ou no kimagure
Artist:Yanagi Nagi
Creator:peter821231
Version:Insane
Source:Owari no wakusei no Love Song
Tags:toaru kaizoku ou no kimagure jun

[Difficulty]
HPDrainRate:6
CircleSize:4
OverallDifficulty:7
ApproachRate:8
SliderMultiplier:1.4
SliderTickRate:1

[Events]
//Background and Video events
0,0,"BG.jpg"
//Break Periods
2,69870,74253
2,124537,130253
2,152203,162253
//Storyboard Layer 0 (Background)
//Storyboard Layer 1 (Fail)
//Storyboard Layer 2 (Pass)
//Storyboard Layer 3 (Foreground)
//Storyboard Sound Samples
//Background Colour Transformations
3,100,163,162,255

[TimingPoints]
3004,333.333333333333,4,2,0,100,1,0

[HitObjects]
56,80,11003,5,0
104,136,11170,1,0
144,80,11337,1,0
184,136,11503,1,0
232,80,11670,2,0,B|272:56|312:56|304:56,1,70
368,64,12003,2,0,B|368:152,1,70
440,136,12337,1,0
440,208,12503,1,0
432,280,12670,2,0,B|368:288|344:272|328:256|288:256,1,140
296,184,13170,1,0
240,224,13337,2,0,B|192:215|160:199,1,70
224,288,13670,1,0
160,272,13837,2,0,B|96:248|56:216|32:184,1,140
256,48,14670,5,0
256,120,14837,1,0
256,192,15003,2,0,B|336:192,1,70
360,128,15337,1,0
392,192,15503,2,0,B|472:192,1,70
464,120,15837,2,0,B|464:48,1,70
256,192,16337,5,0
152,96,16670,1,0
56,192,17003,1,0
56,192,17170,1,0
56,192,17337,2,0,B|136:192,1,70
184,152,17670,2,0,B|248:96|336:160,1,140
313,145,18170,1,0
416,192,18337,1,0
480,272,18503,1,0
424,344,18670,1,0
328,344,18837,1,0
232,344,19003,2,0,B|136:336|88:320|80:312,1,140
40,272,19503,2,0,B|24:232|32:184,1,70
104,208,19837,1,0
256,192,20003,12,0,21337
72,80,21670,5,0
144,40,21837,1,0
144,120,22003,1,0
216,80,22170,1,0
216,160,22337,1,0
288,120,22503,1,0
288,200,22670,1,0
352,160,22837,1,0
360,240,23003,6,0,B|440:184,1,70
480,232,23337,2,0,B|400:296,1,70
352,312,23670,2,0,B|288:264,1,70
296,272,24003,2,0,B|248:344,1,70
256,192,24337,5,0
480,32,24670,1,0
32,32,25003,1,0
32,360,25337,1,0
480,360,25670,1,0
480,32,26003,5,0
256,192,26337,1,0
32,24,26670,1,0
256,32,27003,2,0,B|288:72|296:88|384:96,1,140
374,95,27503,1,0
374,95,27670,1,0
376,264,28003,1,0
136,264,28337,2,0,B|104:232|72:192|80:176|80:136,1,140
79,142,28837,1,0
79,142,29003,1,0
256,192,29337,5,0
256,8,29670,1,0
416,96,30003,1,0
416,280,30337,1,0
256,368,30670,1,0
104,280,31003,5,0
104,192,31170,1,0
104,104,31337,1,0
176,64,31503,1,0
256,24,31670,1,0
336,64,31837,1,0
416,96,32003,1,0
256,192,32337,12,0,34670
256,192,35003,12,0,37337
256,128,37670,6,0,B|256:56|256:56,1,70
320,192,38003,2,0,B|408:192,1,70
256,256,38337,2,0,B|256:352,1,70
192,192,38670,2,0,B|112:192,1,70
256,120,39003,1,0
256,24,39170,2,0,B|352:24,1,70
424,24,39503,1,0
496,192,39670,1,0
104,200,40337,6,0,B|128:120|136:120,1,70
256,40,40670,2,0,B|336:64|336:72,1,70
448,184,41003,2,0,B|416:248,1,70
248,352,41337,2,0,B|160:312,1,70
72,160,41670,2,0,B|120:96,1,70
272,40,42003,2,0,B|352:80,1,70
400,216,42337,2,0,B|352:296,1,70
128,280,42670,2,0,B|72:200,1,70
176,64,43003,2,0,B|248:32,1,70
392,96,43337,2,0,B|440:168,1,70
256,192,44003,5,0
256,192,44170,1,0
256,192,44337,2,0,B|192:128,1,70
256,192,44670,2,0,B|320:256,1,70
256,192,45003,2,0,B|320:128,1,70
256,192,45337,2,0,B|192:256,1,70
32,64,45670,5,0
256,64,45837,1,0
480,64,46003,1,0
480,352,46337,5,0
256,352,46503,1,0
32,352,46670,1,0
256,192,46837,12,0,48003
64,192,48337,6,0,B|96:112,1,70
160,96,48670,1,0
112,256,48837,1,0
184,224,49003,2,0,B|216:144,1,70
304,160,49337,6,0,B|336:248,1,70
392,256,49670,1,0
352,96,49837,1,0
424,128,50003,2,0,B|464:208,1,70
392,336,50337,5,0
112,336,50503,1,0
256,192,50670,1,0
464,48,51003,6,0,B|384:48,1,70
48,48,51337,2,0,B|128:48,1,70
432,112,51670,2,0,B|344:112,1,70
88,112,52003,2,0,B|168:112,1,70
208,192,52337,2,0,B|120:192,1,70
304,192,52670,2,0,B|400:192,1,70
256,192,53003,1,0
256,192,53337,1,0
256,192,53503,1,0
256,192,53670,12,0,54670
256,192,55003,12,0,56003
256,40,56337,5,0
152,104,56503,1,0
360,104,56670,1,0
88,192,56837,1,0
432,192,57003,1,0
152,288,57170,1,0
360,288,57337,1,0
256,344,57503,1,0
224,224,57670,6,0,B|192:192|240:152,1,70
280,160,58003,2,0,B|304:200|272:240,1,70
360,192,58337,1,0
160,192,58503,1,0
160,192,58670,1,0
432,64,59003,5,0
432,320,59170,1,0
192,320,59337,1,0
80,320,59670,5,0
80,64,59837,1,0
320,64,60003,1,0
320,192,60170,6,0,B|96:192,1,210
208,128,60837,1,0
208,256,61003,2,0,B|432:256,1,210
456,88,61670,6,0,B|376:40|392:48,1,70
120,56,62003,2,0,B|48:96,1,70
56,272,62337,2,0,B|136:320,1,70
384,312,62670,2,0,B|472:264,1,70
384,72,63003,2,0,B|304:48,1,70
96,120,63337,2,0,B|64:200,1,70
192,328,63670,2,0,B|272:360,1,70
424,248,64003,2,0,B|456:168,1,70
256,192,64337,12,0,66670
256,192,67003,12,0,69670
64,304,75003,6,0,B|136:248,1,70
64,96,75337,2,0,B|136:160,1,70
256,112,75670,2,0,B|256:24,1,70
256,272,76003,2,0,B|256:352,1,70
448,304,76337,2,0,B|384:256,1,70
448,96,76670,2,0,B|392:144,1,70
256,192,77003,5,0
256,192,77170,1,0
256,64,77337,2,0,B|256:144,1,70
128,224,77670,2,0,B|176:264|224:280|272:280,1,140
392,224,78170,1,0
392,224,78337,1,0
40,344,78670,6,0,B|128:344,1,70
472,288,79003,2,0,B|472:120,1,140
128,152,79503,2,0,B|128:240,1,70
256,192,79837,1,0
400,112,80337,5,0
256,328,80503,1,0
112,112,80670,1,0
400,272,81003,5,0
256,56,81170,1,0
112,272,81337,1,0
256,192,81503,1,0
400,112,81670,2,0,B|336:152,1,70
112,112,82003,2,0,B|184:152,1,70
112,272,82337,2,0,B|200:224,1,70
400,272,82670,2,0,B|320:224,1,70
208,208,83003,6,0,B|216:168|248:144|280:160|304:216,1,140
256,312,83503,1,0
336,80,83670,2,0,B|288:56|256:96,1,70
112,168,84003,2,0,B|96:200|104:248|120:280|152:288,1,140
336,312,84503,5,0
408,144,84670,1,0
256,32,84837,1,0
96,144,85003,1,0
168,312,85170,1,0
256,192,85337,1,0
488,56,85670,6,0,B|432:32|400:24|352:64,1,140
160,64,86170,1,0
160,64,86253,1,0
160,64,86337,1,0
56,192,86503,1,0
152,336,86670,2,0,B|192:352|232:360|264:352|296:328,1,140
432,192,87170,1,0
432,192,87253,1,0
432,192,87337,1,0
256,192,87503,6,0,B|240:144|200:128,1,70
336,72,87837,1,0
184,320,88003,1,0
104,192,88170,1,0
184,72,88337,5,0
336,328,88670,1,0
456,64,89003,1,0
48,336,89337,1,0
48,56,89670,5,0
48,56,89753,1,0
48,56,89837,1,0
456,336,90003,1,0
120,56,90337,1,0
120,56,90420,1,0
120,56,90503,1,0
384,336,90670,1,0
48,336,91003,2,0,B|200:336,1,140
188,336,91420,1,0
188,336,91503,1,0
256,192,91670,6,0,B|336:192,1,70
328,192,92003,1,0
80,64,92337,2,0,B|80:208,1,140
80,272,92837,1,0
80,344,93003,1,0
80,344,93087,1,0
80,344,93170,1,0
256,192,93337,1,0
488,352,93670,6,0,B|400:352,1,70
408,32,94003,2,0,B|312:32,1,70
296,352,94337,2,0,B|216:352,1,70
160,32,94670,2,0,B|88:32,1,70
48,200,95003,6,0,B|48:240|80:280,1,70
280,352,95337,2,0,B|328:344|352:312,1,70
472,176,95670,2,0,B|480:144|464:104,1,70
240,32,96003,2,0,B|208:24|168:56,1,70
256,192,96337,12,0,98670
256,192,99003,12,0,101337
448,232,101670,6,0,B|448:160,1,70
64,160,102003,2,0,B|64:240,1,70
224,344,102337,2,0,B|304:344,1,70
288,32,102670,2,0,B|192:32,1,70
72,344,103003,5,0
256,192,103170,1,0
256,192,103253,1,0
256,192,103337,1,0
440,32,103503,1,0
440,32,103670,1,0
440,32,103753,1,0
440,32,103837,1,0
440,192,104003,1,0
64,56,104337,6,0,B|32:88|72:136,1,70
184,192,104670,2,0,B|208:224|160:272,1,70
328,192,105003,2,0,B|320:240|368:280,1,70
448,64,105337,2,0,B|416:96|464:152,1,70
256,192,105670,5,0
256,192,105753,1,0
256,192,105837,1,0
112,328,106003,1,0
400,328,106170,1,0
256,328,106337,1,0
256,64,106670,1,0
256,64,106753,1,0
256,64,106837,1,0
256,192,107003,12,0,108003
256,192,108337,12,0,109337
256,192,109670,5,0
256,56,109837,1,0
376,128,110003,1,0
376,128,110087,1,0
376,128,110170,1,0
376,272,110337,5,0
256,192,110503,1,0
256,336,110670,1,0
256,336,110753,1,0
256,336,110837,1,0
136,272,111003,1,0
136,128,111170,1,0
136,128,111253,1,0
136,128,111337,1,0
256,56,111503,1,0
376,128,111670,1,0
464,320,112337,6,0,B|464:240,1,70
376,32,112670,2,0,B|376:104,1,70
296,320,113003,2,0,B|296:224,1,70
168,32,113337,2,0,B|168:104|168:104|160:112,1,70
64,192,113670,1,0
64,328,113837,1,0
64,328,113920,1,0
64,328,114003,1,0
200,328,114170,1,0
200,192,114337,1,0
200,192,114420,1,0
200,192,114503,1,0
200,192,114670,1,0
432,56,115003,5,0
464,136,115170,1,0
456,216,115337,1,0
416,288,115503,1,0
352,336,115670,1,0
272,352,115837,1,0
192,344,116003,6,0,B|136:336|104:312,1,70
64,264,116337,1,0
48,184,116503,1,0
48,184,116587,1,0
48,184,116670,1,0
56,104,116837,1,0
120,48,117003,2,0,B|152:32|200:32,1,70
187,32,117253,1,0
187,32,117337,1,0
272,32,117503,1,0
352,48,117670,6,0,B|400:72|440:112|432:168,1,140
433,153,118087,1,0
433,153,118170,1,0
416,232,118337,1,0
256,344,118670,1,0
184,336,118837,1,0
112,320,119003,2,0,B|48:280|160:216|72:208,1,140
56,128,119503,2,0,B|96:120|176:104|88:48|160:32|168:32,1,140
156,35,120003,1,0
256,192,120337,5,0
288,128,120503,1,0
328,192,120670,1,0
368,128,120837,1,0
408,192,121003,1,0
448,128,121170,1,0
408,64,121337,1,0
328,64,121503,1,0
248,64,121670,2,0,B|176:216,1,140
144,112,122170,2,0,B|160:72|128:40|88:32|48:64,1,140
32,144,122670,1,0
256,192,122837,12,0,124337
256,192,131003,12,0,132003
256,192,132337,12,0,133337
32,40,133670,5,0
472,40,134003,1,0
32,352,134337,1,0
472,352,134670,2,0,B|480:288|488:256|480:224|448:208,4,140
256,192,136337,12,0,137337
256,192,137670,12,0,138337
256,192,138670,5,0
312,336,138837,1,0
440,264,139003,1,0
80,112,139337,1,0
408,312,139670,1,0
136,64,140003,1,0
456,208,140337,1,0
456,208,140503,1,0
456,208,140670,1,0
56,168,141003,1,0
456,144,141337,1,0
120,296,141670,6,0,B|168:272|184:200|184:184|176:160|328:128|248:128|360:208|328:248|392:248|424:312,1,420
416,48,143003,2,0,B|336:40|288:112|304:176|280:240|216:200|208:152|192:56|160:24|88:80,1,420
32,352,144337,5,0
472,344,144670,1,0
472,40,145003,1,0
32,40,145337,1,0
32,192,145503,1,0
176,192,145670,2,0,B|320:192,1,140
316,192,146087,1,0
316,192,146170,1,0
472,192,146337,2,0,B|360:80,1,140
373,93,146753,1,0
373,93,146837,1,0
256,192,147003,12,0,149003
256,192,149337,5,0
256,192,149503,1,0
256,192,149670,12,0,150670
256,192,151003,12,0,152003
56,328,163003,5,0
56,240,163170,1,0
136,280,163337,1,0
248,192,163670,1,0
400,104,164003,1,0
480,56,164170,1,0
480,152,164337,1,0
472,320,164670,5,0
400,280,164837,1,0
400,360,165003,1,0
256,192,165337,1,0
32,88,165670,1,0
96,32,165837,1,0
112,112,166003,1,0
112,112,166170,1,0
104,360,166503,5,0
40,304,166670,1,0
112,272,166837,1,0
256,192,167170,1,0
216,128,167337,1,0
296,128,167503,1,0
416,56,167670,2,0,B|472:96|472:200,1,140
456,344,168337,5,0
416,344,168420,1,0
376,344,168503,1,0
336,344,168587,1,0
296,344,168670,2,0,B|216:344,1,70
184,344,168920,5,0
144,336,169003,1,0
104,320,169087,1,0
72,296,169170,2,0,B|48:256,1,35
40,224,169337,5,0
40,184,169420,1,0
48,144,169503,1,0
72,104,169587,1,0
96,72,169670,1,0
136,56,169753,1,0
184,40,169837,1,0
224,40,169920,1,0
264,40,170003,1,0
304,40,170087,1,0
344,56,170170,1,0
416,104,170337,5,0
