osu file format v9

[General]
AudioFilename: Soldier of invincibility.mp3
AudioLeadIn: 1000
PreviewTime: 2235
Countdown: 0
SampleSet: Normal
StackLeniency: 0.7
Mode: 0
LetterboxInBreaks: 1

[Editor]
Bookmarks: 2378,2655,20655,38949,57227,84663,102949,121235,139520,162370,171512,180655,192084,210370,228655,246941,265235,283520,286237,306691,310782
DistanceSpacing: 1
BeatDivisor: 4
GridSize: 4

[Metadata]
Title:Muteki no Soldier
Artist:Yanagi Nagi
Creator:rui
Version:Easy
Source:
Tags:

[Difficulty]
HPDrainRate:7
CircleSize:4
OverallDifficulty:7
ApproachRate:9
SliderMultiplier:1.9
SliderTickRate:1

[Events]
//Background and Video events
0,0,"BG kari.jpg"
Video,0,"movie.avi"
//Break Periods
2,75712,84055
2,192283,209770
2,283710,285637
//Storyboard Layer 0 (Background)
//Storyboard Layer 1 (Fail)
//Storyboard Layer 2 (Pass)
//Storyboard Layer 3 (Foreground)
//Storyboard Sound Samples
//Background Colour Transformations
3,100,163,162,255

[TimingPoints]
2370,285.714285714286,4,1,0,30,1,0
2370,-125,4,1,0,30,0,0
11512,-100,4,1,0,30,0,0
57227,-166.666666666667,4,1,0,30,0,0
84584,-100,4,1,0,30,0,0
121227,-166.666666666667,4,1,0,30,0,0
139512,-125,4,1,0,30,0,0
171512,-125,4,1,0,30,0,0
189798,-200,4,1,0,30,0,0
210370,-100,4,1,0,30,0,0
246941,-166.666666666667,4,1,0,30,0,0
265227,-100,4,1,0,30,0,0
274370,-100,4,1,0,30,0,0
283510,681.818181818182,4,2,0,30,1,0
311975,-100,4,2,0,5,0,0

[Colours]
Combo1 : 255,11,11
Combo2 : 0,170,170
Combo3 : 113,0,225
Combo4 : 0,0,125

[HitObjects]
32,40,2370,2,0,B|64:24|116:48,1,76
164,92,2655,2,0,B|196:108|248:84,1,76
324,56,2941,1,0
408,88,3084,1,0
344,152,3227,1,0
428,184,3370,6,0,B|419:226|381:244,1,76
312,300,3655,1,0
384,356,3798,2,0,B|308:376,1,76
236,320,4084,2,0,B|160:340,1,76
28,308,4370,2,0,B|104:288,1,76
188,264,4655,5,0
280,260,4798,1,0
368,288,4941,1,0
428,356,5084,1,0
468,276,5227,2,0,B|476:232|448:200,2,76
428,356,5655,6,0,B|384:384|320:376|288:336,1,152
232,268,6084,2,0,B|248:228|288:208,1,76
368,180,6370,1,0
452,212,6512,1,0
364,72,6655,2,0,B|332:44|292:36,1,76
148,64,6941,6,0,B|160:98|205:115,1,76
268,156,7227,2,0,B|255:190|210:207,1,76
128,236,7512,1,0
36,248,7655,1,0
96,316,7798,1,0
188,308,7941,6,0,B|224:292|264:304,1,76
352,328,8227,1,0
428,380,8370,2,0,B|452:344|436:304,1,76
412,220,8655,1,0
364,140,8798,1,0
328,240,8941,1,0
292,124,9084,1,0
256,256,9227,5,0
148,360,9512,1,0
64,232,9798,1,0
180,132,10084,1,0
244,88,10227,6,0,B|280:80|320:104,1,76
448,144,10512,1,0
328,180,10655,1,0
436,228,10798,1,0
344,256,10941,1,0
420,308,11084,5,0
396,336,11155,1,0
364,356,11227,1,0
328,364,11298,1,0
292,364,11369,1,0
256,356,11441,1,0
224,336,11512,6,0,B|172:332|132:360,1,95
60,296,11798,2,0,B|112:300|152:272,1,95,0|0
236,232,12084,1,0
332,232,12227,1,0
416,280,12369,1,0
460,364,12512,6,0,B|500:336|492:280,1,95
468,188,12798,1,0
416,108,12941,2,0,B|376:136|384:192,1,95
416,280,13227,2,0,B|364:264|324:292,1,95
240,336,13512,2,0,B|200:364|148:348,1,95
28,256,13798,6,0,B|68:284|120:268,1,95
212,244,14084,1,0
304,216,14227,2,0,B|356:200|396:228,2,95
212,244,14655,1,0
124,276,14798,6,0,B|100:296|72:296|72:296|24:268|24:220|48:180,1,190
92,96,15227,1,0
180,128,15369,2,0,B|228:144|272:112,2,95
92,96,15798,1,0
8,48,15941,1,0
36,176,16084,6,0,B|68:212|128:200,1,95,0|0
212,236,16370,2,0,B|257:251|303:210,1,95,0|0
364,144,16655,1,0
332,52,16798,1,0
268,124,16941,1,0
300,214,17084,6,0,B|316:248|316:248|300:276|300:276|320:312|364:320|408:300,1,190
500,276,17512,1,0
412,372,17655,1,0
272,348,17798,2,0,B|220:348|180:324,1,95
52,280,18084,2,0,B|104:280|144:256,1,95
220,200,18370,5,0
304,244,18512,1,0
436,172,18655,1,0
488,252,18798,2,0,B|500:304|464:344,2,95
436,172,19227,1,0
348,204,19369,6,0,B|304:252|216:248|168:220,1,190
84,180,19798,1,0
32,100,19941,2,0,B|-14:78|-18:20,2,95
116,144,20369,1,0
160,164,20441,1,0
208,168,20512,1,0
256,156,20584,1,0
304,128,20655,6,0,B|351:134|380:182,1,95
429,297,20941,2,0,B|380:289|351:241,1,95
304,60,21370,5,0
108,128,21655,1,0
239,288,21941,1,0
433,223,22227,1,0
224,52,22512,5,0
132,80,22655,1,0
56,140,22798,1,0
28,180,22870,1,0
20,228,22941,2,0,B|0:276|40:320,1,95
116,256,23227,1,0
204,288,23370,2,0,B|219:337|278:345,1,95,0|0
368,352,23655,5,0
508,224,23941,1,0
328,160,24227,1,0
472,40,24512,5,0
264,232,24798,1,0
16,96,25084,1,0
4,172,25227,6,0,B|-4:224|39:253,1,95
120,304,25512,1,0
192,240,25655,2,0,B|240:228|284:265,1,95
356,320,25941,5,0
496,192,26227,2,0,B|520:144,2,47.5
452,276,26512,1,0
280,356,26798,1,0
96,304,27084,1,0
32,232,27227,5,0
48,188,27298,1,0
64,144,27370,1,0
92,56,27512,2,0,B|141:48|185:90,1,95
260,136,27798,1,0
296,224,27941,5,0
116,168,28227,1,0
256,40,28512,1,0
436,108,28798,5,0
292,152,28941,1,0
364,180,29084,1,0
196,220,29227,1,0
288,248,29370,1,0
104,292,29512,1,0
0,132,29655,1,0
284,356,29941,6,0,B|331:347|365:304,1,95
416,228,30227,1,0
496,176,30370,2,0,B|456:144|404:152,1,95,0|0
316,180,30655,1,0
232,228,30798,2,0,B|268:266|325:262,1,95
468,300,31084,2,0,B|432:339|383:335,1,95
192,312,31370,1,0
64,252,31512,5,0
180,168,31655,1,0
312,224,31798,1,0
412,76,31941,2,0,B|368:48|300:40|232:84,1,190
60,148,32370,2,0,B|108:164|152:136,1,95
232,84,32655,6,0,B|288:70|348:79|407:139,1,190
492,180,33084,2,0,B|434:186|380:215|345:292,1,190
300,372,33512,2,0,B|242:365|188:336|153:259,1,190
212,184,33941,2,0,B|155:170|95:179|36:239,1,190
12,328,34370,6,0,B|52:352|52:352|100:344,1,95
284,296,34655,2,0,B|244:272|244:272|196:280,1,95
28,188,34941,2,0,B|68:212|68:212|116:204,1,95
352,164,35227,2,0,B|312:140|312:140|264:148,1,95
156,188,35512,5,0
44,164,35655,1,0
212,132,35798,1,0
356,260,36084,1,0
468,284,36227,1,0
300,316,36370,1,0
22,333,36655,6,0,B|60:364|112:352,1,95
268,240,36941,2,0,B|230:209|178:221,1,95
24,108,37227,2,0,B|76:120|116:88,1,95
244,32,37512,2,0,B|296:20|336:52,1,95
378,349,37941,6,0,B|416:380|468:368,2,95
304,292,38370,1,0
196,328,38512,1,0
104,232,38655,1,0
36,368,38798,1,0
0,200,38941,6,0,B|20:155|71:140,1,95
136,48,39227,2,0,B|181:70|194:118,1,95
180,212,39512,1,0
276,92,39655,2,0,B|288:139|336:163,1,95
484,204,39941,1,0
392,272,40084,1,0
280,252,40227,1,0
208,164,40370,2,0,B|154:171|127:209,1,95
36,376,40798,5,0
224,344,41084,1,0
224,344,41370,6,0,B|272:356|316:332,1,95
400,284,41655,1,0
488,316,41798,1,0
448,180,41941,2,0,B|400:168|356:192,1,95
248,236,42227,1,0
64,284,42370,1,0
152,312,42512,1,0
3,142,42655,2,0,B|29:189|81:186,1,95,0|0
272,164,43084,5,0
436,68,43370,1,0
436,68,43655,5,0
344,40,43798,1,0
248,52,43941,1,0
172,112,44084,1,0
128,196,44227,2,0,B|110:227|168:261|186:230,1,95,0|0
276,132,44512,1,0
409,104,44655,1,0
476,222,44798,1,0
380,318,44941,2,0,B|332:332|288:308,1,95
128,196,45370,5,0
0,336,45655,1,0
0,336,45798,6,0,B|96:320,1,95
273,344,46084,2,0,B|180:360,1,95
400,256,46370,2,0,B|304:272,1,95
432,188,46655,1,0
468,52,46798,6,0,B|424:24|376:36,1,95
284,52,47084,1,0
196,88,47227,1,0
140,164,47370,1,0
32,72,47512,2,0,B|43:124|94:140,1,95
216,188,47798,1,0
348,172,47941,1,0
452,88,48084,5,0
500,168,48227,2,0,B|484:220|436:240,1,95
352,200,48512,1,0
264,168,48655,2,0,B|208:152|172:192,1,95
80,352,49084,1,0
180,296,49227,1,0
292,276,49370,1,0
456,340,49512,2,0,B|468:289|448:245,1,95
352,80,49941,5,0
176,148,50227,1,0
176,148,50512,6,0,B|84:124,1,95
40,40,50798,2,0,B|132:64,1,95
208,208,51084,2,0,B|300:184,1,95
392,160,51370,1,0
436,76,51512,1,0
488,156,51655,1,0
292,88,51798,2,0,B|200:112,1,95
16,160,52227,5,0
200,112,52512,1,0
200,112,52798,6,0,B|232:156|200:204,1,95
90,257,53084,2,0,B|144:251|168:300,1,95,0|0
252,340,53370,2,0,B|275:291|329:297,1,95,0|0
424,292,53655,1,0
508,340,53798,1,0
416,320,53941,1,0
284,368,54084,2,0,B|240:396|192:376,1,95
24,292,54512,5,0
84,112,54798,1,0
84,112,54941,5,0
176,88,55227,1,0
268,64,55512,1,0
244,156,55798,5,0
336,132,56084,1,0
380,120,56227,1,0
428,108,56369,1,0
456,16,56655,1,0
440,60,56798,1,0
428,108,56941,5,0
420,132,57012,1,0
412,156,57084,1,0
404,180,57155,1,0
396,204,57227,6,0,B|324:232,1,57.0000013589859
248,292,57512,2,0,B|191:283,1,57.0000013589859,0|0
48,316,57798,2,0,B|84:271,1,57.0000013589859,0|0
124,136,58084,2,0,B|144:189,1,57.0000013589859,0|0
248,292,58370,1,0
468,372,58655,5,0
388,288,58798,1,0
416,176,58941,1,0
352,80,59084,2,0,B|296:56,2,57.0000013589859
460,120,59512,6,0,B|488:168,1,57.0000013589859
380,208,59798,1,0
344,316,59941,1,0
232,332,60084,2,0,B|204:283,1,57.0000013589859,0|0
80,212,60370,2,0,B|108:261,1,57.0000013589859,0|0
244,192,60655,2,0,B|196:220,1,57.0000013589859,0|0
80,372,60941,2,0,B|129:344,1,57.0000013589859,0|0
256,288,61227,1,0
404,344,61370,5,0
364,192,61512,1,0
476,80,61655,1,0
264,164,61941,5,0
172,96,62084,2,0,B|112:116,1,57.0000013589859
17,201,62370,2,0,B|72:220,1,57.0000013589859,0|0
172,168,62655,2,0,B|226:186,1,57.0000013589859,0|0
328,136,62941,2,0,B|382:154,1,57.0000013589859
480,188,63227,1,0
264,256,63512,1,0
312,32,63798,5,0
480,188,64084,2,0,B|492:252|440:288,1,114.000002717972
224,356,64655,1,0
260,132,64941,1,0
468,36,65227,5,0
356,16,65370,1,0
260,76,65512,1,0
48,164,65798,5,0
194,136,65941,1,0
322,216,66084,1,0
468,188,66227,1,0
420,328,66370,6,0,B|360:348,1,57.0000013589859,0|0
256,380,66655,2,0,B|188:360,1,57.0000013589859,0|0
132,272,66941,1,0
148,160,67084,1,0
252,68,67227,1,0
204,172,67370,1,0
96,212,67512,2,0,B|68:268,1,57.0000013589859
176,308,67798,2,0,B|210:360,1,57.0000013589859
324,356,68084,6,0,B|356:348|370:327|354:275|384:284|364:304|330:287|328:244|364:212,1,171.000004076958,0|0
440,116,68655,6,0,B|404:164,1,57.0000013589859
228,96,68941,2,0,B|192:48,1,57.0000013589859
376,52,69227,2,0,B|340:100,1,57.0000013589859
168,160,69512,2,0,B|132:112,1,57.0000013589859
64,24,69798,2,0,B|36:40|28:72,1,57.0000013589859
88,164,70084,2,0,B|116:180|124:212,1,57.0000013589859
64,308,70370,5,0
172,340,70512,1,0
172,340,70584,1,0
172,340,70655,1,0
236,272,70798,2,0,B|292:292,1,57.0000013589859
392,344,71084,6,0,B|448:332,1,57.0000013589859
308,168,71370,2,0,B|368:156,1,57.0000013589859
496,240,71655,2,0,B|440:228,1,57.0000013589859
448,88,71941,2,0,B|392:76,1,57.0000013589859
280,32,72227,2,0,B|224:44,1,57.0000013589859
20,68,72655,5,0
48,168,72798,1,0
120,92,72941,1,0
156,296,73227,5,0
312,160,73512,1,0
276,364,73798,1,0
468,292,74084,1,0
312,160,74369,5,0
220,96,74512,1,0
116,144,74655,1,0
208,208,74798,1,0
364,140,74941,5,0
436,296,75084,1,0
280,360,75227,1,0
236,376,75298,1,0
192,384,75370,1,0
148,372,75441,1,0
112,344,75512,1,0
48,52,84655,5,0
48,52,84798,1,0
48,52,84941,1,0
48,52,85084,2,0,B|148:52,1,95
220,52,85369,5,0
220,52,85655,1,0
220,52,85941,1,0
220,52,86227,1,0
220,52,86512,1,0
220,52,86584,1,0
296,52,86655,5,0
296,52,86798,1,0
296,52,86941,1,0
296,52,87084,1,0
296,52,87227,1,0
296,52,87369,2,0,B|408:52,1,95
296,52,87655,2,0,B|408:52,1,95
468,52,87941,6,0,B|468:160,1,95
468,52,88227,2,0,B|468:160,1,95
468,224,88512,1,0
468,224,88584,1,0
468,224,88655,1,0
468,224,88798,2,0,B|468:332,1,95
468,319,89084,1,0
392,320,89227,5,0
392,320,89369,1,0
392,320,89512,1,0
392,320,89655,2,0,B|296:320,1,95
220,324,89941,1,0
220,324,90084,1,0
220,324,90227,1,0
220,324,90369,1,0
220,324,90512,6,0,B|120:324,1,95
220,324,90798,2,0,B|120:324,1,95
220,324,91084,1,0
220,324,91227,1,0
220,324,91298,1,0
220,324,91369,2,0,B|116:324,1,95
125,324,91655,1,0
48,324,91798,5,0
48,324,91941,2,0,B|48:216,1,95
48,324,92227,2,0,B|48:216,1,95
48,324,92512,2,0,B|48:216,1,95
48,229,92798,5,0
48,229,93084,1,0
48,229,93369,1,0
48,229,93655,1,0
48,229,93941,5,0
48,229,94084,1,0
48,229,94227,1,0
48,229,94369,1,0
48,229,94512,1,0
48,229,94655,1,0
48,229,94798,2,0,B|240:228,1,190
237,228,95227,1,0
237,228,95369,1,0
236,304,95512,6,0,B|340:304,1,95
331,304,95798,1,0
332,304,95941,2,0,B|332:112,1,190,0|0
332,36,96369,2,0,B|432:36,1,95
428,112,96655,2,0,B|428:308,1,190
428,112,97084,2,0,B|428:308,1,190
428,112,97512,2,0,B|428:308,1,190
428,112,97941,2,0,B|428:308,1,190
352,300,98369,5,0
352,300,98512,1,0
352,300,98655,1,0
352,300,98798,1,0
352,300,98941,1,0
352,300,99084,1,0
352,300,99227,1,0
352,300,99369,1,0
276,300,99512,5,0
276,300,99655,1,0
276,300,99798,1,0
276,300,100084,1,0
276,300,100227,1,0
276,300,100369,1,0
204,300,100655,5,0
204,300,100798,1,0
204,300,100941,1,0
204,300,101084,1,0
204,300,101227,1,0
204,300,101369,1,0
204,300,101512,1,0
204,300,101655,1,0
128,300,101941,5,0
128,300,102084,1,0
128,300,102227,1,0
128,300,102369,1,0
128,300,102512,1,0
128,300,102655,1,0
128,300,102798,1,0
220,348,102941,5,0
220,348,103084,1,0
220,348,103227,1,0
220,348,103369,1,0
220,348,103512,1,0
220,348,103655,6,0,B|320:348,1,95
392,348,103941,1,0
392,348,104084,1,0
392,348,104227,1,0
392,348,104369,2,0,B|496:348,1,95
487,348,104655,1,0
484,272,104798,5,0
484,272,105084,1,0
312,272,105227,5,0
312,272,105369,1,0
312,272,105512,1,0
312,272,105655,1,0
312,272,105798,1,0
312,272,105941,2,0,B|216:272,1,95
140,272,106227,5,0
140,272,106369,1,0
140,272,106512,1,0
140,272,106655,2,0,B|40:272,1,95
45,272,106941,1,0
44,196,107084,5,0
44,196,107369,1,0
216,196,107512,5,0
216,196,107655,1,0
216,196,107798,1,0
216,196,107941,1,0
216,196,108084,1,0
216,196,108227,6,0,B|320:196,1,95
388,196,108512,1,0
388,196,108655,1,0
388,196,108798,1,0
388,196,108941,2,0,B|484:196,1,95
483,196,109227,1,0
484,120,109369,5,0
484,120,109655,1,0
408,120,109798,6,0,B|296:120,1,95
408,120,110084,2,0,B|296:120,1,95
408,120,110369,2,0,B|296:120,1,95
236,120,110655,1,0
236,120,110798,6,0,B|124:120,1,95
64,120,111084,1,0
64,120,111227,1,0
64,120,111369,1,0
64,120,111512,2,0,B|64:224,1,95
64,215,111798,1,0
64,215,111941,1,0
64,292,112084,5,0
64,292,112227,1,0
64,292,112369,1,0
64,292,112512,1,0
64,292,112655,1,0
64,292,112798,2,0,B|64:176,1,95
140,292,113084,5,0
140,292,113227,1,0
140,292,113369,1,0
140,292,113512,2,0,B|236:292,1,95
235,292,113798,1,0
312,292,113941,5,0
312,292,114227,1,0
316,216,114369,5,0
316,216,114512,1,0
316,216,114655,1,0
316,216,114798,1,0
316,216,114941,1,0
316,216,115084,6,0,B|316:116,1,95
316,44,115369,1,0
316,44,115512,1,0
316,44,115655,1,0
316,44,115798,2,0,B|216:44,1,95
221,44,116084,1,0
144,44,116227,5,0
144,44,116512,1,0
144,120,116655,5,0
144,120,116798,1,0
144,120,116941,1,0
144,120,117084,1,0
144,120,117227,1,0
144,120,117369,6,0,B|144:216,1,95
220,216,117655,1,0
220,216,117798,1,0
220,216,117941,1,0
220,216,118084,2,0,B|320:216,1,95
392,216,118512,5,0
392,216,118798,1,0
468,216,118941,5,0
468,216,119227,1,0
468,216,119512,1,0
468,216,119798,5,0
468,216,120084,1,0
468,216,120227,1,0
468,216,120369,1,0
468,216,120655,1,0
468,216,120798,1,0
468,216,120941,1,0
468,216,121012,1,0
468,216,121084,1,0
468,216,121155,1,0
468,292,121227,5,0
468,292,121370,1,0
468,292,121512,1,0
468,292,121655,1,0
468,292,121798,1,0
468,292,121941,1,0
468,292,122084,1,0
468,292,122227,1,0
468,292,122370,1,0
396,292,122655,5,0
396,292,122941,2,0,B|280:292,1,114.000002717972
212,292,123370,1,0
212,292,123512,5,0
212,292,123655,1,0
212,292,123798,1,0
212,292,123941,1,0
212,292,124084,1,0
212,292,124227,1,0
212,292,124370,1,0
212,292,124512,1,0
212,292,124655,1,0
212,292,124798,1,0
212,292,124941,1,0
324,292,125227,5,0
324,292,125369,1,0
324,292,125512,1,0
324,292,125655,1,0
324,292,125727,1,0
324,292,125798,1,0
324,292,125941,5,0
324,292,126084,1,0
324,292,126227,1,0
324,292,126370,1,0
324,292,126512,1,0
324,292,126655,1,0
324,292,126798,1,0
324,292,126941,1,0
324,292,127084,1,0
324,292,127227,1,0
324,292,127370,1,0
324,292,127512,1,0
324,292,127655,1,0
252,292,127798,5,0
252,292,128084,1,0
252,292,128370,1,0
252,292,128655,1,0
252,292,128941,1,0
252,292,129227,1,0
252,292,129512,1,0
252,292,129798,1,0
252,292,129941,1,0
252,292,130084,1,0
252,292,130227,1,0
252,292,130369,5,0
252,292,130512,1,0
252,292,130655,1,0
252,292,130798,1,0
252,292,130941,1,0
252,292,131084,1,0
252,292,131227,1,0
252,292,131370,1,0
252,292,131512,1,0
180,292,131798,5,0
180,292,132084,1,0
180,292,132370,1,0
180,292,132655,5,0
180,292,132798,1,0
180,292,132941,1,0
180,292,133084,1,0
180,292,133227,1,0
180,292,133370,1,0
180,292,133512,1,0
180,292,133655,1,0
180,292,133798,1,0
180,292,133941,1,0
180,292,134084,1,0
180,292,134227,1,0
180,292,134370,1,0
108,292,134512,5,0
108,292,134655,1,0
108,292,134798,1,0
108,292,135084,5,0
108,292,135227,1,0
108,292,135370,1,0
108,292,135512,1,0
108,292,135655,1,0
108,292,135798,1,0
108,292,135941,1,0
108,292,136084,1,0
108,292,136227,1,0
108,292,136370,1,0
108,292,136512,1,0
108,292,136655,1,0
108,292,136798,1,0
36,292,136941,5,0
36,292,137227,1,0
36,292,137512,1,0
36,292,137798,1,0
36,292,138084,1,0
36,292,138370,5,0
36,292,138512,1,0
36,292,138655,1,0
36,292,138798,1,0
36,292,138941,1,0
36,292,139084,1,0
36,292,139227,1,0
36,292,139298,1,0
36,292,139370,1,0
36,292,139441,1,0
36,216,139512,5,0
36,216,139655,1,0
36,216,139798,2,0,B|120:216,1,76
36,216,140084,1,0
36,216,140227,1,0
36,216,140370,1,0
36,216,140512,1,0
36,216,140655,1,0
36,216,140798,1,0
36,216,140941,1,0
36,216,141227,1,0
36,216,141512,1,0
36,216,141655,1,0
36,216,141727,1,0
36,140,141798,5,0
36,140,141941,1,0
36,140,142084,1,0
36,140,142227,1,0
36,140,142370,1,0
36,140,142512,1,0
36,140,142655,1,0
36,140,142798,2,0,B|120:140,1,76
36,140,143084,1,0
36,140,143227,1,0
36,140,143512,1,0
36,68,143798,5,0
36,68,143941,1,0
36,68,144084,1,0
36,68,144370,1,0
36,68,144655,1,0
36,68,144941,1,0
108,68,145227,5,0
108,68,145370,1,0
108,68,145512,1,0
108,68,145798,1,0
108,68,146084,1,0
108,68,146227,1,0
180,68,146370,5,0
180,68,146512,1,0
180,68,146655,1,0
180,68,146798,1,0
180,68,146941,1,0
180,68,147084,1,0
180,68,147227,1,0
180,68,147370,1,0
252,68,147512,5,0
252,68,147655,1,0
252,68,147798,1,0
252,68,148084,1,0
252,68,148227,1,0
252,68,148298,1,0
252,68,148370,1,0
252,68,148441,1,0
252,68,148512,1,0
252,68,148584,1,0
328,68,148655,5,0
328,68,148798,1,0
328,68,148941,1,0
328,68,149084,1,0
328,68,149227,1,0
328,68,149370,1,0
328,68,149512,1,0
328,68,149655,2,0,B|412:68,1,76
328,68,149941,1,0
328,68,150084,1,0
328,68,150370,1,0
328,68,150512,1,0
328,68,150655,1,0
400,68,150941,5,0
400,68,151084,1,0
400,68,151227,1,0
400,68,151370,1,0
400,68,151512,1,0
400,68,151655,1,0
400,68,151798,1,0
400,68,151941,2,0,B|492:68,1,76
400,68,152227,1,0
400,68,152370,1,0
400,144,152655,1,0
400,144,152941,5,0
400,144,153227,1,0
400,144,153512,1,0
400,144,153798,1,0
400,144,153941,1,0
400,144,154084,1,0
400,144,154370,5,0
400,144,154512,1,0
400,144,154655,1,0
400,144,154941,1,0
400,144,155084,1,0
400,144,155227,5,0
400,144,155512,1,0
400,144,155798,1,0
400,144,155941,1,0
400,144,156084,1,0
400,144,156227,1,0
400,144,156370,1,0
400,144,156655,5,0
400,144,156798,1,0
400,144,156941,1,0
400,144,157227,1,0
400,144,157370,1,0
400,144,157512,5,0
400,144,157655,1,0
400,144,157798,1,0
400,144,158084,1,0
400,144,158227,1,0
400,144,158370,1,0
400,144,158512,1,0
400,144,158655,1,0
400,216,158941,5,0
400,216,159084,1,0
400,216,159227,1,0
400,216,159512,1,0
400,216,159655,1,0
400,216,159798,1,0
400,216,160084,5,0
400,216,160370,1,0
400,216,160512,1,0
400,216,160655,1,0
400,216,160941,1,0
400,216,161084,1,0
400,216,161370,1,0
400,216,161512,1,0
400,216,161655,1,0
400,216,161798,1,0
400,216,161941,1,0
400,216,162084,1,0
400,216,162227,1,0
400,292,162370,5,0
400,292,162512,1,0
400,292,162655,1,0
400,292,162798,1,0
400,292,162941,2,0,B|476:292,2,76
308,292,163370,5,0
308,292,163512,1,0
308,292,163655,1,0
308,292,163798,2,0,B|208:292,1,76
308,292,164084,1,0
308,292,164227,1,0
308,292,164370,1,0
308,292,164512,5,0
308,216,164655,1,0
308,216,164798,1,0
308,216,164941,1,0
308,216,165084,1,0
308,216,165227,1,0
308,216,165370,1,0
308,216,165512,2,0,B|360:216,2,38
232,216,165798,5,0
232,216,165941,1,0
232,216,166084,1,0
232,216,166227,1,0
232,216,166370,1,0
232,216,166512,1,0
232,216,166655,1,0
232,216,166798,1,0
156,212,166941,5,0
156,212,167084,1,0
156,212,167227,1,0
156,212,167370,1,0
156,212,167512,1,0
156,212,167655,1,0
156,212,167798,1,0
156,212,167941,1,0
156,136,168084,5,0
156,136,168227,1,0
156,136,168370,1,0
156,136,168512,1,0
156,136,168655,1,0
156,136,168798,1,0
156,136,168941,1,0
156,136,169084,1,0
80,136,169227,5,0
80,136,169370,1,0
80,136,169512,1,0
80,136,169655,1,0
80,136,169798,1,0
80,136,169941,1,0
80,136,170084,1,0
80,136,170155,1,0
80,136,170227,1,0
80,212,170370,5,0
80,212,170512,1,0
80,212,170655,1,0
80,212,170798,1,0
80,212,170941,1,0
80,212,171084,1,0
80,212,171227,1,0
80,212,171370,1,0
80,212,171512,6,0,B|256:212,1,152
80,212,171941,2,0,B|256:212,1,152
80,212,172370,2,0,B|252:212,1,152
80,212,172798,2,0,B|240:212,1,152
80,212,173227,6,0,B|80:296,1,76
80,348,173512,1,0
144,348,173655,1,0
144,288,173798,2,0,B|142:64|142:64|244:64,1,304
284,68,174512,1,0
284,68,174655,1,0
284,68,174798,2,0,B|284:376,1,304
344,372,175512,2,0,B|344:268,1,76
344,264,175727,2,0,B|344:212,1,38
344,176,175941,1,0
344,176,176084,1,0
344,176,176155,2,0,B|344:72,1,76
344,40,176441,1,0
344,40,176512,2,0,B|252:40,1,76
208,40,176798,2,0,B|112:40,1,76
132,40,177084,1,0
132,40,177227,2,0,B|132:128,1,76
132,176,177512,1,0
132,176,177655,1,0
132,176,177798,2,0,B|132:260,1,76
132,176,178084,2,0,B|132:260,1,76
132,312,178370,5,0
132,312,178512,1,0
132,312,178655,2,0,B|216:312,1,76
240,312,178870,1,0
240,312,179012,1,0
240,312,179155,1,0
240,312,179298,1,0
240,312,179441,2,0,B|240:220,1,76
240,236,179727,1,0
240,236,179870,2,0,B|240:144,1,76
240,128,180084,2,0,B|152:128,1,76
132,128,180298,1,0
132,188,180441,2,0,B|132:276,1,76
132,296,180655,5,0
132,296,180798,1,0
132,296,180941,1,0
132,296,181227,1,0
132,296,181370,1,0
132,296,181512,1,0
132,296,181655,1,0
132,296,181798,1,0
132,296,182084,1,0
132,296,182370,1,0
132,296,182655,1,0
204,296,182941,5,0
204,296,183084,1,0
204,296,183227,1,0
204,296,183512,1,0
204,296,183655,1,0
204,296,183798,1,0
204,296,183941,1,0
204,296,184084,2,0,B|204:136,1,152
204,296,184655,2,0,B|204:136,1,152
204,296,185227,2,0,B|204:136,1,152
204,144,185798,5,0
204,144,185941,1,0
204,144,186084,1,0
204,144,186227,1,0
204,144,186512,1,0
204,144,186655,1,0
204,144,186941,1,0
204,144,187084,1,0
204,144,187227,1,0
204,144,187369,1,0
204,72,187512,5,0
204,72,187798,1,0
204,72,188084,1,0
204,72,188227,1,0
204,72,188370,1,0
204,72,188512,1,0
204,72,188798,1,0
204,72,188941,1,0
204,72,189084,1,0
204,72,189227,1,0
204,72,189370,1,0
204,72,189512,1,0
204,72,189655,1,0
204,72,189798,6,0,B|468:72|468:72|468:308|468:308|204:308,1,760
48,52,210370,5,0
48,52,210513,1,0
48,52,210656,1,0
48,52,210799,2,0,B|148:52,1,95
220,52,211084,5,0
220,52,211370,1,0
220,52,211656,1,0
220,52,211942,1,0
220,52,212227,1,0
220,52,212299,1,0
296,52,212370,5,0
296,52,212513,1,0
296,52,212656,1,0
296,52,212799,1,0
296,52,212942,1,0
296,52,213084,2,0,B|408:52,1,95
296,52,213370,2,0,B|408:52,1,95
468,52,213656,6,0,B|468:160,1,95
468,52,213942,2,0,B|468:160,1,95
468,224,214227,1,0
468,224,214370,1,0
468,224,214513,2,0,B|468:332,1,95
468,319,214799,1,0
392,320,214942,5,0
392,320,215084,1,0
392,320,215227,1,0
392,320,215370,2,0,B|296:320,1,95
220,324,215656,1,0
220,324,215799,1,0
220,324,215942,1,0
220,324,216084,1,0
220,324,216227,6,0,B|120:324,1,95
220,324,216513,2,0,B|120:324,1,95
220,324,216799,1,0
220,324,216870,1,0
220,324,216942,1,0
220,324,217012,1,0
220,324,217084,2,0,B|116:324,1,95
125,324,217370,1,0
48,324,217513,5,0
48,324,217656,2,0,B|48:216,1,95
48,324,217942,2,0,B|48:216,1,95
48,324,218227,2,0,B|48:216,1,95
48,229,218513,5,0
48,229,218799,1,0
48,229,219084,1,0
48,229,219370,1,0
48,229,219441,1,0
48,229,219512,1,0
48,229,219656,5,0
48,229,219799,1,0
48,229,219942,1,0
48,229,220084,1,0
48,229,220227,1,0
48,229,220370,1,0
48,229,220513,2,0,B|240:228,1,190
237,228,220942,1,0
237,228,221084,1,0
236,304,221227,6,0,B|340:304,1,95
331,304,221513,1,0
332,304,221656,2,0,B|332:112,1,190,0|0
332,36,222084,2,0,B|432:36,1,95
428,112,222370,2,0,B|428:308,1,190
428,112,222799,2,0,B|428:308,1,190
428,112,223227,2,0,B|428:308,1,190
428,112,223656,2,0,B|428:308,1,190
352,300,224084,5,0
352,300,224227,1,0
352,300,224370,1,0
352,300,224513,1,0
352,300,224656,1,0
352,300,224799,1,0
352,300,224942,1,0
352,300,225084,1,0
276,300,225227,5,0
276,300,225370,1,0
276,300,225513,1,0
276,300,225799,1,0
276,300,225942,1,0
276,300,226084,1,0
204,300,226370,5,0
204,300,226513,1,0
204,300,226656,1,0
204,300,226799,1,0
204,300,226942,1,0
204,300,227084,1,0
204,300,227227,1,0
204,300,227370,1,0
128,300,227656,5,0
128,300,227799,1,0
128,300,227942,1,0
128,300,228084,1,0
128,300,228227,1,0
128,300,228370,1,0
128,300,228513,1,0
220,348,228655,5,0
220,348,228798,1,0
220,348,228941,1,0
220,348,229083,1,0
220,348,229226,1,0
220,348,229369,6,0,B|320:348,1,95
392,348,229655,1,0
392,348,229727,1,0
392,348,229798,1,0
392,348,229941,1,0
392,348,230083,2,0,B|496:348,1,95
487,348,230369,1,0
484,272,230512,5,0
484,272,230798,1,0
312,272,230941,5,0
312,272,231083,1,0
312,272,231226,1,0
312,272,231369,1,0
312,272,231512,1,0
312,272,231655,2,0,B|216:272,1,95
140,272,231941,5,0
140,272,232083,1,0
140,272,232226,1,0
140,272,232369,2,0,B|40:272,1,95
45,272,232655,1,0
44,196,232798,5,0
44,196,233083,1,0
216,196,233226,5,0
216,196,233369,1,0
216,196,233512,1,0
216,196,233655,1,0
216,196,233798,1,0
216,196,233941,6,0,B|320:196,1,95
388,196,234226,1,0
388,196,234369,1,0
388,196,234512,1,0
388,196,234655,2,0,B|484:196,1,95
483,196,234941,1,0
484,120,235083,5,0
484,120,235369,1,0
408,120,235512,6,0,B|296:120,1,95
408,120,235798,2,0,B|296:120,1,95
408,120,236083,2,0,B|296:120,1,95
236,120,236369,1,0
236,120,236512,6,0,B|124:120,1,95
64,120,236798,1,0
64,120,236941,1,0
64,120,237083,1,0
64,120,237226,2,0,B|64:224,1,95
64,215,237512,1,0
64,215,237655,1,0
64,292,237798,5,0
64,292,237941,1,0
64,292,238083,1,0
64,292,238226,1,0
64,292,238369,1,0
64,292,238512,2,0,B|64:176,1,95
140,292,238798,5,0
140,292,238941,1,0
140,292,239083,1,0
140,292,239226,2,0,B|236:292,1,95
235,292,239512,1,0
312,292,239655,5,0
312,292,239941,1,0
316,216,240083,5,0
316,216,240226,1,0
316,216,240369,1,0
316,216,240512,1,0
316,216,240655,1,0
316,216,240798,6,0,B|316:116,1,95
316,44,241083,1,0
316,44,241226,1,0
316,44,241369,1,0
316,44,241512,2,0,B|216:44,1,95
221,44,241798,1,0
144,44,241941,5,0
144,44,242226,1,0
144,120,242369,5,0
144,120,242512,1,0
144,120,242655,1,0
144,120,242798,1,0
144,120,242941,1,0
144,120,243083,6,0,B|144:216,1,95
220,216,243369,1,0
220,216,243512,1,0
220,216,243655,1,0
220,216,243798,2,0,B|320:216,1,95
392,216,244226,5,0
392,216,244512,1,0
468,216,244655,5,0
468,216,244941,1,0
468,216,245226,1,0
468,216,245512,5,0
468,216,245655,1,0
468,216,245798,1,0
468,216,245941,1,0
468,216,246083,1,0
468,216,246369,1,0
468,216,246512,1,0
468,216,246655,1,0
468,216,246726,1,0
468,216,246798,1,0
468,216,246869,1,0
468,292,246941,5,0
468,292,247084,1,0
468,292,247226,1,0
468,292,247369,1,0
468,292,247512,1,0
468,292,247655,1,0
468,292,247798,1,0
468,292,247941,1,0
468,292,248084,1,0
468,292,248369,1,0
468,292,248512,1,0
392,292,248655,5,0
392,292,248798,2,0,B|392:228,2,57.0000013589859
316,292,249226,5,0
316,292,249369,1,0
316,292,249512,1,0
316,292,249655,1,0
316,292,249798,1,0
316,292,249941,1,0
316,292,250084,1,0
316,292,250226,1,0
316,292,250369,1,0
316,292,250512,1,0
316,292,250655,1,0
316,292,250798,1,0
316,292,250941,1,0
240,292,251084,5,0
240,292,251226,1,0
240,292,251369,1,0
240,292,251655,1,0
240,292,251798,5,0
240,292,251941,1,0
240,292,252084,1,0
240,292,252226,1,0
240,292,252369,1,0
240,292,252512,1,0
240,292,252655,1,0
240,292,252798,1,0
240,292,252941,1,0
240,292,253226,1,0
164,292,253512,5,0
164,292,253798,1,0
164,292,253941,2,0,B|164:156,1,114.000002717972
164,24,254369,1,0
164,24,254655,1,0
164,24,254941,1,0
164,24,255084,1,0
164,24,255226,1,0
164,100,255512,5,0
164,100,255655,1,0
164,100,255798,1,0
164,100,255941,1,0
164,176,256084,5,0
164,176,256226,1,0
164,176,256369,1,0
164,176,256512,1,0
164,176,256655,1,0
164,176,256798,1,0
164,176,256941,1,0
164,176,257084,1,0
164,176,257226,1,0
164,176,257512,1,0
164,176,257655,1,0
164,252,257798,5,0
164,252,257941,2,0,B|88:252,2,57.0000013589859
164,328,258369,5,0
164,328,258512,1,0
164,328,258655,1,0
164,328,258798,1,0
164,328,258941,1,0
164,328,259084,1,0
164,328,259226,1,0
164,328,259369,1,0
164,328,259512,1,0
164,328,259655,1,0
164,328,259798,1,0
164,328,259941,1,0
164,328,260084,1,0
236,328,260226,5,0
236,328,260369,1,0
236,328,260512,1,0
236,328,260584,1,0
236,328,260655,1,0
408,328,260798,1,0
408,328,260941,5,0
408,328,261084,1,0
408,328,261226,1,0
408,328,261369,1,0
408,328,261512,1,0
408,328,261655,1,0
408,328,261798,1,0
408,328,261941,1,0
408,328,262084,1,0
408,328,262369,1,0
408,328,262512,1,0
480,328,262655,5,0
480,328,262941,1,0
480,328,263226,1,0
480,328,263512,1,0
480,328,263798,1,0
480,328,264083,1,0
480,252,264226,5,0
480,252,264369,1,0
480,252,264512,1,0
480,252,264655,1,0
480,252,264798,1,0
480,252,264941,1,0
480,252,265226,5,0
88,116,265370,1,0
88,116,265512,1,0
88,116,265655,1,0
88,116,265798,1,0
88,116,265941,1,0
88,116,266084,1,0
88,116,266227,6,0,B|88:312,1,190
164,308,266655,1,0
164,308,266798,1,0
164,308,266941,1,0
164,308,267084,1,0
164,308,267227,1,0
164,308,267370,6,0,B|264:308,1,95
336,308,267655,1,0
336,308,267798,1,0
336,308,267941,2,0,B|436:308,2,95
336,308,268370,1,0
336,308,268512,6,0,B|336:104,1,190
336,40,268941,1,0
336,40,269084,1,0
336,40,269227,1,0
260,40,269370,5,0
260,40,269512,1,0
260,40,269655,1,0
88,116,269798,5,0
88,116,269941,1,0
88,116,270083,1,0
88,116,270226,1,0
88,116,270369,1,0
88,116,270512,1,0
88,116,270655,1,0
88,116,270798,6,0,B|88:312,1,190
164,308,271226,1,0
164,308,271369,1,0
164,308,271512,1,0
164,308,271655,1,0
164,308,271798,1,0
164,308,271941,1,0
336,308,272084,1,0
336,308,272226,1,0
336,308,272369,1,0
336,308,272512,2,0,B|436:308,2,95
336,308,272941,1,0
336,308,273083,6,0,B|336:104,1,190
336,40,273512,1,0
336,40,273655,1,0
336,40,273798,1,0
260,40,273941,5,0
260,40,274083,1,0
260,40,274155,1,0
260,40,274226,1,0
260,40,274298,1,0
88,116,274370,5,0
88,116,274513,1,0
88,116,274655,1,0
88,116,274798,1,0
88,116,274941,1,0
88,116,275084,1,0
88,116,275227,1,0
88,116,275370,6,0,B|88:312,1,190
164,308,275798,1,0
164,308,275941,1,0
164,308,276084,1,0
164,308,276227,1,0
164,308,276370,1,0
164,308,276513,6,0,B|264:308,1,95
336,308,276798,1,0
336,308,276941,1,0
336,308,277084,2,0,B|436:308,2,95
336,308,277513,1,0
336,308,277655,6,0,B|336:104,1,190
336,40,278084,1,0
336,40,278227,1,0
336,40,278370,1,0
260,40,278513,5,0
260,40,278584,1,0
260,40,278655,1,0
260,40,278727,1,0
260,40,278798,1,0
260,40,278870,1,0
88,116,278941,5,0
88,116,279084,1,0
88,116,279226,1,0
88,116,279369,1,0
88,116,279512,1,0
88,116,279655,1,0
88,116,279798,1,0
88,116,279941,6,0,B|88:312,1,190
164,308,280369,1,0
164,308,280512,1,0
164,308,280655,1,0
164,308,280798,1,0
164,308,280941,1,0
164,308,281084,6,0,B|264:308,1,95
336,308,281369,1,0
336,308,281512,1,0
336,308,281655,2,0,B|436:308,2,95
336,308,282084,1,0
336,308,282226,6,0,B|336:104,1,190
336,40,282655,1,0
336,40,282798,1,0
336,40,282941,1,0
260,40,283084,5,0
260,40,283226,1,0
260,40,283298,1,0
260,40,283369,1,0
260,40,283441,1,0
184,40,283510,5,0
40,48,286237,5,0
40,48,286407,1,0
40,48,286578,1,0
40,48,286748,1,0
40,48,287089,1,0
40,48,287430,1,0
40,48,287771,1,0
40,48,288112,1,0
40,48,288453,1,0
40,48,288794,1,0
112,48,288964,5,0
112,48,289135,1,0
112,48,289305,1,0
112,48,289561,1,0
112,48,289902,1,0
112,48,290242,1,0
112,48,290583,1,0
112,48,291010,1,0
112,48,291350,1,0
112,48,291691,5,0
112,48,292032,1,0
112,48,292373,1,0
112,48,292714,1,0
112,48,293055,5,0
112,48,293396,1,0
112,48,293737,1,0
112,48,294078,1,0
112,48,294419,1,0
112,48,294760,1,0
112,48,295100,1,0
112,48,295441,1,0
112,48,295782,5,0
112,48,295953,1,0
112,48,296123,1,0
112,48,296464,1,0
112,48,296635,1,0
112,48,296805,1,0
184,48,297146,5,0
184,48,297316,1,0
184,48,297487,1,0
184,48,297657,1,0
184,48,297998,1,0
184,48,298339,1,0
184,48,298680,1,0
184,48,299021,1,0
184,48,299362,1,0
184,48,299703,1,0
184,48,299873,1,0
184,48,300044,1,0
184,48,300214,1,0
184,48,300385,1,0
184,48,300725,1,0
184,48,301066,1,0
184,48,301407,1,0
184,48,301748,1,0
184,48,302260,1,0
184,48,302430,5,0
184,48,302600,1,0
184,48,302941,1,0
184,48,303282,1,0
184,48,303623,1,0
184,48,303964,1,0
184,48,304305,1,0
184,48,304646,1,0
184,48,304987,1,0
184,48,305328,2,0,B|466:48|466:48|468:232|468:232|352:232,1,569.999983012677
248,52,308225,5,0
248,52,308311,1,0
248,52,308396,1,0
256,192,308481,12,0,312146
