osu file format v5

[General]
AudioFilename: Liu Guang(Green Light.mp3
AudioLeadIn: 0
PreviewTime: -1
Countdown: 1
SampleSet: Soft
StackLeniency: 0.7
Mode: 0

[Metadata]
Title:Liu Guang(Green Light)
Artist:YanZi Sun
Creator:dipsy
Version:Green Piece of Cake

[Difficulty]
HPDrainRate:4
CircleSize:4
OverallDifficulty:4
SliderMultiplier:0.7
SliderTickRate:2

[Events]
//Background and Video events
//Break Periods
2,32296,49171
2,78720,83993
2,95701,103640
//Storyboard Layer 0 (Background)
//Storyboard Layer 1 (Failing)
//Storyboard Layer 2 (Passing)
//Storyboard Layer 3 (Foreground)
//Storyboard Sound Samples
//Background Colour Transformations
3,100,163,162,255

[TimingPoints]
15138,565.984341099896,4,2,0,100

[Colours]
Combo1 : 0,255,0
Combo2 : 255,255,128
Combo3 : 0,255,0
Combo4 : 128,255,255

[HitObjects]
222,49,14288,5,0
304,56,15137,2,0,B|357:93|326:142,1,70
336,168,16270,5,2
336,224,16836,1,2
336,280,17402,5,2
280,280,17968,1,2
248,328,18534,1,2
216,280,19100,5,2
160,280,19666,1,0
104,280,20232,1,0
128,232,20798,5,0
104,184,21364,1,0
128,128,21930,5,0
96,80,22496,1,0
128,32,23062,1,0
184,32,23628,5,0
240,32,24194,1,0
296,32,24760,1,0
352,32,25326,5,0
368,88,25892,1,0
352,144,26458,5,0
360,200,27024,1,0
352,256,27590,1,0
336,312,28156,6,0,B|288:352|232:304,1,105
208,304,29288,1,0
208,248,29854,1,0
192,192,30421,1,0
192,136,30987,6,0,B|288:168|352:128,1,140
256,304,50512,5,0
256,216,51364,1,2
256,160,51930,1,2
312,160,52496,5,2
368,160,53062,1,2
368,104,53628,1,0
336,56,54190,1,0
280,72,54756,1,0
224,72,55326,5,0
112,72,56454,1,0
112,128,57020,5,0
152,168,57586,1,0
112,208,58152,1,0
152,248,58718,1,0
120,296,59284,1,0
152,344,59850,5,0
200,296,60416,1,0
256,296,60982,1,0
312,296,61548,5,0
312,240,62114,1,0
320,128,63246,1,0
264,128,63812,1,0
208,128,64378,1,0
152,128,64944,1,0
96,128,65510,1,0
88,240,66642,1,0
256,192,67208,12,4,68340
214,148,69189,5,0
270,148,69755,1,0
301,191,70321,1,0
269,237,70887,1,0
213,239,71453,5,0
182,192,72019,1,0
126,194,72585,1,0
89,236,73151,1,0
129,274,73717,5,0
184,276,74283,1,0
220,233,74849,1,0
275,234,75415,1,0
358,235,76264,5,0
413,237,76830,1,0
411,181,77396,1,4
411,153,77679,2,0,B|354:105|418:55,1,105
92,272,85320,5,4
175,276,86169,1,4
256,280,87018,1,2
314,276,87583,6,0,B|395:232|465:167|457:100|390:57|255:55,1,385
256,192,92111,12,0,95507
251,340,104846,5,0
168,336,105695,2,0,B|115:299|138:252,1,70
125,227,106827,5,2
126,171,107393,1,2
126,114,107959,5,2
237,116,109091,1,2
292,116,109657,5,2
347,118,110223,1,0
402,117,110789,1,0
407,172,111355,5,0
405,227,111921,1,0
352,240,112487,6,0,B|272:272|192:240,1,140
160,256,114185,5,0
96,256,114751,1,0
96,200,115317,1,0
136,160,115883,5,0
96,120,116449,1,0
136,80,117015,5,0
176,120,117581,1,0
216,80,118147,1,0
248,120,118713,6,0,B|296:80|352:128,1,105
368,128,119845,1,0
368,184,120411,1,0
368,240,120977,1,0
368,296,121543,6,0,B|312:328|229:275,1,140
