osu file format v12

[General]
AudioFilename: Yamboo - Feelings (Nightcore Mix).mp3
AudioLeadIn: 0
PreviewTime: 24765
Countdown: 0
SampleSet: Soft
StackLeniency: 0.6
Mode: 0
LetterboxInBreaks: 0
EpilepsyWarning: 1
WidescreenStoryboard: 0

[Editor]
DistanceSpacing: 1
BeatDivisor: 2
GridSize: 4

[Metadata]
Title:Feelings (Nightcore Mix)
TitleUnicode:Feelings (Nightcore Mix)
Artist:Yamboo
ArtistUnicode:Yamboo
Creator:Andrea
Version:Normal
Source:
Tags:Christmas Xmas Gero Lally osuplayer111
BeatmapID:316214
BeatmapSetID:123174

[Difficulty]
HPDrainRate:3
CircleSize:3
OverallDifficulty:3
ApproachRate:4
SliderMultiplier:1.2
SliderTickRate:2

[Events]
//Background and Video events
0,0,"BG.jpg",0,0
//Break Periods
2,95463,105677
//Storyboard Layer 0 (Background)
//Storyboard Layer 1 (Fail)
//Storyboard Layer 2 (Pass)
//Storyboard Layer 3 (Foreground)
//Storyboard Sound Samples
//Background Colour Transformations
3,100,255,255,255

[TimingPoints]
1390,366.692131398014,4,2,1,60,1,0
11657,-100,4,1,1,40,0,0
12024,-100,4,1,1,50,0,0
12390,-100,4,1,1,60,0,0
13124,-100,4,1,1,80,0,0
24308,-100,4,1,1,70,0,0
24858,-100,4,1,1,80,0,1
36500,-100,4,1,1,80,0,0
36592,-100,4,1,1,80,0,1
48326,-100,4,1,1,80,0,0
71061,-100,4,1,1,60,0,0
71428,-100,4,1,1,70,0,0
71794,-100,4,1,1,80,0,1
83437,-100,4,1,1,80,0,0
83529,-100,4,1,1,80,0,1
95263,-100,4,1,1,60,0,0
106997,-100,4,1,1,30,0,0
117264,-100,4,1,1,40,0,0
117631,-100,4,1,1,50,0,0
117998,-100,4,1,1,60,0,0
118364,-100,4,1,1,70,0,0
118731,-100,4,1,1,80,0,1
142199,-133.333333333333,4,2,1,60,0,0
153567,-133.333333333333,4,2,1,50,0,0
153933,-100,4,2,1,40,0,0
154300,-100,4,2,1,35,0,0
154667,-100,4,2,1,30,0,0
155034,-100,4,2,1,20,0,0
155400,-100,4,2,1,15,0,0
155767,-100,4,2,1,10,0,0
156134,-100,4,2,1,5,0,0

[Colours]
Combo1 : 128,255,255
Combo2 : 255,128,128
Combo3 : 255,255,128
Combo4 : 128,255,128

[HitObjects]
48,48,1390,2,0,B|112:48|112:48|164:88,1,120,2|0,0:0|0:0,0:0:0:0:
256,148,2123,1,2,0:0:0:0:
356,84,2490,2,0,B|408:44|408:44|472:44,2,120,0|2|2,0:0|0:0|0:0,0:0:0:0:
448,160,3590,6,0,P|448:292|340:324,1,240,2|2,0:0|0:0,0:0:0:0:
244,328,4690,1,0,0:0:0:0:
136,280,5056,2,0,P|136:212|100:164,1,120,2|0,0:0|0:0,0:0:0:0:
36,76,5790,1,2,0:0:0:0:
144,24,6156,1,2,0:0:0:0:
252,76,6523,6,0,B|376:76|376:140|504:136,1,240,2|2,0:0|0:0,0:0:0:0:
452,252,7623,2,0,P|388:252|340:292,1,120,0|2,0:0|0:0,0:0:0:0:
232,328,8357,1,0,0:0:0:0:
112,328,8723,1,2,0:0:0:0:
12,264,9090,1,0,0:0:0:0:
112,196,9457,6,0,P|180:88|300:36,1,240,2|2,0:0|0:0,0:0:0:0:
400,36,10557,1,0,0:0:0:0:
472,132,10923,2,0,P|404:240|284:292,1,240,2|2,0:0|0:2,0:0:0:0:
192,328,12024,2,0,P|128:328|80:288,1,120,2|2,0:2|0:2,0:0:0:0:
72,56,13124,5,4,0:2:0:0:
188,92,13490,2,0,P|320:92|424:160,1,240,8|8,0:0|0:0,0:0:0:0:
512,208,14590,1,0,0:0:0:0:
416,276,14957,2,0,P|308:346|180:345,1,240,8|8,0:0|0:0,0:0:0:0:
88,304,16057,5,0,0:0:0:0:
40,196,16424,2,0,P|160:136|160:24,1,240,8|8,0:0|0:0,0:0:0:0:
288,36,17524,1,0,0:0:0:0:
396,84,17891,2,0,P|396:152|432:204,1,120,8|0,0:0|0:0,0:0:0:0:
476,304,18624,1,8,0:0:0:0:
360,324,18991,5,0,0:0:0:0:
256,268,19357,2,0,B|172:268|172:268|96:312|96:312|8:312,1,240,8|8,0:0|0:0,0:0:0:0:
24,192,20457,2,0,L|100:84,1,120,0|8,0:0|0:0,0:0:0:0:
200,152,21191,2,0,L|276:44,1,120,0|8,0:0|0:0,0:0:0:0:
388,52,21924,5,0,0:0:0:0:
472,136,22291,2,0,P|472:268|376:340,1,240,8|8,0:0|0:0,0:0:0:0:
288,284,23391,1,0,0:0:0:0:
176,328,23758,1,8,0:0:0:0:
64,284,24124,2,0,L|100:224,1,60,0|0,0:0|0:0,0:0:0:0:
184,76,24858,5,4,0:2:0:0:
300,44,25224,2,0,P|416:92|456:212,1,240,8|8,0:0|0:0,0:0:0:0:
476,312,26325,5,0,0:0:0:0:
364,272,26691,2,0,B|260:272|220:320|220:320|112:320,1,240,8|8,0:0|0:0,0:0:0:0:
52,236,27791,5,0,0:0:0:0:
104,128,28158,2,0,P|168:128|216:84,1,120,8|0,0:0|0:0,0:0:0:0:
316,36,28891,1,8,0:0:0:0:
436,36,29258,6,0,P|436:100|388:144,2,120,2|8|2,0:2|0:0|0:2,0:0:0:0:
316,36,30358,1,8,0:0:0:0:
212,96,30725,1,0,0:0:0:0:
92,104,31092,6,0,B|92:236|92:236|164:344,1,240,8|8,0:0|0:0,0:0:0:0:
256,264,32192,1,0,0:0:0:0:
360,325,32558,2,0,B|420:236|420:236|420:104,1,240,8|8,0:0|0:0,0:0:0:0:
316,40,33658,5,0,0:0:0:0:
196,40,34025,2,0,P|88:112|88:232,1,240,8|8,0:0|0:0,0:0:0:0:
60,332,35125,2,0,P|128:332|172:292,1,120,2|8,0:2|0:0,0:0:0:0:
256,220,35859,1,2,0:2:0:0:
344,300,36225,6,0,P|391:334|450:331,1,120,8|4,0:0|0:2,0:0:0:0:
431,213,36959,2,0,P|416:98|316:40,1,240,8|8,0:0|0:0,0:0:0:0:
196,40,38059,5,0,0:0:0:0:
196,160,38425,2,0,P|91:227|88:351,1,240,8|8,0:0|0:0,0:0:0:0:
196,296,39525,5,0,0:0:0:0:
296,228,39892,2,0,P|428:228|524:152,1,240,8|8,0:0|0:0,0:0:0:0:
436,76,40992,5,2,0:2:0:0:
320,40,41359,1,8,0:0:0:0:
256,140,41726,1,2,0:2:0:0:
192,40,42092,1,8,0:0:0:0:
76,76,42459,5,0,0:0:0:0:
40,188,42826,2,0,P|48:292|164:256,1,240,8|8,0:0|0:0,0:0:0:0:
256,340,43926,1,0,0:0:0:0:
356,274,44292,2,0,P|461:294|472:188,1,240,8|8,0:0|0:0,0:0:0:0:
436,76,45393,5,0,0:0:0:0:
324,36,45759,2,0,B|192:36|192:36|96:120,1,240,8|8,0:0|0:0,0:0:0:0:
220,160,46859,2,0,L|120:244,1,120,2|8,0:2|0:0,0:0:0:0:
44,324,47593,1,2,0:2:0:0:
284,320,48326,5,4,0:2:0:0:
364,232,48693,2,0,P|256:162|127:163,1,240,8|8,0:0|0:0,0:0:0:0:
72,64,49793,1,0,0:0:0:0:
192,64,50160,2,0,B|288:64|288:64|344:92|344:92|428:92,1,240,8|8,0:0|0:0,0:0:0:0:
496,192,51260,5,0,0:0:0:0:
496,312,51626,2,0,P|376:252|272:252,1,240,8|8,0:0|0:0,0:0:0:0:
208,352,52726,1,0,0:0:0:0:
92,316,53093,2,0,P|92:248|56:196,1,120,8|0,0:0|0:0,0:0:0:0:
48,84,53826,1,8,0:0:0:0:
164,48,54193,5,0,0:0:0:0:
256,124,54560,2,0,B|340:124|340:124|416:80|416:80|504:80,1,240,8|8,0:0|0:0,0:0:0:0:
480,200,55660,2,0,L|404:308,1,120,0|8,0:0|0:0,0:0:0:0:
316,224,56393,2,0,L|240:332,1,120,0|8,0:0|0:0,0:0:0:0:
128,324,57127,5,0,0:0:0:0:
36,244,57493,2,0,P|36:112|132:40,1,240,8|8,0:0|0:0,0:0:0:0:
184,140,58593,1,0,0:0:0:0:
256,44,58960,1,8,0:0:0:0:
356,256,59694,1,8,0:0:0:0:
256,324,60060,5,4,0:2:0:0:
156,256,60427,2,0,P|96:164|156:60,1,240,8|8,0:0|0:0,0:0:0:0:
256,124,61527,1,0,0:0:0:0:
357,60,61894,6,0,P|416:158|356:256,1,240,8|8,0:0|0:0,0:0:0:0:
256,324,62994,1,0,0:0:0:0:
156,256,63360,1,8,0:0:0:0:
256,188,63727,1,0,0:0:0:0:
356,256,64094,6,0,B|356:196|356:196|336:140,1,120,8|0,0:0|0:0,0:0:0:0:
256,48,64827,1,8,0:0:0:0:
176,140,65194,2,0,B|156:196|156:196|156:256,1,120,0|8,0:0|0:0,0:0:0:0:
36,256,65927,6,0,P|36:192|72:132,1,120,0|8,0:0|0:0,0:0:0:0:
140,52,66661,1,0,0:0:0:0:
256,88,67027,2,0,P|312:57|377:57,1,120,8|0,0:0|0:0,0:0:0:0:
424,160,67761,1,8,0:0:0:0:
476,268,68127,6,0,P|422:294|363:293,1,120,0|8,0:0|0:0,0:0:0:0:
256,236,68861,1,0,0:0:0:0:
148,293,69228,2,0,P|89:294|36:268,1,120,8|0,0:0|0:0,0:0:0:0:
36,148,69961,6,0,L|36:16,1,120,8|0,0:0|0:0,0:0:0:0:
156,28,70694,1,8,0:0:0:0:
256,92,71061,1,0,0:0:0:0:
256,212,71428,1,8,0:0:0:0:
328,308,71794,5,4,0:2:0:0:
212,340,72161,2,0,P|96:292|56:172,1,240,8|8,0:0|0:0,0:0:0:0:
36,72,73261,5,0,0:0:0:0:
148,112,73628,2,0,B|252:112|292:64|292:64|400:64,1,240,8|8,0:0|0:0,0:0:0:0:
460,148,74728,5,0,0:0:0:0:
408,256,75095,2,0,P|344:256|296:300,1,120,8|0,0:0|0:0,0:0:0:0:
196,348,75828,1,8,0:0:0:0:
76,348,76195,6,0,P|76:284|124:240,2,120,2|8|2,0:2|0:0|0:2,0:0:0:0:
196,348,77295,1,8,0:0:0:0:
300,288,77661,1,0,0:0:0:0:
420,280,78028,6,0,B|420:148|420:148|348:40,1,240,8|8,0:0|0:0,0:0:0:0:
256,120,79128,1,0,0:0:0:0:
151,58,79495,2,0,B|92:148|92:148|92:280,1,240,8|8,0:0|0:0,0:0:0:0:
196,344,80595,5,0,0:0:0:0:
316,344,80962,2,0,P|424:272|424:152,1,240,8|8,0:0|0:0,0:0:0:0:
452,52,82062,2,0,P|384:52|340:92,1,120,2|8,0:2|0:0,0:0:0:0:
256,164,82795,1,2,0:2:0:0:
168,84,83162,6,0,P|120:49|61:52,1,120,8|4,0:0|0:2,0:0:0:0:
80,170,83895,2,0,P|95:285|196:344,1,240,8|8,0:0|0:0,0:0:0:0:
316,344,84995,5,0,0:0:0:0:
316,224,85362,2,0,P|421:157|424:33,1,240,8|8,0:0|0:0,0:0:0:0:
316,88,86462,5,0,0:0:0:0:
216,156,86829,2,0,P|84:156|-12:232,1,240,8|8,0:0|0:0,0:0:0:0:
76,308,87929,5,2,0:2:0:0:
192,344,88296,1,8,0:0:0:0:
256,244,88662,1,2,0:2:0:0:
320,344,89029,1,8,0:0:0:0:
436,308,89396,5,0,0:0:0:0:
472,196,89762,2,0,P|464:92|348:128,1,240,8|8,0:0|0:0,0:0:0:0:
256,44,90862,1,0,0:0:0:0:
155,109,91229,2,0,P|50:89|40:196,1,240,8|8,0:0|0:0,0:0:0:0:
76,308,92329,5,0,0:0:0:0:
188,348,92696,2,0,B|320:348|320:348|416:264,1,240,8|8,0:0|0:0,0:0:0:0:
292,224,93796,2,0,L|392:140,1,120,2|8,0:2|0:0,0:0:0:0:
352,32,94529,1,2,0:2:0:0:
256,104,94896,1,8,0:0:0:0:
160,32,95263,1,4,0:2:0:0:
72,212,106997,5,0,0:0:0:0:
80,332,107364,2,0,P|176:240|176:120,1,240,8|8,0:2|0:2,0:0:0:0:
256,44,108464,1,0,0:0:0:0:
329,138,108830,2,0,P|343:255|432:332,1,240,8|8,0:2|0:2,0:0:0:0:
440,212,109930,1,0,0:0:0:0:
468,96,110297,5,8,0:2:0:0:
256,204,111030,1,8,0:2:0:0:
44,96,111764,1,8,0:2:0:0:
72,212,112131,2,0,P|136:212|172:160,1,120,0|8,0:0|0:2,0:0:0:0:
256,88,112864,5,0,0:0:0:0:
344,168,113231,2,0,P|412:268|344:372,1,240,8|8,0:2|0:2,0:0:0:0:
256,304,114331,1,0,0:0:0:0:
150,362,114697,2,0,P|100:260|168:168,1,240,8|8,0:2|0:2,0:0:0:0:
256,84,115797,5,0,0:0:0:0:
344,168,116164,2,0,P|412:268|344:372,1,240,8|8,0:2|0:2,0:0:0:0:
256,304,117264,1,0,0:0:0:0:
208,192,117631,1,8,0:2:0:0:
88,192,117998,1,4,0:2:0:0:
48,304,118364,1,8,0:2:0:0:
152,364,118731,5,4,0:2:0:0:
256,304,119098,2,0,P|372:256|412:136,1,240,8|8,0:0|0:0,0:0:0:0:
440,40,120198,5,0,0:0:0:0:
324,76,120564,2,0,B|220:76|180:28|180:28|72:28,1,240,8|8,0:0|0:0,0:0:0:0:
68,144,121665,5,0,0:0:0:0:
104,256,122031,2,0,P|168:256|216:300,1,120,8|0,0:0|0:0,0:0:0:0:
316,348,122765,1,8,0:0:0:0:
436,348,123131,6,0,P|436:284|388:240,2,120,2|8|2,0:2|0:0|0:2,0:0:0:0:
316,348,124231,1,8,0:0:0:0:
212,288,124598,1,0,0:0:0:0:
92,280,124965,6,0,B|92:148|92:148|164:40,1,240,8|8,0:0|0:0,0:0:0:0:
256,120,126065,1,0,0:0:0:0:
360,58,126432,2,0,B|420:148|420:148|420:280,1,240,8|8,0:0|0:0,0:0:0:0:
316,344,127532,5,0,0:0:0:0:
196,344,127898,2,0,P|88:272|88:152,1,240,8|8,0:0|0:0,0:0:0:0:
60,52,128998,2,0,P|128:52|172:92,1,120,2|8,0:2|0:0,0:0:0:0:
256,164,129732,1,2,0:2:0:0:
344,84,130098,6,0,P|391:49|450:52,1,120,8|4,0:0|0:2,0:0:0:0:
431,170,130832,2,0,P|416:285|316:344,1,240,8|8,0:0|0:0,0:0:0:0:
196,344,131932,5,0,0:0:0:0:
196,224,132299,2,0,P|91:157|88:33,1,240,8|8,0:0|0:0,0:0:0:0:
196,88,133399,5,0,0:0:0:0:
296,156,133765,2,0,P|428:156|524:232,1,240,8|8,0:0|0:0,0:0:0:0:
436,308,134865,5,2,0:2:0:0:
320,344,135232,1,8,0:0:0:0:
256,244,135599,1,2,0:2:0:0:
192,344,135966,1,8,0:0:0:0:
76,308,136332,5,0,0:0:0:0:
40,196,136699,2,0,P|48:92|164:128,1,240,8|8,0:0|0:0,0:0:0:0:
256,44,137799,1,0,0:0:0:0:
356,109,138166,2,0,P|461:89|472:196,1,240,8|8,0:0|0:0,0:0:0:0:
436,308,139266,5,0,0:0:0:0:
324,348,139632,2,0,B|192:348|192:348|92:304,1,240,8|8,0:0|0:0,0:0:0:0:
52,192,140733,2,0,B|52:128|52:128|88:76,1,120,2|8,1:2|0:0,0:0:0:0:
196,44,141466,1,2,0:2:0:0:
316,44,141833,1,8,0:0:0:0:
256,144,142199,5,4,1:2:0:0:
304,220,142566,2,0,P|356:288|312:360,1,180.000006866455,8|8,0:0|0:0,0:0:0:0:
256,292,143666,1,2,0:0:0:0:
199,359,144033,2,0,P|156:286|208:220,1,180.000006866455,8|8,0:0|0:0,0:0:0:0:
256,144,145133,5,2,0:0:0:0:
320,80,145500,2,0,P|256:28|188:80,1,180.000006866455,8|8,0:0|0:0,0:0:0:0:
102,52,146600,1,2,0:0:0:0:
40,116,146966,2,0,P|40:164|72:208,1,90.0000034332277,8|2,0:0|0:0,0:0:0:0:
100,280,147700,1,8,0:0:0:0:
172,228,148066,5,4,1:2:0:0:
212,308,148433,2,0,P|312:308|380:240,1,180.000006866455,8|8,0:0|0:0,0:0:0:0:
308,192,149533,1,2,0:0:0:0:
370,125,149900,2,0,P|300:71|212:76,1,180.000006866455,8|8,0:0|0:0,0:0:0:0:
124,96,151000,5,2,0:0:0:0:
40,128,151367,2,0,B|40:228|40:228|96:304,1,180.000006866455,8|8,0:0|0:0,0:0:0:0:
168,248,152467,2,0,L|220:340,1,90.0000034332277,2|8,0:0|0:0,0:0:0:0:
299,326,153200,2,0,L|344:248,1,90.0000034332277,2|0,0:0|1:0,0:0:0:0:
256,192,153933,12,0,156134,0:0:0:0:
