osu file format v6

[General]
AudioFilename: 43 - Alive (TV size).mp3
AudioLeadIn: 1511
PreviewTime: 22851
Countdown: 0
SampleSet: Normal
StackLeniency: 0.7
Mode: 0
LetterboxInBreaks: 0

[Editor]
DistanceSpacing: 1
BeatDivisor: 4
GridSize: 8

[Metadata]
Title:Alive (TV size)
Artist:Yamazaki Maimi
Creator:KIA
Version:Normal+
Source:Ragnarok The Animation
Tags:RO

[Difficulty]
HPDrainRate:4
CircleSize:4
OverallDifficulty:4
SliderMultiplier:1.4
SliderTickRate:1

[Events]
//Background and Video events
Video,0,"ED.avi"
0,0,"ragnarok.jpg"
//Break Periods
//Storyboard Layer 0 (Background)
//Storyboard Layer 1 (Fail)
//Storyboard Layer 2 (Pass)
//Storyboard Layer 3 (Foreground)
//Storyboard Sound Samples
//Background Colour Transformations
3,100,0,0,0

[TimingPoints]
1334,606.060606060606,4,1,1,31,1,0
23000,-100,4,1,1,45,0,0
23152,-100,4,1,1,45,0,1
41637,-100,4,1,1,31,0,0
53465,480,4,1,1,31,1,0
55131,-100,4,2,1,0,0,0

[Colours]
Combo1 : 255,128,0
Combo2 : 7,203,184
Combo3 : 248,55,7
Combo4 : 6,104,223

[HitObjects]
256,208,1334,12,4,2243
136,72,3152,5,4
275,72,3758,1,4
205,72,4061,6,0,B|205:144,1,70,0|8
205,211,4667,1,0
205,212,4818,2,0,B|269:316,1,105,0|0
330,301,5576,1,8
380,251,5879,1,0
380,181,6182,1,0
275,181,6637,5,0
170,181,7091,1,8
170,111,7394,2,0,B|120:112|72:168|122:236,1,140
312,96,8909,5,0
312,168,9212,1,8
312,240,9515,1,0
312,240,9667,1,0
208,240,10121,1,0
144,210,10424,1,8
94,161,10727,1,0
70,95,11030,1,0
208,56,11637,5,8
280,56,11940,1,0
400,128,12546,1,0
280,200,13152,1,0
181,298,13758,5,0
120,332,14061,1,8
120,262,14364,1,0
152,128,14970,5,0
224,128,15273,1,8
296,128,15576,1,0
368,128,15879,1,0
368,264,16485,1,8
248,192,17091,1,0
176,192,17394,2,0,B|169:101|257:89,1,140,0|0
318,90,18303,6,0,B|318:258,1,140,0|8
269,279,19212,1,0
219,230,19515,2,0,B|59:230,1,140,0|8
178,131,20727,5,4
232,264,21334,1,8
281,313,21637,1,4
330,264,21940,1,0
379,214,22243,1,4
379,214,22394,1,4
256,88,23152,5,8
206,137,23455,1,0
206,172,23606,1,0
241,172,23758,1,2
311,172,24061,1,0
381,172,24364,1,8
431,221,24667,1,0
431,256,24818,1,0
406,280,24970,1,2
343,312,25273,5,0
274,312,25576,1,8
134,312,26182,1,2
134,242,26485,1,8
134,210,26637,1,2
134,178,26788,1,10
192,48,27394,1,2
248,176,28000,5,8
320,176,28303,1,0
320,211,28455,1,0
320,245,28606,1,2
320,312,28909,1,0
369,262,29212,1,8
418,213,29515,1,0
418,177,29667,1,0
393,152,29818,1,2
344,103,30121,5,0
295,54,30424,1,8
190,54,30879,1,2
190,159,31334,1,8
239,208,31637,1,8
140,307,32243,1,2
140,167,32849,5,8
210,167,33152,1,0
235,192,33303,1,0
270,192,33455,1,2
340,192,33758,1,0
410,192,34061,1,8
410,122,34364,1,0
410,87,34515,1,0
379,69,34667,1,2
312,48,34970,5,0
262,97,35273,2,0,B|118:97,1,140,8|2
153,160,36182,1,10
168,191,36334,1,0
185,222,36485,1,10
326,225,37091,1,2
296,88,37697,5,8
365,88,38000,1,0
401,88,38152,1,0
401,122,38303,1,2
401,192,38606,1,0
401,262,38909,1,8
261,262,39515,5,2
121,262,40121,1,8
195,188,40576,1,2
269,114,41030,1,8
339,114,41334,1,8
438,213,41940,5,2
404,274,42243,1,0
334,274,42546,1,8
194,274,43152,1,0
334,274,43758,2,0,B|279:220,1,70,8|0
235,175,44364,1,0
305,175,44667,1,0
340,175,44818,1,0
185,93,45576,5,8
325,93,46182,1,0
256,105,46485,1,0
256,176,46788,5,8
208,224,47091,1,0
256,272,47394,1,0
360,176,48000,1,8
408,224,48303,1,0
360,272,48606,1,0
256,176,49212,1,8
208,128,49515,1,0
256,80,49818,2,0,L|345:80,1,70
391,104,50424,6,0,B|391:192,1,70,0|0
367,240,51030,2,0,B|279:240,1,70,0|0
231,216,51637,2,0,B|231:136,1,70,0|0
255,80,52243,2,0,B|343:80,1,70,0|0
391,80,52849,1,4
224,48,53465,5,4
112,128,53945,1,4
168,256,54425,1,4
256,256,54785,1,4
256,208,55145,12,0,60185
