osu file format v14

[General]
AudioFilename: Dreaming!.mp3
AudioLeadIn: 0
PreviewTime: 67153
Countdown: 0
SampleSet: Soft
StackLeniency: 0.7
Mode: 0
LetterboxInBreaks: 0
WidescreenStoryboard: 0

[Editor]
Bookmarks: 62649
DistanceSpacing: 1.1
BeatDivisor: 4
GridSize: 4
TimelineZoom: 1

[Metadata]
Title:Dreaming!
TitleUnicode:Dreaming!
Artist:Yamazaki Haruka, Tadokoro Azusa, Machico
ArtistUnicode:山崎はるか、田所あずさ、Machico
Creator:hvick225
Version:E@sy
Source:アイドルマスター ミリオンライブ!
Tags:idolm@ster the idolmaster million live im@s imas bbj0920 enjoy - e n j u - enju startrick kasuga miral mogami shizuka ibuki tsubasa
BeatmapID:799481
BeatmapSetID:363873

[Difficulty]
HPDrainRate:3
CircleSize:3
OverallDifficulty:2
ApproachRate:3
SliderMultiplier:0.799999999999999
SliderTickRate:1

[Events]
//Background and Video events
0,0,"BG.png",0,0
Video,0,"Dreaming!.avi"
//Break Periods
//Storyboard Layer 0 (Background)
//Storyboard Layer 1 (Fail)
//Storyboard Layer 2 (Pass)
//Storyboard Layer 3 (Foreground)
//Storyboard Sound Samples

[TimingPoints]
5987,333.333333333333,4,2,1,40,1,0
13986,-100,4,2,1,50,0,0
19320,-100,4,2,2,60,0,0
19570,-100,4,2,3,60,0,0
19736,-100,4,2,2,60,0,0
22236,-100,4,2,3,60,0,0
22403,-100,4,2,2,60,0,0
23570,-100,4,2,3,60,0,0
23736,-100,4,2,2,60,0,0
24903,-100,4,2,3,60,0,0
25070,-100,4,2,2,60,0,0
29986,-100,4,2,2,50,0,0
40653,-100,4,2,2,60,0,0
40903,-100,4,2,3,60,0,0
41070,-100,4,2,2,60,0,0
43570,-100,4,2,3,60,0,0
43736,-100,4,2,2,60,0,0
46236,-100,4,2,3,60,0,0
46403,-100,4,2,2,60,0,0
51570,-100,4,2,3,60,0,0
51736,-100,4,2,2,60,0,0
52236,-100,4,2,3,60,0,0
52403,-100,4,2,2,60,0,0
54236,-100,4,2,3,60,0,0
54403,-100,4,2,2,60,0,0
54903,-100,4,2,3,60,0,0
55070,-100,4,2,2,60,0,0
63570,-100,4,2,3,60,0,0
63736,-100,4,2,2,60,0,0
67320,-100,4,2,2,60,0,1
67570,-100,4,2,3,60,0,1
67736,-100,4,2,2,60,0,1
70236,-100,4,2,3,60,0,1
70403,-100,4,2,2,60,0,1
72903,-100,4,2,3,60,0,1
73070,-100,4,2,2,60,0,1
80903,-100,4,2,3,60,0,1
81070,-100,4,2,2,60,0,1
84653,-100,4,2,2,60,0,0
91820,-100,4,2,0,5,0,0

[Colours]
Combo1 : 255,77,224
Combo2 : 104,209,255
Combo3 : 255,151,47

[HitObjects]
400,128,5986,6,0,P|412:189|400:256,1,120,2|0,0:0|0:0,0:0:0:0:
256,340,7153,2,0,L|128:320,1,120,2|2,0:0|0:0,0:0:0:0:
84,252,7986,2,0,P|80:212|84:160,1,79.9999999999999,2|0,0:0|0:0,0:0:0:0:
136,100,8653,6,0,P|212:92|284:92,1,120,2|2,0:0|0:0,0:0:0:0:
372,152,9653,1,0,0:0:0:0:
332,232,9986,2,0,B|256:252|256:212|140:232,1,160,2|2,0:0|0:0,0:0:0:0:
92,264,10986,1,2,0:0:0:0:
44,188,11320,6,0,P|48:136|56:100,1,79.9999999999999,2|2,0:0|0:0,0:0:0:0:
132,68,11986,2,0,P|171:62|220:60,1,79.9999999999999
280,116,12653,1,8,0:0:0:0:
448,64,13320,2,0,B|436:112|436:112|456:164|456:164|432:252,1,160,2|8,0:0|0:0,0:0:0:0:
380,280,14320,6,0,P|343:272|288:264,1,79.9999999999999,2|2,0:0|0:0,0:0:0:0:
232,320,14986,2,0,P|172:328|116:272,2,120,4|8|2,0:0|0:0|0:0,0:0:0:0:
192,192,16486,6,0,P|133:191|36:200,1,120,8|8,0:0|0:0,0:0:0:0:
28,120,17320,2,0,P|64:68|136:68,1,120,4|8,0:0|0:0,0:0:0:0:
240,112,18320,5,0,0:0:0:0:
316,72,18653,2,0,P|360:68|408:64,1,79.9999999999999,0|8,0:0|0:0,0:0:0:0:
456,132,19320,6,0,P|476:200|408:264,1,160,4|2,0:0|0:0,0:0:0:0:
336,236,20320,1,8,0:0:0:0:
284,304,20653,2,0,P|242:303|188:308,1,79.9999999999999,2|8,0:0|0:0,0:0:0:0:
120,332,21320,2,0,P|116:288|120:240,1,79.9999999999999,2|8,0:0|0:0,0:0:0:0:
56,188,21986,6,0,P|136:196|188:132,1,160,2|2,0:0|0:0,0:0:0:0:
212,56,22986,1,8,0:0:0:0:
288,100,23320,2,0,P|282:183|280:272,1,160,2|2,0:0|0:0,0:0:0:0:
340,324,24320,1,8,0:0:0:0:
412,276,24653,6,0,P|468:236|452:148,1,160,2|2,0:0|0:0,0:0:0:0:
396,88,25653,1,8,0:0:0:0:
316,124,25986,2,0,P|276:127|232:128,1,79.9999999999999,2|8,0:0|0:0,0:0:0:0:
176,64,26653,2,0,P|136:61|92:60,1,79.9999999999999,2|8,0:0|0:0,0:0:0:0:
36,124,27320,5,8,0:0:0:0:
144,204,27820,2,0,L|132:328,1,120,4|8,0:0|0:0,0:0:0:0:
216,348,28653,2,0,P|272:332|348:328,1,120,8|2,0:0|0:0,0:0:0:0:
448,260,29653,1,0,0:0:0:0:
412,180,29986,6,0,P|344:148|268:188,1,160,2|2,0:0|0:0,0:0:0:0:
344,232,30986,1,2,0:0:0:0:
264,268,31320,2,0,P|202:267|116:260,2,120,2|2|2,0:0|0:0|0:0,0:0:0:0:
344,232,32653,6,0,B|356:180|356:180|336:64,1,160,2|2,0:0|0:0,0:0:0:0:
256,48,33653,1,2,0:0:0:0:
244,136,33986,2,0,P|176:176|88:152,1,160,2|2,0:0|0:0,0:0:0:0:
32,104,34986,1,8,0:0:0:0:
88,36,35320,6,0,P|127:31|176:32,1,79.9999999999999,2|2,0:0|0:0,0:0:0:0:
256,48,35986,2,0,L|263:214,1,160,2|2,0:0|0:0,0:0:0:0:
268,340,37153,2,0,P|192:340|144:324,1,120,2|2,0:0|0:0,0:0:0:0:
104,252,37986,6,0,P|63:252|8:260,2,79.9999999999999,2|2|2,0:0|0:0|0:0,0:0:0:0:
228,208,39153,2,0,P|300:260|408:228,1,200,8|8,0:0|0:0,0:0:0:0:
432,152,40320,1,8,0:0:0:0:
392,76,40653,6,0,P|328:76|216:84,1,160,4|2,0:0|0:0,0:0:0:0:
164,140,41653,1,8,0:0:0:0:
220,208,41986,2,0,B|236:240|236:240|216:280|248:344,2,120,2|2|8,0:0|0:0|0:0,0:0:0:0:
164,140,43320,6,0,P|88:148|36:216,1,160,2|2,0:0|0:0,0:0:0:0:
96,276,44320,1,8,0:0:0:0:
160,336,44653,2,0,P|225:326|284:324,1,120,2|2,0:0|0:0,0:0:0:0:
364,348,45486,1,8,0:0:0:0:
460,260,45986,6,0,B|444:216|444:216|464:160|440:84,1,160,4|2,0:0|0:0,0:0:0:0:
368,64,46986,1,8,0:0:0:0:
300,120,47320,2,0,P|244:128|176:128,1,120,2|2,0:0|0:0,0:0:0:0:
104,84,48153,1,8,0:0:0:0:
60,208,48653,6,0,P|56:252|64:320,1,79.9999999999999,2|8,0:0|0:0,0:0:0:0:
136,332,49320,2,0,P|208:328|236:264,1,120,2|8,0:0|0:0,0:0:0:0:
172,176,50320,1,0,0:0:0:0:
248,132,50653,2,0,L|332:140,1,79.9999999999999,2|8,0:0|0:0,0:0:0:0:
400,92,51320,6,0,P|432:160|384:240,2,160,4|2|2,0:0|0:0|0:0,0:0:0:0:
320,56,52986,1,8,0:0:0:0:
252,112,53320,2,0,P|248:152|252:196,1,79.9999999999999,2|8,0:0|0:0,0:0:0:0:
188,252,53986,6,0,P|120:264|52:208,2,160,2|2|2,0:0|0:0|0:0,0:0:0:0:
251,191,55653,1,8,0:0:0:0:
188,128,55986,2,0,L|104:136,1,79.9999999999999,2|8,0:0|0:0,0:0:0:0:
72,56,56653,6,0,L|204:44,1,120,4|2,0:0|0:0,0:0:0:0:
256,160,57653,2,0,B|268:224|252:272|252:272|284:320,1,160,4|8,0:0|0:0,0:0:0:0:
360,344,58653,2,0,P|403:332|440:328,1,79.9999999999999,2|8,0:0|0:0,0:0:0:0:
460,244,59320,6,0,B|472:204|472:204|448:116,1,120,8|2,0:0|0:0,0:0:0:0:
336,68,60320,2,0,B|280:72|240:104|240:104|176:88,1,160,8|8,0:0|0:0,0:0:0:0:
108,44,61320,2,0,P|100:96|112:148,1,79.9999999999999,2|8,0:0|0:0,0:0:0:0:
96,212,61986,6,0,P|56:220|8:220,2,79.9999999999999,8|8|8,0:0|0:0|0:0,0:0:0:0:
176,176,62986,1,8,0:0:0:0:
256,212,63320,2,0,P|224:272|272:368,1,160,8|8,0:0|0:0,0:0:0:0:
340,364,64320,1,8,0:0:0:0:
380,284,64653,6,0,P|424:280|476:268,1,79.9999999999999,8|8,0:0|0:0,0:0:0:0:
408,200,65320,2,0,B|396:168|396:168|416:132|388:60,1,120,8|8,0:0|0:0,0:0:0:0:
264,68,66320,2,0,P|225:71|172:80,1,79.9999999999999
108,124,66986,1,8,0:0:0:0:
48,60,67320,6,0,P|24:112|100:212,1,160,4|2,0:0|0:0,0:0:0:0:
144,240,68320,1,8,0:0:0:0:
204,176,68653,2,0,P|244:178|296:188,1,79.9999999999999,2|8,0:0|0:0,0:0:0:0:
352,128,69320,2,0,P|386:150|425:184,1,79.9999999999999,2|8,0:0|0:0,0:0:0:0:
456,252,69986,6,0,P|376:248|336:320,1,160,2|2,0:0|0:0,0:0:0:0:
252,340,70986,1,8,0:0:0:0:
188,280,71320,2,0,L|196:144,2,120,2|2|8,0:0|0:0|0:0,0:0:0:0:
252,340,72653,6,0,P|176:324|88:344,1,160,2|2,0:0|0:0,0:0:0:0:
36,276,73653,1,8,0:0:0:0:
92,208,73986,2,0,P|134:214|188:204,1,79.9999999999999,2|8,0:0|0:0,0:0:0:0:
216,132,74653,2,0,L|212:48,1,79.9999999999999,2|8,0:0|0:0,0:0:0:0:
300,32,75320,6,0,L|308:168,1,120,2|8,0:0|0:0,0:0:0:0:
364,220,76153,2,0,P|328:234|280:244,1,79.9999999999999,0|2,0:0|0:0,0:0:0:0:
160,268,76986,2,0,P|168:223|172:180,1,79.9999999999999,8|2,0:0|0:0,0:0:0:0:
104,132,77653,5,8,0:0:0:0:
184,92,77986,2,0,P|223:96|268:104,1,79.9999999999999,4|8,0:0|0:0,0:0:0:0:
328,164,78653,2,0,P|312:104|344:36,2,120,2|2|8,0:0|0:0|0:0,0:0:0:0:
388,228,79986,2,0,L|376:308,1,79.9999999999999,8|8,0:0|0:0,0:0:0:0:
296,344,80653,6,0,B|252:320|252:320|132:336,1,160,4|2,0:0|0:0,0:0:0:0:
88,264,81653,1,8,0:0:0:0:
140,192,81986,2,0,L|232:200,1,79.9999999999999,4|8,0:0|0:0,0:0:0:0:
296,156,82653,2,0,P|303:119|308:64,1,79.9999999999999,2|8,0:0|0:0,0:0:0:0:
224,56,83320,6,0,L|132:68,1,79.9999999999999,4|8,0:0|0:0,0:0:0:0:
56,52,83986,2,0,P|54:98|60:148,1,79.9999999999999,8|8,0:0|0:0,0:0:0:0:
92,212,84653,1,8,0:0:0:0:
236,312,85320,2,0,L|320:304,1,79.9999999999999,0|8,0:0|0:0,0:0:0:0:
392,348,85986,6,0,P|348:232|400:120,1,240,4|0,0:0|3:0,0:0:0:0:
460,76,87320,2,0,B|324:112|324:24|184:60,1,280,4|0,0:0|0:0,0:0:0:0:
256,192,88986,12,0,91820,0:0:0:0:
