osu file format v12

[General]
AudioFilename: 206-gin-no-ishi-kin-no-tsubasa.mp3
AudioLeadIn: 0
PreviewTime: 30891
Countdown: 0
SampleSet: Normal
StackLeniency: 0.7
Mode: 0
LetterboxInBreaks: 1
WidescreenStoryboard: 0

[Editor]
Bookmarks: 17413,59152,104369,146108,173934,187847,215673,259152
DistanceSpacing: 1
BeatDivisor: 4
GridSize: 8
TimelineZoom: 1.9

[Metadata]
Title:Gin no Ishi Kin no Tsubasa
TitleUnicode:银の意志 金の翼
Artist:Yamawaki Hiroko
ArtistUnicode:山胁宏子
Creator:ignorethis
Version:Hard
Source:Falcom Sound Team J.D.K.
Tags:Sora no Kiseki SC ex boy tsukamaete tsuka breeze xierbaliti Alace Alazy
BeatmapID:53114
BeatmapSetID:14531

[Difficulty]
HPDrainRate:2
CircleSize:4
OverallDifficulty:7
ApproachRate:7
SliderMultiplier:1.6
SliderTickRate:1

[Events]
//Background and Video events
0,0,"sc.jpg",0,0
//Break Periods
2,174146,186959
2,259364,265220
//Storyboard Layer 0 (Background)
//Storyboard Layer 1 (Fail)
//Storyboard Layer 2 (Pass)
//Storyboard Layer 3 (Foreground)
//Storyboard Sound Samples
//Background Colour Transformations
3,100,0,0,0

[TimingPoints]
3512,434.782608695652,4,2,1,70,1,0
59164,-100,4,2,1,70,0,1
59598,-100,4,1,0,70,0,1
73077,-100,4,2,1,70,0,0
74707,-100,4,1,0,70,0,0
75142,-100,4,2,0,70,0,0
75903,-100,4,2,1,70,0,0
78185,-100,4,1,0,70,0,0
78620,-100,4,2,0,70,0,0
79381,-100,4,2,1,70,0,0
80359,-100,4,2,0,70,0,0
80794,-100,4,2,1,70,0,0
81229,-100,4,2,0,70,0,0
81664,-100,4,2,1,70,0,0
82968,-100,4,2,1,70,0,0
84490,-100,4,2,1,70,0,0
85033,-100,4,2,0,70,0,0
85685,-100,4,2,1,70,0,0
86338,-100,4,2,1,70,0,0
89055,-100,4,2,0,70,0,0
89816,-100,4,2,1,70,0,0
92533,-100,4,2,0,70,0,0
93838,-100,4,2,1,70,0,0
94272,-100,4,2,0,70,0,0
94707,-100,4,2,1,70,0,0
95142,-100,4,2,0,70,0,0
95794,-100,4,2,1,70,0,0
104164,-100,4,1,1,70,0,0
104598,-100,4,2,1,80,0,0
106664,-100,4,2,1,70,0,0
106935,-100,4,2,1,80,0,0
107751,-100,4,1,1,70,0,0
107968,-100,4,2,1,80,0,0
108675,-100,4,1,1,70,0,0
108838,-100,4,2,1,80,0,0
110196,-100,4,1,1,70,0,0
110414,-100,4,2,1,80,0,0
111012,-100,4,1,1,70,0,0
111283,-100,4,2,1,80,0,0
111881,-100,4,1,1,70,0,0
112153,-100,4,2,1,80,0,0
113022,-100,4,1,1,85,0,0
114925,-100,4,2,1,80,0,0
117261,-100,4,1,1,70,0,0
117479,-100,4,2,1,80,0,0
117968,-100,4,1,1,60,0,0
118131,-100,4,1,1,60,0,0
118240,-100,4,2,1,60,0,0
119001,-100,4,1,1,70,0,0
119109,-100,4,2,1,50,0,0
120740,-100,4,1,1,70,0,0
120848,-100,4,1,1,70,0,0
121011,-100,4,2,1,50,0,0
121664,-100,4,1,1,70,0,0
121881,-100,4,2,1,50,0,0
122588,-100,4,1,1,70,0,0
122751,-100,4,2,1,50,0,0
123403,-100,4,1,1,60,0,0
123620,-100,4,2,1,50,0,0
124164,-100,4,1,1,60,0,0
124490,-100,4,2,1,50,0,0
126011,-100,4,1,1,60,0,0
126229,-100,4,2,1,50,0,0
126827,-100,4,1,1,60,0,0
126935,-100,4,1,1,60,0,0
127044,-100,4,2,1,50,0,0
127751,-100,4,1,1,60,0,0
127968,-100,4,2,1,50,0,0
128620,-100,4,1,1,60,0,0
128838,-100,4,2,1,50,0,0
129544,-100,4,1,1,60,0,0
129653,-100,4,2,1,50,0,0
130359,-100,4,1,1,60,0,0
130577,-100,4,2,1,50,0,0
131011,-100,4,1,1,60,0,0
131175,-100,4,2,1,50,0,0
131283,-100,4,1,1,60,0,0
131446,-100,4,2,1,50,0,0
134707,-100,4,1,1,60,0,0
134925,-100,4,2,1,50,0,0
135468,-100,4,1,1,60,0,0
135903,-100,4,2,1,50,0,0
136338,-100,4,1,1,60,0,0
136664,-100,4,2,1,50,0,0
137316,-100,4,1,1,60,0,0
137642,-100,4,2,1,50,0,0
138077,-100,4,1,1,60,0,0
138403,-100,4,2,1,50,0,0
139055,-100,4,1,1,60,0,0
139272,-100,4,2,1,50,0,0
139925,-100,4,1,1,60,0,0
140142,-100,4,2,1,50,0,0
140794,-100,4,1,1,60,0,0
141120,-100,4,2,1,60,0,0
141555,-100,4,1,1,70,0,0
141990,-100,4,2,1,60,0,0
142425,-100,4,1,1,50,0,0
142859,-100,4,2,1,60,0,0
143403,-100,4,1,1,60,0,0
143620,-100,4,2,1,60,0,0
144272,-100,4,1,1,60,0,0
144490,-100,4,2,1,60,0,0
144979,-100,4,2,1,30,0,0
145088,-100,4,1,1,60,0,0
145196,-100,4,2,1,50,0,0
146010,-100,4,1,1,60,0,0
146338,-100,4,2,1,60,0,0
147642,-200,4,2,1,60,0,0
148946,-100,4,2,1,60,0,0
151881,-100,4,2,1,36,0,0
152207,-100,4,2,1,60,0,0
162425,-100,4,2,1,35,0,0
162642,-100,4,2,1,60,0,0
165794,-100,4,2,1,36,0,0
166120,-100,4,2,1,60,0,0
187859,-200,4,2,1,30,0,0
190467,-200,4,2,1,55,0,0
190901,-200,4,2,1,55,0,0
201771,-100,4,2,1,60,0,0
231118,-100,4,1,1,70,0,0
238184,-100,4,2,1,60,0,0
238401,-100,4,1,1,70,0,0
245140,-100,4,2,1,60,0,0
245357,-100,4,1,1,70,0,0
252097,-100,4,2,1,60,0,0
252314,-100,4,1,1,70,0,0
259053,-100,4,2,1,60,0,0
264379,-100,4,1,2,70,0,0
275792,-100,4,1,2,70,0,0
313618,-100,4,1,2,45,0,0
314814,-100,4,2,1,5,0,0

[Colours]
Combo1 : 255,255,255
Combo2 : 70,108,160
Combo3 : 100,100,100

[HitObjects]
48,80,17425,6,0,B|128:48|128:128|224:80,1,160,0|10,0:0|0:0,0:0:0:0:
272,48,18077,1,0,0:0:0:0:
304,64,18185,1,0,0:0:0:0:
336,80,18294,1,0,0:0:0:0:
368,96,18403,1,0,0:0:0:0:
400,112,18511,1,0,0:0:0:0:
448,192,18729,2,0,B|336:192,1,80,10|0,0:0|0:0,0:0:0:0:
272,192,19164,6,0,B|192:176|224:208|128:192,2,120,0|2|0,0:0|0:0|0:0,0:0:0:0:
256,272,20033,2,0,B|336:288|304:256|400:272,2,120,0|2|0,0:0|0:0|0:0,0:0:0:0:
192,320,20903,6,0,B|96:368|32:272,1,160,0|10,0:0|0:0,0:0:0:0:
96,224,21555,2,0,B|96:192|112:160,4,40,0|2|0|2|0,0:0|0:0|0:0|0:0|0:0,0:0:0:0:
16,208,22207,2,0,B|16:144|48:112,1,80,10|0,0:0|0:0,0:0:0:0:
64,64,22642,6,0,B|144:32|224:64,1,160,0|10,0:0|0:0,0:0:0:0:
256,144,23294,1,0,0:0:0:0:
256,144,23403,1,2,0:0:0:0:
256,144,23511,1,0,0:0:0:0:
336,128,23729,2,0,B|352:128|384:144,2,40,0|2|8,0:0|0:0|0:0,0:0:0:0:
320,208,24164,1,2,0:0:0:0:
400,224,24381,6,0,B|464:320|352:352,1,160,4|8,0:0|0:0,0:0:0:0:
288,320,25033,1,0,0:0:0:0:
288,320,25142,1,2,0:0:0:0:
288,320,25251,1,0,0:0:0:0:
208,288,25468,2,0,B|160:272|112:304,1,80,2|8,0:0|0:0,0:0:0:0:
64,336,25903,1,0,0:0:0:0:
64,336,26120,2,2,B|32:256|64:176,1,160,2|10,0:0|0:0,0:0:0:0:
96,96,26772,1,2,0:0:0:0:
160,48,26990,2,0,B|224:32|288:48,2,120,0|2|0,0:0|0:0|0:0,0:0:0:0:
176,128,27859,6,0,B|256:112|368:144,1,160,0|10,0:0|0:0,0:0:0:0:
384,192,28511,1,0,0:0:0:0:
448,256,28729,2,0,B|368:288|272:256,1,160,0|10,0:0|0:0,0:0:0:0:
256,336,29381,1,0,0:0:0:0:
256,336,29490,1,2,0:0:0:0:
256,336,29598,2,0,B|176:304|96:336,1,160,0|10,0:0|0:0,0:0:0:0:
32,288,30251,1,0,0:0:0:0:
112,240,30468,2,0,B|112:176,3,40,0|2|0|0,0:0|0:0|0:0|0:0,0:0:0:0:
112,176,30903,2,0,B|112:112,3,40,10|0|0|2,0:0|0:0|0:0|0:0,0:0:0:0:
112,112,31338,6,0,B|176:32|272:96,1,160,4|2,0:0|0:0,0:0:0:0:
336,96,31990,1,0,0:0:0:0:
416,80,32207,2,0,B|464:176|384:240,1,160,0|2,0:0|0:0,0:0:0:0:
256,320,33077,2,0,B|192:304|176:336|112:320,2,120,0|2|0,0:0|0:0|0:0,0:0:0:0:
256,320,33946,2,0,B|320:304|336:336|400:320,2,120,0|2|0,0:0|0:0|0:0,0:0:0:0:
256,240,34816,6,0,B|192:192|237:103,1,120,0|2,0:0|0:0,0:0:0:0:
256,48,35359,1,0,0:0:0:0:
256,48,35468,1,2,0:0:0:0:
336,80,35685,2,0,B|448:80,1,80,0|2,0:0|0:0,0:0:0:0:
448,160,36120,1,0,0:0:0:0:
432,240,36338,2,2,B|352:352|208:288,1,240
144,256,37207,1,0,0:0:0:0:
64,224,37425,6,0,B|48:256|64:320,2,80,0|2|0,0:0|0:0|0:0,0:0:0:0:
48,144,38077,1,0,0:0:0:0:
48,144,38185,1,0,0:0:0:0:
48,144,38294,2,2,B|128:112|208:160,1,160
256,224,38946,1,0,0:0:0:0:
310,156,39164,2,2,B|384:112|464:144,1,160
464,224,39816,1,0,0:0:0:0:
464,224,39925,1,0,0:0:0:0:
464,224,40033,6,2,B|480:304|432:352,2,120
384,256,40903,2,2,B|352:208|384:112,2,120
352,336,41772,2,0,B|256:304|176:352,1,160,0|2,0:0|0:0,0:0:0:0:
112,320,42425,1,0,0:0:0:0:
64,256,42642,2,0,B|112:192|32:160|80:80,1,160,0|2,0:0|0:0,0:0:0:0:
256,144,43511,6,2,B|256:16,2,120
256,240,44381,2,2,B|256:368,2,120
176,288,45251,6,0,B|80:320|32:208,1,160,4|2,0:0|0:0,0:0:0:0:
43,230,45903,1,0,0:0:0:0:
128,208,46120,2,2,B|224:224|272:144,1,160
416,64,46990,6,0,B|464:112|448:176,2,120,0|2|0,0:0|0:0|0:0,0:0:0:0:
352,112,47859,2,0,B|304:160|240:128,2,120,0|2|0,0:0|0:0|0:0,0:0:0:0:
288,64,48729,2,0,B|240:16|160:48,1,120,0|2,0:0|0:0,0:0:0:0:
96,80,49272,1,0,0:0:0:0:
96,80,49381,1,2,0:0:0:0:
80,160,49598,2,0,B|64:256,1,80,0|2,0:0|0:0,0:0:0:0:
48,320,50033,1,0,0:0:0:0:
128,288,50251,2,2,B|192:256|224:336|298:280,1,160
352,256,50903,1,0,0:0:0:0:
352,336,51120,1,2,0:0:0:0:
432,288,51338,6,2,B|480:288|496:224,2,80
352,256,51990,1,0,0:0:0:0:
352,256,52098,1,0,0:0:0:0:
352,256,52207,2,2,B|288:176|192:208,1,160
128,224,52859,1,0,0:0:0:0:
128,224,53077,2,2,B|128:128|240:128,1,160
304,96,53729,2,0,B|288:64|304:32,2,40,0|0|2,0:0|0:0|0:0,0:0:0:0:
432,128,54272,1,2,0:0:0:0:
352,224,54598,1,2,0:0:0:0:
400,288,54816,1,2,0:0:0:0:
272,352,55142,1,2,0:0:0:0:
272,208,55468,1,2,0:0:0:0:
208,272,55685,6,0,B|128:304|64:224,1,160,0|2,0:0|0:0,0:0:0:0:
144,192,56338,1,0,0:0:0:0:
144,192,56555,2,2,B|240:208|304:128,1,160
304,48,57425,6,2,B|448:48,2,120
208,48,58294,2,0,B|112:48,3,80,0|2|0|2,0:0|0:0|0:0|0:0,0:0:0:0:
96,72,59164,6,0,B|16:120|48:232,1,160,4|8,0:0|0:0,0:0:0:0:
72,288,59816,1,0,0:0:0:0:
352,72,60251,1,0,0:0:0:0:
432,64,60468,1,8,0:0:0:0:
160,304,60903,1,0,0:0:0:0:
240,312,61120,1,0,0:0:0:0:
320,320,61338,1,8,0:0:0:0:
400,328,61555,1,0,0:0:0:0:
72,48,61990,2,0,B|168:56,1,80,0|8,0:0|0:0,0:0:0:0:
151,54,62316,1,0,0:0:0:0:
416,312,62642,6,0,B|496:264|464:152,1,160,4|8,0:0|0:0,0:0:0:0:
440,96,63294,1,0,0:0:0:0:
160,312,63729,1,0,0:0:0:0:
80,320,63946,1,8,0:0:0:0:
352,48,64381,2,0,B|320:144,1,80
416,152,64816,2,0,B|448:56,1,80,8|0,0:0|0:0,0:0:0:0:
264,336,65468,1,0,0:0:0:0:
184,329,65685,1,8,0:0:0:0:
184,329,65794,1,0,0:0:0:0:
96,312,66011,1,0,0:0:0:0:
96,312,66120,6,0,B|16:264|48:152,1,160,4|8,0:0|0:0,0:0:0:0:
72,96,66772,1,0,0:0:0:0:
464,272,67207,2,0,B|368:296,1,80,0|8,0:0|0:0,0:0:0:0:
160,80,67859,1,0,0:0:0:0:
240,72,68077,1,0,0:0:0:0:
320,64,68294,1,8,0:0:0:0:
400,56,68511,1,0,0:0:0:0:
72,336,68946,2,0,B|168:328,1,80,0|8,0:0|0:0,0:0:0:0:
151,329,69272,1,0,0:0:0:0:
416,72,69598,6,0,B|496:120|464:232,1,160,4|8,0:0|0:0,0:0:0:0:
440,288,70251,1,0,0:0:0:0:
160,72,70685,1,0,0:0:0:0:
80,64,70903,1,8,0:0:0:0:
352,320,71338,5,8,0:0:0:0:
448,208,71664,1,8,0:0:0:0:
360,96,71990,1,8,0:0:0:0:
296,168,72207,1,0,0:0:0:0:
288,176,72316,1,0,0:0:0:0:
280,184,72425,1,0,0:0:0:0:
272,192,72533,1,0,0:0:0:0:
264,200,72642,1,0,0:0:0:0:
256,208,72751,1,0,0:0:0:0:
248,216,72859,1,0,0:0:0:0:
240,224,72968,1,0,0:0:0:0:
231,234,73077,6,0,B|95:242,1,120,4|0,0:0|0:0,0:0:0:0:
80,208,73511,2,0,B|120:104,1,80,8|2,0:0|0:0,0:0:0:0:
152,48,73946,1,0,0:0:0:0:
152,48,74055,1,2,0:0:0:0:
400,80,74272,1,0,0:0:0:0:
400,80,74381,2,0,B|296:120,1,80,10|0,0:0|0:0,0:0:0:0:
232,144,74816,1,0,0:0:0:0:
144,176,75033,1,0,0:0:0:0:
216,240,75251,1,8,0:0:0:0:
288,296,75468,2,0,B|336:336,3,40,2|8|0|8,0:0|0:0|0:0|0:0,0:0:0:0:
360,344,75903,5,2,0:0:0:0:
408,256,76120,1,8,0:0:0:0:
456,168,76338,1,0,0:0:0:0:
376,120,76555,2,0,B|272:56,1,120,4|0,0:0|0:0,0:0:0:0:
224,64,76990,2,0,B|200:160,1,80,8|2,0:0|0:0,0:0:0:0:
272,208,77425,1,0,0:0:0:0:
272,208,77533,1,2,0:0:0:0:
336,344,77751,1,0,0:0:0:0:
336,344,77859,2,0,B|360:248,1,80,8|2,0:0|0:0,0:0:0:0:
408,48,78294,5,0,0:0:0:0:
312,48,78511,1,0,0:0:0:0:
216,48,78729,1,8,0:0:0:0:
152,120,78946,1,2,0:0:0:0:
142,132,79055,1,8,0:0:0:0:
132,145,79164,1,0,0:0:0:0:
123,158,79272,1,8,0:0:0:0:
113,170,79381,2,0,B|86:286,1,80,2|8,0:0|0:0,0:0:0:0:
256,240,79816,1,2,0:0:0:0:
312,160,80033,6,0,B|416:160,1,80,8|2,0:0|0:0,0:0:0:0:
368,304,80468,2,0,B|264:304,1,80,8|2,0:0|0:0,0:0:0:0:
272,192,80903,2,0,B|376:192,1,80,8|2,0:0|0:0,0:0:0:0:
328,336,81338,2,0,B|224:336,1,80,8|2,0:0|0:0,0:0:0:0:
192,256,81772,1,0,0:0:0:0:
128,184,81990,1,2,0:0:0:0:
104,160,82098,1,0,0:0:0:0:
81,137,82207,1,8,0:0:0:0:
40,48,82425,1,2,0:0:0:0:
144,48,82642,2,0,B|264:48,1,80,0|2,0:0|0:0,0:0:0:0:
352,48,83077,1,8,0:0:0:0:
352,48,83511,6,0,B|472:120|400:240,1,200,4|0,0:0|0:0,0:0:0:0:
376,224,84164,2,0,B|320:312,1,80,2|0,0:0|0:0,0:0:0:0:
333,291,84598,1,2,0:0:0:0:
333,291,84816,1,8,0:0:0:0:
120,232,85251,1,2,0:0:0:0:
256,144,85577,1,2,0:0:0:0:
392,232,85903,1,2,0:0:0:0:
256,192,86120,1,0,0:0:0:0:
200,296,86338,5,0,0:0:0:0:
322,211,86555,1,8,0:0:0:0:
216,144,86772,1,0,0:0:0:0:
232,64,86990,2,0,B|264:0|360:40,1,120,4|0,0:0|0:0,0:0:0:0:
360,64,87425,2,0,B|408:160,1,80,8|2,0:0|0:0,0:0:0:0:
408,304,87859,2,0,B|376:240,1,40,0|2,0:0|0:0,0:0:0:0:
280,192,88185,2,0,B|312:256,1,40,0|10,0:0|0:0,0:0:0:0:
272,304,88511,1,2,0:0:0:0:
200,264,88729,1,8,0:0:0:0:
128,224,88946,1,8,0:0:0:0:
176,160,89164,1,8,0:0:0:0:
232,104,89381,2,0,B|240:48,3,40,2|8|0|8,0:0|0:0|0:0|0:0,0:0:0:0:
272,48,89816,5,2,0:0:0:0:
400,136,90033,1,8,0:0:0:0:
320,280,90251,1,2,0:0:0:0:
256,240,90468,2,0,B|168:232|144:328,1,120,4|0,0:0|0:0,0:0:0:0:
120,280,90903,2,0,B|72:184,1,80,8|2,0:0|0:0,0:0:0:0:
48,64,91338,2,0,B|120:64,1,40,0|8,0:0|0:0,0:0:0:0:
144,120,91664,2,0,B|208:120,1,40,0|10,0:0|0:0,0:0:0:0:
240,64,91990,1,2,0:0:0:0:
320,64,92207,1,8,0:0:0:0:
400,64,92425,1,8,0:0:0:0:
480,64,92642,1,8,0:0:0:0:
464,144,92859,2,0,B|480:216,4,40,2|8|0|8|0,0:0|0:0|0:0|0:0|0:0,0:0:0:0:
464,144,93511,5,4,0:0:0:0:
336,272,93729,1,2,0:0:0:0:
200,160,93946,2,0,B|96:160,1,80,4|2,0:0|0:0,0:0:0:0:
144,304,94381,2,0,B|248:304,1,80,8|2,0:0|0:0,0:0:0:0:
240,192,94816,2,0,B|136:192,1,80,8|2,0:0|0:0,0:0:0:0:
184,336,95251,2,0,B|288:336,1,80,8|2,0:0|0:0,0:0:0:0:
312,272,95685,5,0,0:0:0:0:
376,224,95903,2,0,B|432:216,2,40,2|0|8,0:0|0:0|0:0,0:0:0:0:
376,144,96338,1,2,0:0:0:0:
376,144,96555,1,8,0:0:0:0:
56,72,96990,2,0,B|64:160,1,80,8|2,0:0|0:0,0:0:0:0:
160,208,97425,2,0,B|232:224|272:136|320:192,1,160,4|8,0:0|0:0,0:0:0:0:
456,312,98077,2,0,B|448:224,1,80,2|0,0:0|0:0,0:0:0:0:
256,192,98403,12,0,100685,0:0:0:0:
256,192,100903,5,12,0:0:0:0:
96,112,104381,6,0,B|176:80|256:80,1,160,4|8,0:0|0:0,0:0:0:0:
336,80,105033,1,0,0:0:0:0:
416,80,105251,2,0,B|512:80,2,80,0|0|8,0:0|0:0|0:0,0:0:0:0:
336,80,105903,1,0,0:0:0:0:
336,160,106120,6,0,B|320:224|256:256,1,120
224,256,106555,1,8,0:0:0:0:
144,272,106772,1,0,0:0:0:0:
112,272,106881,1,8,0:0:0:0:
80,256,106990,2,0,B|16:192|16:96,1,160,0|8,0:0|0:0,0:0:0:0:
48,32,107642,1,0,0:0:0:0:
128,48,107859,1,0,0:0:0:0:
128,160,108185,1,0,0:0:0:0:
160,160,108294,2,0,B|224:144|256:96,1,80,8|0,0:0|0:0,0:0:0:0:
230,124,108620,1,0,0:0:0:0:
230,124,108729,1,0,0:0:0:0:
272,48,108946,5,0,0:0:0:0:
352,64,109164,1,8,0:0:0:0:
432,80,109381,2,0,B|496:160|480:240,1,160
464,304,110033,1,8,0:0:0:0:
384,336,110251,1,0,0:0:0:0:
352,352,110359,1,0,0:0:0:0:
320,352,110468,2,0,C|284:336|224:352,2,80,0|0|8,0:0|0:0|0:0,0:0:0:0:
336,272,111120,5,0,0:0:0:0:
336,272,111229,1,0,0:0:0:0:
336,272,111338,2,0,B|320:192|224:160,1,160,0|8,0:0|0:0,0:0:0:0:
192,240,111990,1,0,0:0:0:0:
192,240,112098,1,0,0:0:0:0:
192,240,112207,2,0,B|144:320|48:288,1,160,0|8,0:0|0:0,0:0:0:0:
32,208,112859,5,0,0:0:0:0:
48,176,112968,1,0,0:0:0:0:
64,144,113077,2,0,B|96:96|48:16,2,120
128,192,113946,2,0,B|96:240|144:320,2,120
141,112,114816,6,0,B|208:60|303:48,1,160,0|8,0:0|0:0,0:0:0:0:
366,43,115468,1,0,0:0:0:0:
366,43,115577,1,0,0:0:0:0:
366,43,115685,1,0,0:0:0:0:
424,98,115903,2,0,B|468:76|539:83,2,80,0|8|0,0:0|0:0|0:0,0:0:0:0:
365,152,116555,2,0,B|321:174|250:167,2,80,0|0|8,0:0|0:0|0:0,0:0:0:0:
420,209,117207,1,0,0:0:0:0:
420,209,117316,1,4,0:0:0:0:
420,209,117425,2,0,B|400:288|304:320,1,160,0|4,0:0|0:0,0:0:0:0:
232,336,118077,5,0,0:0:0:0:
232,336,118185,1,0,0:0:0:0:
232,336,118294,2,0,B|136:336|96:248,1,160,4|8,0:0|0:0,0:0:0:0:
64,184,118946,1,0,0:0:0:0:
64,184,119055,1,0,0:0:0:0:
64,184,119164,2,0,B|88:104|184:80,1,160,0|8,0:0|0:0,0:0:0:0:
256,64,119816,1,0,0:0:0:0:
336,72,120033,6,0,B|400:88|424:168,1,120
440,184,120468,1,8,0:0:0:0:
432,264,120685,1,0,0:0:0:0:
432,264,120794,1,0,0:0:0:0:
432,264,120903,2,0,B|376:304|304:304,2,120
368,216,121772,6,0,B|296:168|224:168,1,120
216,176,122207,1,8,0:0:0:0:
144,216,122425,2,0,B|96:192,2,40
184,288,122859,1,0,0:0:0:0:
256,320,123077,1,8,0:0:0:0:
336,328,123294,1,0,0:0:0:0:
416,304,123511,2,0,B|480:224|464:144,1,160,0|8,0:0|0:0,0:0:0:0:
184,64,124381,6,0,B|144:32|96:32,2,80,0|0|8,0:0|0:0|0:0,0:0:0:0:
248,112,125033,2,0,B|296:88,2,40,0|8|0,0:0|0:0|0:0,0:0:0:0:
176,152,125468,1,0,0:0:0:0:
248,192,125685,2,0,B|280:224|336:224,2,80,8|0|0,0:0|0:0|0:0,0:0:0:0:
176,232,126338,1,0,0:0:0:0:
104,192,126555,1,8,0:0:0:0:
104,112,126772,5,0,0:0:0:0:
104,112,126881,1,0,0:0:0:0:
104,112,126990,2,0,B|176:64|264:72,1,160,0|8,0:0|0:0,0:0:0:0:
320,120,127642,1,0,0:0:0:0:
288,192,127859,2,0,B|216:240|128:232,1,160,0|8,0:0|0:0,0:0:0:0:
72,184,128511,1,0,0:0:0:0:
64,264,128729,6,0,B|96:344|208:352,1,160,0|8,0:0|0:0,0:0:0:0:
272,344,129381,1,0,0:0:0:0:
312,336,129490,1,0,0:0:0:0:
336,304,129598,2,0,B|384:288|392:232,2,80,0|0|8,0:0|0:0|0:0,0:0:0:0:
264,264,130251,1,0,0:0:0:0:
192,224,130468,2,0,B|112:184|128:88,1,160,0|8,0:0|0:0,0:0:0:0:
184,32,131120,1,0,0:0:0:0:
184,32,131229,1,8,0:0:0:0:
184,32,131338,5,0,0:0:0:0:
296,64,131555,1,0,0:0:0:0:
200,136,131772,1,8,0:0:0:0:
312,184,131990,1,0,0:0:0:0:
224,264,132207,6,0,B|152:304|56:304,2,160,4|8|0,0:0|0:0|0:0,0:0:0:0:
288,312,133294,1,0,0:0:0:0:
368,312,133511,1,8,0:0:0:0:
440,280,133729,1,0,0:0:0:0:
488,216,133946,2,0,B|488:120|440:64,1,160,0|8,0:0|0:0,0:0:0:0:
256,48,134816,5,4,0:0:0:0:
96,280,135251,1,4,0:0:0:0:
416,280,135685,2,0,B|448:208|408:120,2,160,0|8|0,0:0|0:0|0:0,0:0:0:0:
336,280,136772,5,0,0:0:0:0:
256,280,136990,1,8,0:0:0:0:
176,280,137207,1,0,0:0:0:0:
96,280,137425,2,0,B|64:208|104:120,2,160,0|8|0,0:0|0:0|0:0,0:0:0:0:
136,352,138511,5,0,0:0:0:0:
176,280,138729,2,0,B|152:224|176:184,1,80,4|0,0:0|0:0,0:0:0:0:
216,136,139164,2,0,B|256:184|256:216,1,80,4|0,0:0|0:0,0:0:0:0:
296,272,139598,2,0,B|352:248|360:208,1,80,8|0,0:0|0:0,0:0:0:0:
368,144,140033,2,0,B|416:160|440:192,1,80,4|0,0:0|0:0,0:0:0:0:
424,264,140468,2,0,B|464:296|456:344,2,80,8|0|0,0:0|0:0|0:0,0:0:0:0:
256,40,141338,5,8,0:0:0:0:
40,192,141772,1,0,0:0:0:0:
256,344,142207,1,6,0:0:0:0:
472,192,142642,2,0,B|392:168|320:208|280:184,1,160,0|8,0:0|0:0,0:0:0:0:
224,136,143294,1,0,0:0:0:0:
224,248,143511,1,0,0:0:0:0:
136,192,143729,5,0,0:0:0:0:
56,192,143946,2,0,B|56:144|24:120,2,80,8|0|0,0:0|0:0|0:0,0:0:0:0:
96,264,144598,1,0,0:0:0:0:
107,284,144707,1,0,0:0:0:0:
122,302,144816,1,8,0:0:0:0:
141,316,144925,1,0,0:0:0:0:
162,326,145033,1,8,0:0:0:0:
185,329,145142,1,0,0:0:0:0:
209,330,145251,1,4,0:0:0:0:
296,328,145468,5,0,0:0:0:0:
368,296,145685,1,6,0:0:0:0:
304,240,145903,1,0,0:0:0:0:
376,208,146120,1,4,0:0:0:0:
416,48,146555,6,0,B|320:48,1,80
96,48,147207,2,0,B|176:48,1,80
256,48,147642,6,0,B|256:176,1,120,0|8,0:0|0:0,0:0:0:0:
256,208,148511,1,2,0:0:0:0:
256,256,148729,1,8,0:0:0:0:
256,272,148838,1,8,0:0:0:0:
256,288,148946,5,0,0:0:0:0:
216,352,149164,1,8,0:0:0:0:
296,352,149381,1,0,0:0:0:0:
352,288,149598,6,0,B|464:288|464:160,1,160,0|8,0:0|0:0,0:0:0:0:
384,192,150251,2,0,B|384:96|272:96,1,160
256,176,150903,1,8,0:0:0:0:
230,96,151120,2,0,B|128:96|128:192,1,160
64,240,151772,1,8,0:0:0:0:
112,304,151990,1,8,0:0:0:0:
128,320,152098,1,8,0:0:0:0:
144,336,152207,1,8,0:0:0:0:
217,368,152425,5,0,0:0:0:0:
297,368,152642,1,8,0:0:0:0:
256,304,152859,1,0,0:0:0:0:
219,232,153077,2,0,B|171:280|61:184|171:88|219:136,1,240,4|0,0:0|0:0,0:0:0:0:
297,135,153946,2,0,B|342:89|454:185|342:281|294:233,1,240
224,192,154816,5,0,0:0:0:0:
16,312,155142,1,2,0:0:0:0:
16,72,155468,1,0,0:0:0:0:
128,192,155685,5,0,0:0:0:0:
448,192,156120,1,2,0:0:0:0:
176,128,156555,6,0,B|287:47|400:128,1,240
400,256,157425,2,0,B|289:337|176:256,1,240
32,352,158294,5,2,0:0:0:0:
32,32,158729,1,2,0:0:0:0:
480,32,159164,1,2,0:0:0:0:
480,352,159598,1,2,0:0:0:0:
256,192,160033,5,4,0:0:0:0:
416,192,160468,1,8,0:0:0:0:
336,160,160685,2,0,B|256:128|176:160,1,160
112,192,161338,1,8,0:0:0:0:
176,240,161555,2,0,B|256:272|336:240,2,160,0|0|8,0:0|0:0|0:0,0:0:0:0:
176,240,162533,1,8,0:0:0:0:
176,240,162642,1,8,0:0:0:0:
112,192,162859,5,0,0:0:0:0:
40,152,163077,1,8,0:0:0:0:
40,232,163294,1,0,0:0:0:0:
112,192,163511,6,0,B|129:139|222:139|240:192,1,160,0|8,0:0|0:0,0:0:0:0:
176,240,164164,2,0,B|193:291|286:291|303:238,1,160
240,192,164816,1,8,0:0:0:0:
176,144,165033,2,0,B|192:91|285:91|303:143,1,160
368,192,165685,1,8,0:0:0:0:
448,192,165903,1,8,0:0:0:0:
464,192,166011,1,8,0:0:0:0:
480,192,166120,1,8,0:0:0:0:
256,352,166555,5,8,0:0:0:0:
256,272,166772,1,0,0:0:0:0:
216,200,166990,2,0,B|168:248|58:152|168:56|216:104,1,240,4|0,0:0|0:0,0:0:0:0:
296,104,167859,2,0,B|342:57|452:153|342:249|294:201,1,240
217,201,168729,2,0,B|153:169|89:201,2,120
176,272,169598,2,0,B|256:320|336:272,1,160,0|2,0:0|0:0,0:0:0:0:
480,208,170468,2,0,B|480:112|320:111|320:208,1,240
256,192,171338,12,4,173946,0:0:0:0:
327,300,187859,6,0,P|117:284|149:69,1,480
190,52,190685,1,0,0:0:0:0:
240,49,190903,1,8,0:0:0:0:
290,66,191120,1,0,0:0:0:0:
334,99,191338,2,0,P|366:247|315:309,1,240,0|8,0:0|0:0,0:0:0:0:
274,337,192859,1,2,0:0:0:0:
258,337,192968,1,2,0:0:0:0:
242,337,193077,6,2,B|178:337|146:257,1,120,2|0,0:0|0:0,0:0:0:0:
87,215,193946,1,0,0:0:0:0:
48,144,194381,1,8,0:0:0:0:
128,144,194816,1,4,0:0:0:0:
80,80,195251,2,0,B|144:48|208:80,1,120,8|0,0:0|0:0,0:0:0:0:
240,80,196120,1,8,0:0:0:0:
288,80,196338,2,0,B|352:96|432:80,1,120,0|8,0:0|0:0,0:0:0:0:
432,160,197425,6,0,B|464:224|432:288,1,120
400,304,198294,2,0,B|352:336|304:304,1,80,0|8,0:0|0:0,0:0:0:0:
288,304,198946,2,0,B|128:304,1,120,0|8,0:0|0:0,0:0:0:0:
128,288,199816,1,2,0:0:0:0:
128,272,199925,1,2,0:0:0:0:
128,256,200033,2,2,B|128:96,1,120,2|0,0:0|0:0,0:0:0:0:
192,160,200903,2,0,B|80:160,2,80,0|8|4,0:0|0:0|0:0,0:0:0:0:
256,96,202098,5,0,0:0:0:0:
368,96,202425,1,2,0:0:0:0:
400,96,202533,1,2,0:0:0:0:
432,96,202642,1,2,0:0:0:0:
464,208,202968,2,0,B|464:288|400:336,1,120,0|2,0:0|0:0,0:0:0:0:
384,336,203403,1,2,0:0:0:0:
352,320,203511,1,2,0:0:0:0:
240,320,203838,2,0,B|176:368|96:320,1,120,0|2,0:0|0:0,0:0:0:0:
96,320,204272,1,2,0:0:0:0:
80,288,204381,1,2,0:0:0:0:
80,176,204707,2,0,B|96:112|176:80,1,120,0|2,0:0|0:0,0:0:0:0:
192,64,205142,1,2,0:0:0:0:
224,80,205251,6,0,B|416:80,1,160,4|0,0:0|0:0,0:0:0:0:
416,160,205903,2,0,B|224:160,1,160,4|0,0:0|0:0,0:0:0:0:
224,240,206555,2,0,B|416:240,1,160,4|0,0:0|0:0,0:0:0:0:
416,320,207207,2,0,B|304:320,1,80
256,320,207642,2,0,B|160:320,1,80
96,352,208077,2,0,B|96:256,1,80
96,192,208511,2,0,B|96:80,1,80,0|4,0:0|0:0,0:0:0:0:
176,80,208946,5,0,0:0:0:0:
208,64,209055,1,0,0:0:0:0:
240,80,209164,1,0,0:0:0:0:
320,80,209381,1,0,0:0:0:0:
352,112,209490,1,0,0:0:0:0:
384,80,209598,1,0,0:0:0:0:
432,144,209816,1,0,0:0:0:0:
464,176,209925,1,0,0:0:0:0:
432,208,210033,5,0,0:0:0:0:
272,208,210468,1,0,0:0:0:0:
112,208,210903,1,0,0:0:0:0:
160,272,211120,5,0,0:0:0:0:
192,304,211229,1,0,0:0:0:0:
224,272,211338,1,0,0:0:0:0:
272,208,211555,1,0,0:0:0:0:
304,176,211664,1,0,0:0:0:0:
272,144,211772,1,0,0:0:0:0:
192,144,211990,1,0,0:0:0:0:
160,176,212098,1,0,0:0:0:0:
128,144,212207,6,0,B|32:144|32:32,1,160,4|0,0:0|0:0,0:0:0:0:
112,48,212859,1,0,0:0:0:0:
192,48,213077,6,0,B|368:48,1,160,4|0,0:0|0:0,0:0:0:0:
480,96,213729,1,0,0:0:0:0:
352,144,213946,2,0,B|176:144,1,160,4|0,0:0|0:0,0:0:0:0:
64,192,214598,1,0,0:0:0:0:
160,272,214816,1,0,0:0:0:0:
256,352,215033,1,0,0:0:0:0:
352,272,215251,1,0,0:0:0:0:
256,192,215468,1,0,0:0:0:0:
160,272,215685,6,0,B|32:208|80:48,2,240,4|0|0,0:0|0:0|0:0,0:0:0:0:
352,112,217425,2,0,B|480:176|432:336,2,240
256,352,219164,2,0,B|166:214|368:192|256:48,1,320
192,48,220251,1,0,0:0:0:0:
144,112,220468,1,0,0:0:0:0:
160,192,220685,1,0,0:0:0:0:
128,272,220903,2,0,B|256:224|256:320|384:272,1,240
432,256,221772,2,0,C|480:320,2,80
384,192,222425,1,0,0:0:0:0:
416,112,222642,6,0,B|336:80|272:192,1,160
240,240,223294,2,0,B|192:320|80:272,1,160
24,248,223946,2,0,C|24:152,1,80
64,96,224381,2,0,B|116:58|162:137|228:90,1,160
416,80,225251,1,0,0:0:0:0:
464,288,225685,1,0,0:0:0:0:
256,336,226120,6,0,B|112:352|16:224,1,240
256,192,227207,1,0,0:0:0:0:
256,192,227425,1,0,0:0:0:0:
256,192,227642,1,0,0:0:0:0:
256,192,227859,12,2,229598,0:0:0:0:
256,192,229707,12,4,230903,0:0:0:0:
48,320,231338,6,0,B|128:288|240:304,1,160
288,320,231990,2,0,B|368:352|448:320,1,160
480,256,232642,1,0,0:0:0:0:
448,184,232859,1,0,0:0:0:0:
384,144,233077,2,0,B|416:112|448:64,2,80
288,144,233729,1,0,0:0:0:0:
256,128,233838,1,0,0:0:0:0:
224,112,233946,2,0,B|176:112,1,40
155,101,234164,1,0,0:0:0:0:
80,80,234381,2,0,B|64:160,1,80
48,240,234816,6,0,B|128:272|208:224,1,160
256,288,235468,2,0,B|336:240|432:256,1,160
448,320,236120,1,0,0:0:0:0:
496,256,236338,1,0,0:0:0:0:
448,192,236555,2,0,B|424:151|416:112,2,80
352,192,237207,1,0,0:0:0:0:
320,176,237316,1,0,0:0:0:0:
288,160,237425,2,0,B|224:176,1,40
224,176,237642,2,0,B|178:192|128:176,1,80
64,160,238077,1,0,0:0:0:0:
48,240,238294,6,0,B|48:304|112:352|176:336,1,160,4|0,0:0|0:0,0:0:0:0:
240,336,238946,2,0,B|272:256,1,80
269,261,239598,1,0,0:0:0:0:
269,261,239707,1,0,0:0:0:0:
269,261,239816,1,0,0:0:0:0:
272,176,240033,2,0,B|336:176|416:144,2,120
240,96,240903,2,0,B|144:80|64:112,1,160
48,304,241772,6,0,B|176:336|288:272,1,240
287,198,242642,2,0,B|255:288|323:371,1,160
448,224,243511,6,0,B|464:160|448:96,2,120
434,249,244272,1,0,0:0:0:0:
413,266,244381,1,0,0:0:0:0:
381,276,244490,1,0,0:0:0:0:
352,283,244598,1,0,0:0:0:0:
256,304,244816,2,0,B|224:208,1,80
144,224,245251,6,0,B|176:128|272:128,1,160,4|0,0:0|0:0,0:0:0:0:
336,160,245903,2,0,B|432:176|480:96,1,160
416,48,246555,2,0,B|374:73|320:48,1,80
256,48,246990,2,0,B|216:33|160:32,2,80
256,48,247642,1,0,0:0:0:0:
256,80,247751,1,0,0:0:0:0:
255,112,247859,1,0,0:0:0:0:
254,145,247968,1,0,0:0:0:0:
256,176,248077,1,0,0:0:0:0:
256,256,248294,2,0,B|304:272|352:240,1,80
400,176,248729,6,0,B|432:256|384:336,1,160
124,329,249381,2,0,B|80:256|112:176,1,160
128,96,250033,1,0,0:0:0:0:
208,64,250251,1,0,0:0:0:0:
288,80,250468,2,0,B|352:96|432:64,2,120
272,112,251229,1,0,0:0:0:0:
255,149,251338,2,0,B|242:182|244:213,1,40
236,217,251555,2,0,B|187:206|128:224,1,80
80,224,251990,1,0,0:0:0:0:
48,304,252207,6,0,B|128:336|224:320,1,160,4|0,0:0|0:0,0:0:0:0:
288,304,252859,1,0,0:0:0:0:
368,256,253077,2,0,B|416:176|416:80,1,160
208,96,253946,2,0,B|147:105|64:96,2,120
304,96,254816,2,0,B|384:112|480:96,1,160
448,320,255685,6,0,B|368:288|272:304,1,160
208,320,256338,1,0,0:0:0:0:
128,304,256555,2,0,B|176:224|160:128,1,160
256,192,257425,12,4,259164,0:0:0:0:
151,196,266120,5,0,0:0:0:0:
262,260,266555,1,0,0:0:0:0:
96,164,267207,1,0,0:0:0:0:
151,196,267425,1,0,0:0:0:0:
108,79,267859,5,0,0:0:0:0:
216,144,268294,1,0,0:0:0:0:
274,175,268511,1,0,0:0:0:0:
274,175,268620,1,0,0:0:0:0:
274,175,268729,2,0,B|420:259,1,160
488,152,269598,6,0,B|424:80|336:128,1,160
280,104,270251,1,0,0:0:0:0:
280,104,270359,1,0,0:0:0:0:
280,104,270468,2,0,B|200:136|128:80,1,160
8,344,271338,5,4,0:0:0:0:
88,320,271555,1,0,0:0:0:0:
168,280,271772,1,0,0:0:0:0:
248,232,271990,1,0,0:0:0:0:
304,144,272207,1,0,0:0:0:0:
328,32,272425,5,0,0:0:0:0:
408,104,272642,1,0,0:0:0:0:
304,144,272859,1,0,0:0:0:0:
328,32,273077,2,0,B|232:40|184:120,1,160,4|0,0:0|0:0,0:0:0:0:
128,152,273729,1,0,0:0:0:0:
128,152,273838,1,0,0:0:0:0:
128,152,273946,1,0,0:0:0:0:
200,192,274164,1,0,0:0:0:0:
136,240,274381,1,0,0:0:0:0:
64,200,274598,1,0,0:0:0:0:
136,240,274816,5,0,0:0:0:0:
256,56,275142,1,0,0:0:0:0:
376,240,275468,1,0,0:0:0:0:
256,176,275685,1,0,0:0:0:0:
160,120,275903,5,0,0:0:0:0:
72,48,276120,1,0,0:0:0:0:
48,160,276338,1,0,0:0:0:0:
160,120,276555,2,0,B|240:88|320:144,1,160
384,96,277207,1,0,0:0:0:0:
384,96,277316,1,0,0:0:0:0:
384,96,277425,1,0,0:0:0:0:
456,136,277642,1,0,0:0:0:0:
384,176,277859,1,0,0:0:0:0:
456,216,278077,1,0,0:0:0:0:
384,256,278294,5,0,0:0:0:0:
256,80,278620,1,0,0:0:0:0:
128,256,278946,1,0,0:0:0:0:
256,192,279164,1,0,0:0:0:0:
440,88,279598,5,0,0:0:0:0:
368,128,279816,1,0,0:0:0:0:
328,192,280033,2,0,B|296:272|352:360,1,160,4|0,0:0|0:0,0:0:0:0:
264,352,280685,1,0,0:0:0:0:
240,280,280903,2,0,B|224:192|112:168,1,160
56,168,281555,1,0,0:0:0:0:
112,280,281772,5,0,0:0:0:0:
264,184,282098,1,0,0:0:0:0:
440,168,282425,1,0,0:0:0:0:
368,264,282642,2,0,B|280:256|208:320,1,160
112,144,283511,5,0,0:0:0:0:
280,240,283838,1,0,0:0:0:0:
416,104,284164,1,0,0:0:0:0:
336,88,284381,1,0,0:0:0:0:
336,88,284490,1,0,0:0:0:0:
336,88,284598,1,0,0:0:0:0:
256,80,284816,1,0,0:0:0:0:
176,96,285033,1,0,0:0:0:0:
112,144,285251,2,0,B|48:208|72:304,2,160
168,200,286338,5,0,0:0:0:0:
232,296,286555,1,0,0:0:0:0:
336,336,286772,1,0,0:0:0:0:
440,296,286990,2,0,B|488:224|456:128,1,160,4|0,0:0|0:0,0:0:0:0:
400,80,287642,1,0,0:0:0:0:
400,80,287751,1,0,0:0:0:0:
400,80,287859,1,0,0:0:0:0:
368,160,288077,1,0,0:0:0:0:
312,96,288294,1,0,0:0:0:0:
280,176,288511,1,0,0:0:0:0:
224,112,288729,5,0,0:0:0:0:
24,192,289055,1,0,0:0:0:0:
224,272,289381,1,0,0:0:0:0:
144,192,289598,1,0,0:0:0:0:
256,192,289816,5,0,0:0:0:0:
352,136,290033,1,0,0:0:0:0:
352,248,290251,1,0,0:0:0:0:
256,192,290468,2,0,B|80:192,1,160
120,104,291120,1,0,0:0:0:0:
120,104,291229,1,0,0:0:0:0:
120,104,291338,1,0,0:0:0:0:
192,56,291555,1,0,0:0:0:0:
264,104,291772,1,0,0:0:0:0:
336,56,291990,1,0,0:0:0:0:
432,120,292207,5,0,0:0:0:0:
312,256,292533,1,0,0:0:0:0:
136,296,292859,1,0,0:0:0:0:
136,296,293077,1,0,0:0:0:0:
96,224,293294,5,0,0:0:0:0:
176,200,293511,1,0,0:0:0:0:
120,144,293729,1,0,0:0:0:0:
200,120,293946,2,0,B|360:64,1,160,4|0,0:0|0:0,0:0:0:0:
424,40,294598,1,0,0:0:0:0:
432,120,294816,2,0,B|272:176,1,160
208,200,295468,1,0,0:0:0:0:
96,248,295685,5,0,0:0:0:0:
264,304,296011,1,0,0:0:0:0:
440,280,296338,1,0,0:0:0:0:
344,208,296555,2,0,B|272:152|184:216,1,160
416,32,297425,5,0,0:0:0:0:
240,56,297751,1,0,0:0:0:0:
96,168,298077,1,0,0:0:0:0:
176,184,298294,1,0,0:0:0:0:
176,184,298403,1,0,0:0:0:0:
176,184,298511,1,0,0:0:0:0:
248,216,298729,1,0,0:0:0:0:
296,280,298946,1,0,0:0:0:0:
296,360,299164,5,0,0:0:0:0:
400,128,299598,1,0,0:0:0:0:
112,128,300033,1,0,0:0:0:0:
216,360,300468,1,4,0:0:0:0:
432,224,300903,6,0,B|336:224,1,80,4|0,0:0|0:0,0:0:0:0:
384,152,301338,2,0,B|288:152,1,80
336,80,301772,1,0,0:0:0:0:
336,80,301881,1,0,0:0:0:0:
336,80,301990,1,0,0:0:0:0:
256,80,302207,1,0,0:0:0:0:
80,224,302642,6,0,B|176:224,1,80
128,152,303077,2,0,B|224:152,1,80
176,80,303511,1,0,0:0:0:0:
176,80,303620,1,0,0:0:0:0:
176,80,303729,1,0,0:0:0:0:
256,80,303946,1,0,0:0:0:0:
56,336,304381,5,0,0:0:0:0:
136,312,304598,1,0,0:0:0:0:
192,256,304816,1,0,0:0:0:0:
240,192,305033,1,0,0:0:0:0:
256,112,305251,1,0,0:0:0:0:
256,112,305359,1,0,0:0:0:0:
256,112,305468,1,0,0:0:0:0:
256,32,305685,1,0,0:0:0:0:
456,336,306120,5,0,0:0:0:0:
376,312,306338,1,0,0:0:0:0:
320,256,306555,1,0,0:0:0:0:
272,192,306772,1,0,0:0:0:0:
256,112,306990,1,0,0:0:0:0:
256,112,307098,1,0,0:0:0:0:
256,112,307207,1,0,0:0:0:0:
256,32,307425,1,0,0:0:0:0:
136,304,307859,6,0,B|264:192,1,160,4|0,0:0|0:0,0:0:0:0:
255,38,308729,2,0,B|255:198,1,160
376,304,309598,2,0,B|248:192,1,160
24,112,310468,6,0,B|72:56|136:96,1,120
160,120,310903,2,0,B|208:136|248:104,1,80
280,184,311338,2,0,B|368:160|432:216,1,160
368,264,311990,1,0,0:0:0:0:
328,272,312098,1,0,0:0:0:0:
288,288,312207,1,0,0:0:0:0:
256,312,312316,1,0,0:0:0:0:
224,344,312425,1,0,0:0:0:0:
144,344,312642,1,0,0:0:0:0:
176,272,312859,5,0,0:0:0:0:
176,272,312968,1,0,0:0:0:0:
176,272,313077,2,0,B|216:192|168:104,1,160
240,64,313729,1,0,0:0:0:0:
256,104,313838,1,0,0:0:0:0:
280,136,313946,1,0,0:0:0:0:
320,152,314055,1,0,0:0:0:0:
360,160,314164,1,0,0:0:0:0:
424,216,314381,1,0,0:0:0:0:
384,232,314490,1,0,0:0:0:0:
352,256,314598,1,0,0:0:0:0:
328,288,314707,1,0,0:0:0:0:
256,192,314816,12,0,318294,0:0:0:0:
