osu file format v6

[General]
AudioFilename: Yamato nadeshiko.mp3
AudioLeadIn: 0
PreviewTime: 79041
Countdown: 0
SampleSet: Soft
StackLeniency: 0.7
Mode: 0
LetterboxInBreaks: 0

[Editor]
DistanceSpacing: 2
BeatDivisor: 4
GridSize: 8

[Metadata]
Title:Koi no tenshi mai orite
Artist:Yamato Nadeshiko
Creator:S i R i R u
Version:Normal
Source:Love Hina
Tags:Horie Yui Tamura yukari Love Hina

[Difficulty]
HPDrainRate:3
CircleSize:4
OverallDifficulty:6
SliderMultiplier:1.4
SliderTickRate:1

[Events]
//Background and Video events
0,0,"BG.jpg"
//Break Periods
2,20750,28938
2,62276,68104
2,76431,78013
2,101914,111989
2,143440,149740
2,157596,159177
//Storyboard Layer 0 (Background)
//Storyboard Layer 1 (Fail)
//Storyboard Layer 2 (Pass)
//Storyboard Layer 3 (Foreground)
//Storyboard Sound Samples
//Background Colour Transformations
3,100,163,162,255

[TimingPoints]
1675,471.883602044829,4,2,0,79,1,0
2382,-200,4,2,0,79,0,0
16753,-200,4,2,0,39,0,0
29966,-200,4,2,0,70,0,0
75266,-200,4,1,0,51,0,0
85665,-200,4,2,0,70,0,0
86378,-200,4,1,0,60,0,0
96036,-200,4,1,0,70,0,0
113017,-200,4,2,0,70,0,0
156430,-200,4,1,0,51,0,0
160227,-200,4,1,0,51,0,1
178137,-200,4,2,0,31,0,0

[Colours]
Combo1 : 240,80,80
Combo2 : 153,51,255
Combo3 : 44,164,252
Combo4 : 255,255,255

[HitObjects]
136,192,1675,1,0
136,192,1910,1,0
136,192,2146,1,0
176,264,2382,1,0
256,264,2618,2,0,B|296:264|328:232|320:184,1,105,8|0
320,120,3562,2,0,B|321:46,2,70,8|0|8
320,280,4978,5,0
240,280,5214,2,0,B|192:280,2,35,0|8|0
208,136,6157,1,0
208,136,6393,1,8
344,160,6865,1,0
344,160,7101,1,0
344,160,7337,6,0,B|384:184|376:248|328:248,1,105,8|0
344,320,8281,1,8
264,320,8517,2,0,B|208:320,2,35
344,320,9225,6,0,B|440:320,1,70,8|0
464,248,10168,2,0,B|384:248,1,70,8|0
344,176,11112,2,0,B|416:176,1,70,8|0
456,104,12056,2,0,B|392:104,3,35,4|0|0|0
344,104,13000,5,8
248,104,13472,1,0
144,104,13943,1,8
104,104,14179,1,0
64,120,14415,1,0
40,152,14651,1,0
32,192,14887,2,0,B|32:264,1,70,8|0
136,264,15831,1,4
240,264,16303,1,4
256,192,16775,12,0,20550
256,192,29988,5,0
256,320,30459,1,0
256,192,30931,1,0
256,192,31167,1,0
256,112,31403,6,0,B|256:40,2,70,8|0|8
256,192,32583,1,0
200,256,32819,2,0,B|136:256,2,35,0|0|8
256,320,33527,1,0
256,320,33763,2,0,B|312:344|360:320|360:248,1,140,8|0
352,144,35178,5,8
352,144,35650,1,0
272,144,35886,1,0
208,192,36122,1,8
144,248,36358,2,0,B|56:248,2,70
200,312,37538,5,8
200,312,37774,1,4
280,312,38010,2,0,B|408:312,2,105,0|4|0
112,312,39897,5,8
112,192,40369,1,0
200,96,40841,1,8
328,72,41313,1,0
456,72,41785,1,8
456,72,42021,2,0,B|456:168,1,70,0|2
456,216,42728,5,8
392,264,42964,1,0
312,264,43200,2,0,B|264:264|264:328,2,70,2|8|2
392,264,44380,1,0
392,184,44616,2,0,B|440:184|440:120,2,70,8|2|8
312,184,45796,5,0
232,184,46032,2,0,B|152:184,1,70,0|8
162,184,46739,1,2
162,184,46975,1,8
160,328,47447,5,2
248,224,47919,1,10
384,224,48391,1,2
472,120,48863,1,10
328,48,49335,5,0
328,48,49571,1,0
248,48,49807,2,0,B|184:48,2,35,10|0|0
328,48,50514,2,0,B|376:48,2,35,2|4|0
248,48,51222,2,0,B|200:48|184:112,1,70,8|0
144,192,52166,5,8
192,320,52638,2,0,B|144:320,2,35,0|2|8
272,320,53346,1,0
352,320,53582,2,0,B|392:320|408:272,1,70,0|10
384,168,54525,1,12
320,80,54997,6,0,B|280:80|248:112,1,70,10|2
192,168,55941,2,0,B|232:168|264:200,1,70,10|2
328,256,56885,2,0,B|288:256|256:288,1,70,8|2
184,280,57593,5,0
104,280,57829,1,8
32,240,58065,2,0,B|32:176,3,35,0|2|0|8
32,128,59008,1,0
112,128,59244,2,0,B|112:88|136:56|200:56,1,105,2|0
256,56,60188,5,6
392,80,60660,1,2
472,192,61132,1,6
392,312,61604,1,2
256,336,62076,1,4
256,192,69154,6,0,B|256:152,2,35,0|0|4
256,272,69862,1,0
176,272,70098,1,0
48,272,70570,5,8
48,272,70805,1,0
24,192,71041,1,0
48,112,71277,1,0
128,88,71513,5,8
208,112,71749,1,0
208,112,71985,1,0
288,112,72221,2,0,B|288:56,2,35,0|10|0
288,192,72929,1,8
288,192,73165,1,2
256,192,73401,12,4,74816
256,192,75288,5,8
256,80,75760,2,0,B|256:32,2,35,0|0|12
392,192,79063,5,8
296,192,79535,1,0
216,240,80007,1,8
152,312,80479,2,0,B|104:312,3,35,0|0|8|0
40,312,81423,5,0
40,216,81895,1,8
40,112,82367,1,0
40,112,82603,5,0
120,112,82838,2,0,B|160:112,2,35,8|0|0
40,112,83546,1,0
40,32,83782,2,8,B|192:32,1,140
240,80,84962,1,0
296,136,85198,1,0
296,136,85434,1,0
296,216,85670,2,2,B|296:280,2,35
224,120,86614,6,0,B|160:120,2,35,8|0|0
288,184,87321,2,0,B|376:184,2,70,8|0|0
224,248,88501,2,0,B|168:248,2,35,8|0|0
288,312,89209,1,8
288,312,89445,5,8
400,312,89917,1,0
400,200,90389,1,8
400,80,90861,1,0
400,80,91096,1,0
400,80,91332,1,8
256,80,91804,6,0,B|208:80,2,35,0|0|8
256,160,92512,2,0,B|256:272,1,105,0|8
256,264,93692,1,4
256,192,94164,12,4,96051
256,192,96759,12,4,101714
256,192,113039,5,2
256,272,113275,1,0
200,328,113511,2,0,B|112:328,1,70,8|0
56,328,114219,1,0
56,248,114455,2,0,B|104:248,2,35,8|0|0
56,104,115398,2,8,B|64:48|128:24|192:48,1,140
240,72,116578,1,0
240,72,116814,1,0
392,72,117286,6,0,B|472:72,2,70,8|0|8
336,128,118466,1,0
272,184,118702,1,0
200,232,118938,2,0,B|120:232,1,70,8|0
72,176,119645,2,8,B|24:152|24:64|104:48,1,140
152,56,120825,5,0
152,56,121061,1,0
256,56,121533,1,8
256,56,121769,1,0
360,56,122241,1,0
360,56,122477,1,8
440,56,122713,6,0,B|488:56,2,35
360,56,123420,2,8,B|288:48|256:96|256:152,1,140
256,272,124836,1,0
256,272,125308,1,8
112,272,125780,2,0,B|64:272,2,35,2|0|8
256,272,126724,5,0
256,120,127196,2,0,B|312:120,2,35,8|0|2
192,64,127903,1,0
112,64,128139,1,8
112,192,128611,6,0,B|112:232,2,35,0|0|8
192,168,129319,1,0
272,192,129555,2,0,B|272:152,2,35,0|0|8
352,224,130263,1,0
352,304,130499,2,0,B|248:304,1,70,0|8
160,304,131442,5,0
80,288,131678,1,0
32,224,131914,1,8
32,144,132150,2,0,B|32:96,2,35
32,224,132858,2,0,B|32:328,1,70,8|0
176,296,133802,5,8
280,296,134274,1,0
384,296,134746,2,0,B|384:248,3,35,8|0|0|0
384,184,135689,6,8,B|376:104|280:88,1,140
216,88,136869,2,0,B|168:88,2,35
216,168,137577,1,8
216,168,137813,1,0
216,248,138049,1,0
216,328,138285,2,0,B|264:328,1,35,0|8
328,328,138757,1,0
408,328,138993,2,8,B|456:320|496:296|488:208,2,140
256,288,141352,5,2
152,192,141824,1,2
256,96,142296,1,2
360,192,142768,1,2
256,288,143240,1,4
256,72,150790,5,2
256,192,151262,1,8
136,192,151733,2,0,B|64:192,2,70,0|8|0
256,192,153149,1,8
336,192,153385,5,0
416,192,153621,2,0,B|496:200|456:296,1,105,8|0
464,344,154565,2,8,B|296:344,1,140
324,344,155980,1,0
256,296,156216,1,0
256,216,156452,2,0,B|256:152,3,35
256,216,157396,1,0
256,192,160227,5,8
336,120,160699,2,0,B|360:88|400:88,2,70,0|8|0
256,192,162115,1,8
176,120,162587,2,0,B|152:88|112:88,2,70,0|8|0
256,256,164002,5,8
336,256,164238,1,0
416,256,164474,2,0,B|416:208,2,35,0|0|8
416,336,165182,1,0
336,336,165418,6,0,B|288:336,2,35,0|0|8
336,256,166126,1,0
336,256,166362,2,8,B|344:200|304:160|248:168,1,140
176,168,167542,1,0
96,168,167778,6,0,B|56:160|48:112,2,70,8|0|8
176,168,168957,1,0
256,168,169193,2,0,B|296:176|304:224,2,70,0|8|0
176,168,170373,1,0
176,168,170609,1,8
176,304,171081,5,0
216,304,171317,1,0
256,304,171553,2,0,B|336:304,1,70,8|0
384,232,172496,2,0,B|312:232,1,70,8|0
376,160,173440,2,0,B|456:160,2,70,8|0|8
376,160,174856,1,12
256,192,175328,12,0,177687
256,192,178159,12,0,181934
