osu file format v9

[General]
AudioFilename: Yamane Mai - The Real Folk Blues.mp3
AudioLeadIn: 2000
PreviewTime: 47155
Countdown: 0
SampleSet: Normal
StackLeniency: 0.7
Mode: 0
LetterboxInBreaks: 0

[Editor]
DistanceSpacing: 1
BeatDivisor: 4
GridSize: 4

[Metadata]
Title:The Real Folk Blues (TV Size)
Artist:Yamane Mai
Creator:Breeze
Version:Normal
Source:Cowboy Bebop
Tags:Sunrise Bandai Kanno Yoko Spike Spiegel Jet Black Faye Valentine Edward Wong Hau Pepelu Tivrusky IV Ein

[Difficulty]
HPDrainRate:4
CircleSize:3
OverallDifficulty:3
ApproachRate:5
SliderMultiplier:1.6
SliderTickRate:1

[Events]
//Background and Video events
0,0,"bg.jpg"
//Break Periods
//Storyboard Layer 0 (Background)
//Storyboard Layer 1 (Fail)
//Storyboard Layer 2 (Pass)
//Storyboard Layer 3 (Foreground)
//Storyboard Sound Samples
//Background Colour Transformations
3,100,0,0,0

[TimingPoints]
284,750.938673341677,4,1,1,60,1,0
284,-100,4,1,2,60,0,0
471,-100,4,1,1,60,0,0
11923,-100,4,1,1,60,0,0
12330,749.531542785759,4,1,1,60,1,0
24322,-100,4,1,1,60,0,0
33129,-100,4,1,2,60,0,0
33504,-100,4,1,1,60,0,0
35752,-100,4,1,2,60,0,0
36502,-100,4,1,1,60,0,0
41374,-100,4,1,2,50,0,0
42123,-100,4,1,2,65,0,0
42498,-100,4,1,1,60,0,0
45309,-100,4,1,2,60,0,0
45496,-100,4,1,1,60,0,0
46433,-100,4,1,2,50,0,0
47183,-100,4,2,1,60,0,0
47557,-100,4,1,2,50,0,0
48307,-100,4,1,2,70,0,1
48494,-100,4,1,1,70,0,0
60300,-100,4,1,2,70,0,1
60487,-100,4,1,1,70,0,0
66108,-100,4,1,2,70,0,0
66483,-100,4,1,1,70,0,0
69107,-100,4,1,2,55,0,0
69481,-100,4,1,1,70,0,0
70606,-100,4,1,2,55,0,0
70980,-100,4,1,1,70,0,0
71730,-100,4,1,2,50,0,0
72667,-100,4,1,1,70,0,0
73791,-100,4,1,2,50,0,0
74541,-100,4,1,1,70,0,0
75665,-100,4,1,2,50,0,0
76040,-100,4,1,1,70,0,0
76414,-100,4,1,2,50,0,0
78320,750,4,1,2,60,1,0
78695,-100,4,1,1,60,0,0
83757,-100,4,1,1,50,0,0
84320,-100,4,1,2,50,0,0
84507,-100,4,1,1,60,0,0
89570,-100,4,1,1,60,0,0
90320,-100,4,1,2,60,0,0

[Colours]
Combo1 : 51,106,34
Combo2 : 124,115,146
Combo3 : 72,68,63
Combo4 : 147,40,44

[HitObjects]
160,88,284,2,0,B|96:116|112:224|180:232,1,160,4|8
200,156,1410,2,0,B|248:184|244:288|160:304,2,160
236,84,3287,5,0
392,48,4038,1,8
468,188,4789,1,0
376,316,5540,1,8
216,336,6291,38,0,B|160:356|92:320|108:224,1,160,0|8
184,264,7417,2,0,B|184:200|120:156|60:192,2,160
264,276,9295,6,0,B|312:296|368:232,1,80,0|4
284,200,10046,2,0,B|336:184|336:120,1,80,8|4
256,124,10797,2,0,B|268:64|212:0|112:24|104:100,1,240,0|4
180,116,12299,37,0
152,196,12704,1,0
84,240,13079,1,8
240,276,13829,2,0,B|232:328|168:348,2,80,0|0|8
384,204,15328,6,0,B|448:228|508:176|492:100,1,160,0|8
452,60,16452,1,0
412,128,16827,2,0,B|368:104|368:40,2,80,0|0|8
376,284,18326,38,0,B|316:316|272:264|272:264|224:204|148:248,2,240,0|0|8
312,136,21324,1,0
256,76,21699,2,0,B|224:24|152:8|88:48|68:128|128:160,1,240
180,116,23198,2,0,B|192:172|144:208,1,80,0|8
264,316,24322,5,0
420,276,25072,1,8
456,120,25821,2,0,B|448:60|372:56,2,80,0|0|8
304,176,27320,38,0,B|284:112|200:96|152:168,2,160,0|8|0
340,248,29194,1,0
320,324,29569,1,8
160,316,30318,6,0,B|79:313|122:245|127:247|127:247|43:246|92:179|97:181|97:181|11:168|60:111|65:112,1,320
124,56,32192,1,0
204,48,32567,2,0,B|260:20|344:68|312:168,1,160,8|4
240,120,33691,2,0,B|236:168|300:200,1,80,0|8
428,132,34815,37,8
448,208,35190,2,0,B|496:216|512:256,2,80,0|2|8
440,288,36315,2,0,B|440:344|372:392|296:336,2,160,4|8|0
360,280,38188,6,0,B|304:270|269:194|337:129,2,160
380,204,40062,2,0,B|408:164|388:108,1,80,8|0
396,48,40812,2,0,B|352:48|328:76|328:76|308:48|252:48,1,160,0|4
172,68,41936,1,0
124,132,42311,1,4
256,192,42498,12,0,44559
256,72,45309,37,4
404,128,46058,1,8
452,64,46433,2,2,B|492:92|492:164|452:192|452:192|480:236|452:280,1,240,0|8
384,236,47932,1,8
336,300,48307,22,0,B|288:324|220:288|220:208,1,160,4|8
144,240,49431,2,0,B|128:176|192:120|260:156,1,160
296,200,50556,1,8
372,220,50930,5,0
420,284,51305,2,0,B|470:238|459:159|380:131,1,160,0|8
456,80,52429,2,0,B|404:44|336:76|332:136,1,160
296,200,53554,1,8
240,260,53929,1,0
188,320,54303,38,0,B|148:348|76:320|76:248,1,160,0|8
116,180,55428,2,0,B|76:152|24:184,2,80
160,248,56552,1,8
236,272,56927,1,0
308,236,57301,2,0,B|376:220|396:152|356:100,2,160,0|8|0
164,164,59550,5,8
92,196,59925,1,0
16,224,60300,2,0,B|-12:180|36:104|104:112,1,160,4|8
168,84,61424,2,0,B|232:80|280:176|200:244,1,160
180,260,62548,1,8
256,284,62923,37,0
336,268,63298,2,0,B|400:288|456:208|420:144,2,160,0|8|0
348,188,65171,2,0,B|280:136,1,80,0|8
152,48,66296,1,4
44,164,67045,6,0,B|36:236|36:236|32:296|92:328,1,160,8|0
120,248,68170,1,0
184,296,68544,2,0,B|212:252|188:204|188:204|152:140,1,160,8|4
280,48,70043,1,8
440,32,70793,1,4
480,100,71168,38,0,B|436:176,1,80,0|8
360,152,71917,2,0,B|368:244,1,80,0|4
444,248,72667,1,0
396,312,73042,6,0,B|348:316|296:308|272:248|292:188,1,160,8|8
268,148,74166,1,8
200,108,74541,1,8
48,156,75290,38,0,B|38:246,2,80,6|8|8
196,212,76789,2,0,B|204:308,2,80,8|8|8
148,148,77914,1,8
92,92,78288,1,4
168,64,78695,22,0,B|204:84|244:56,1,80,0|12
244,140,79445,2,0,B|280:132|308:100|308:100|332:132|376:144,2,160
164,152,81320,5,4
60,276,82070,1,8
204,348,82820,1,0
304,224,83570,2,0,B|432:204,2,80,8|0|4
164,152,85070,37,8
216,92,85445,2,0,B|184:52|100:64|88:128,2,160
296,100,87320,6,0,B|372:120|372:120|392:112|392:112|488:132,1,160,4|8
304,184,88820,2,0,B|372:200|372:200|400:192|400:192|496:212,1,160,0|8
496,276,89945,1,2
440,332,90320,1,4
