osu file format v9

[General]
AudioFilename: Yamane Mai - The Real Folk Blues.mp3
AudioLeadIn: 2000
PreviewTime: 47155
Countdown: 0
SampleSet: Normal
StackLeniency: 0.7
Mode: 0
LetterboxInBreaks: 0

[Editor]
DistanceSpacing: 1
BeatDivisor: 4
GridSize: 4

[Metadata]
Title:The Real Folk Blues (TV Size)
Artist:Yamane Mai
Creator:Breeze
Version:Insane
Source:Cowboy Bebop
Tags:Sunrise Bandai Kanno Yoko Spike Spiegel Jet Black Faye Valentine Edward Wong Hau Pepelu Tivrusky IV Ein

[Difficulty]
HPDrainRate:7
CircleSize:4
OverallDifficulty:6
ApproachRate:8
SliderMultiplier:2
SliderTickRate:1

[Events]
//Background and Video events
0,0,"bg.jpg"
//Break Periods
//Storyboard Layer 0 (Background)
//Storyboard Layer 1 (Fail)
//Storyboard Layer 2 (Pass)
//Storyboard Layer 3 (Foreground)
//Storyboard Sound Samples
//Background Colour Transformations
3,100,0,0,0

[TimingPoints]
284,750.938673341677,4,1,1,60,1,0
284,-100,4,1,2,60,0,0
471,-100,4,1,1,60,0,0
10984,-100,4,1,2,40,0,0
11172,-100,4,1,2,60,0,0
11360,-100,4,1,2,40,0,0
11735,-100,4,1,1,40,0,0
11923,-100,4,1,1,60,0,0
12330,749.531542785759,4,1,1,60,1,0
23760,-100,4,1,2,40,0,0
24322,-100,4,1,1,60,0,0
33129,-100,4,1,2,60,0,0
33504,-100,4,1,1,60,0,0
35752,-100,4,1,2,60,0,0
36502,-100,4,1,1,60,0,0
41374,-100,4,1,2,50,0,0
41749,-100,4,1,1,60,0,0
42123,-100,4,1,2,40,0,0
42686,-100,4,1,1,60,0,0
45309,-100,4,1,2,60,0,0
45496,-100,4,1,1,60,0,0
46433,-133.333333333333,4,1,2,50,0,0
47183,-100,4,1,1,60,0,0
47745,-100,4,1,2,55,0,0
48307,-100,4,1,2,70,0,1
48494,-100,4,1,1,70,0,0
60300,-100,4,1,2,70,0,1
60487,-100,4,1,1,70,0,0
66108,-100,4,1,2,70,0,0
66483,-100,4,1,1,70,0,0
69107,-100,4,1,2,55,0,0
69481,-100,4,1,1,70,0,0
70606,-100,4,1,2,55,0,0
70980,-100,4,1,1,70,0,0
71730,-100,4,1,2,50,0,0
72292,-100,4,1,2,60,0,0
72479,-100,4,1,1,70,0,0
73978,-100,4,1,2,50,0,0
74541,-100,4,1,1,70,0,0
75665,-100,4,1,2,50,0,0
76040,-100,4,1,1,70,0,0
76414,-100,4,1,2,50,0,0
78320,750,4,1,1,60,1,0
83757,-100,4,1,1,50,0,0
84320,-100,4,1,2,50,0,0
84507,-100,4,1,1,60,0,0
89007,-100,4,1,2,50,0,0
89101,-100,4,1,1,50,0,0
89288,-100,4,1,2,50,0,0
89570,-100,4,1,1,60,0,0
90320,-100,4,1,2,60,0,0

[Colours]
Combo1 : 51,106,34
Combo2 : 124,115,146
Combo3 : 72,68,63
Combo4 : 147,40,44

[HitObjects]
256,68,284,1,4
352,88,659,1,0
452,108,1034,1,8
384,184,1410,5,0
384,184,1598,1,0
384,184,1785,2,0,B|344:292,1,100
332,324,2349,1,0
232,340,2724,1,0
192,312,2912,2,0,B|88:228,1,100
40,184,3663,37,4
96,104,4038,1,8
236,56,4601,1,0
268,56,4789,1,0
300,56,4977,1,0
332,56,5165,2,0,B|432:56,1,100,4|8
476,144,5916,1,0
388,196,6291,5,0
400,296,6666,1,4
480,236,7042,2,0,B|372:188,1,100,8|0
360,184,7605,1,0
332,172,7793,1,0
300,160,7981,1,0
272,172,8168,1,0
244,184,8356,2,0,B|144:228,1,100
36,320,9295,38,0,B|76:360|156:360,1,100,0|4
476,320,10046,2,0,B|436:360|356:360,1,100,8|4
256,348,10797,1,0
256,300,10984,1,8
256,300,11078,1,8
256,300,11172,2,0,B|256:236,1,50,8|8
256,200,11548,2,0,B|256:136,1,50,8|8
256,100,11923,1,4
184,48,12299,5,0
144,84,12517,2,0,B|44:112,1,100
36,156,13079,1,8
40,244,13454,1,0
56,284,13641,2,4,B|232:320,1,150
352,340,14578,37,8
396,328,14765,2,0,B|440:188,1,100
468,220,15328,2,0,B|456:120|456:120|364:72,1,200,0|8
284,40,16452,1,0
260,40,16639,1,0
240,40,16827,2,0,B|132:40,2,100,0|4|8
468,220,17951,5,0
468,220,18138,1,0
428,244,18326,2,0,B|388:280,1,50
388,324,18701,2,0,B|316:296,1,50
328,264,19075,2,0,B|264:272,1,50,8|0
256,308,19450,1,0
212,300,19637,2,0,B|150:323|135:225|64:258,1,150,0|4
52,168,20574,37,8
100,92,20949,1,0
140,72,21136,2,0,B|196:40|244:104,1,100
272,72,21699,2,0,B|316:124|272:184,1,100,0|8
200,200,22448,2,0,B|232:240,1,50
264,272,22823,2,0,B|264:332|324:348,2,100,0|0|8
268,240,23760,1,8
280,212,23947,1,8
308,196,24135,1,8
340,192,24322,6,0,B|400:192,1,50
172,192,24884,2,0,B|112:192,1,50,0|8
168,104,25446,1,0
184,60,25634,2,0,B|256:24|328:60,1,150,0|4
404,108,26571,1,8
420,152,26758,38,0,B|428:284,1,100
464,276,27320,2,0,B|404:342|404:342|380:288|304:284,1,200,0|8
228,300,28444,1,0
181,318,28632,2,0,B|127:337|87:270|127:222,1,150,0|4
168,144,29569,1,8
324,44,29943,5,0
324,44,30131,1,0
356,76,30318,2,0,B|396:112,1,50
432,124,30693,2,0,B|420:204,1,50
380,180,31068,2,0,B|384:248,1,50,8|0
408,268,31443,1,0
408,268,31630,2,0,B|416:320|360:368|304:332,1,150,0|4
164,188,32567,38,0,B|236:227,1,75,8|0
184,284,33129,2,0,B|124:252,1,50,0|4
92,228,33504,2,0,B|44:192|60:108|124:96,1,150,0|8
200,128,34441,1,0
304,72,34815,5,8
336,76,35003,1,0
368,80,35190,1,0
428,72,35378,1,2
422,102,35565,1,2
417,132,35752,1,8
448,184,35940,1,8
416,200,36127,1,8
388,216,36315,1,4
236,304,36689,37,0
156,264,37064,1,8
116,244,37251,2,0,B|56:204|92:120,1,100
92,112,37814,1,0
160,168,38188,5,0
228,108,38563,1,8
264,84,38750,2,0,B|308:48|384:80,1,100
400,88,39313,1,0
452,160,39687,37,4
448,204,39875,2,0,B|492:232,2,50,0|8|0
420,240,40437,2,0,B|324:320,1,100
204,312,41186,2,0,B|280:247,1,100,4|4
308,108,41936,2,0,B|212:188,1,100,0|4
144,192,42686,2,0,B|84:192,2,50,2|2|2
368,192,43622,6,0,B|428:192,2,50,2|2|2
276,192,44372,2,0,B|216:192,2,50,2|2|2
368,192,45122,2,0,B|368:156,2,25,0|0|4
316,280,45684,1,0
316,280,45871,1,0
216,280,46246,1,0
216,280,46433,2,2,B|184:324|112:320|80:256,1,150.000005722046,0|0
80,256,47370,37,2
68,240,47557,1,2
60,216,47745,1,8
56,188,47932,1,8
64,152,48120,1,8
84,112,48307,22,0,B|100:52|184:48,1,100,4|0
292,152,49057,2,0,B|284:208|220:216,1,100,8|0
176,228,49619,2,0,B|124:244|124:324|180:344,1,150
264,288,50556,1,8
400,224,50930,5,0
456,140,51305,2,0,B|460:72|384:36,1,100
248,96,52055,2,0,B|244:164|320:200,1,100,8|0
332,208,52617,2,0,B|384:228|384:308|332:336,1,150
256,276,53554,2,0,B|136:276,1,100,8|0
84,348,54303,38,0,B|32:276|80:216|80:216|128:172,1,200,0|8
240,84,55428,1,0
200,229,55802,1,0
143,90,56177,1,0
269,169,56552,1,8
364,204,56927,5,0
464,192,57301,2,0,B|507:165|487:85|443:61,1,150
416,56,58051,1,8
384,48,58238,2,0,B|336:20|284:48,1,100
264,64,58800,1,0
40,132,59363,37,2
40,132,59550,1,2
40,132,59737,2,0,B|88:276,1,150,0|4
168,336,60674,1,0
268,348,61049,1,8
364,316,61424,1,0
408,292,61611,2,0,B|484:244|432:136,1,150
424,60,62548,1,8
256,44,62923,5,0
156,44,63298,2,0,B|192:116|136:196|44:180,1,200,0|8
60,80,64422,1,0
60,80,64609,2,0,B|216:180,1,150
268,212,65546,1,8
152,248,65921,1,0
268,280,66296,1,4
132,316,66671,1,0
268,348,67045,38,0,B|352:348|352:348|336:268|408:228,1,200,8|0
452,320,68170,1,0
464,272,68357,2,0,B|496:220|452:136|368:156,1,150
316,188,69294,2,0,B|272:216|204:196|200:128,1,150,4|0
184,88,70043,1,8
144,56,70231,2,0,B|92:12|40:72,1,100
20,96,70793,1,4
72,184,71168,5,0
76,204,71355,1,2
80,224,71542,1,2
84,244,71730,1,8
88,264,71917,1,8
92,284,72105,1,8
96,304,72292,1,4
184,348,72667,37,0
232,348,72854,2,0,B|292:348|292:348|268:296|304:240,1,150
380,308,73791,2,8,B|416:268,1,50,2|8
444,232,74166,2,8,B|492:232,2,50
380,156,74915,1,0
316,80,75290,5,4
284,88,75478,1,2
252,96,75665,1,8
220,104,75852,1,8
188,112,76040,1,8
92,140,76414,1,0
44,228,76789,37,8
56,256,76977,1,8
68,288,77164,1,8
68,352,77351,1,8
100,344,77539,1,8
132,336,77726,1,8
196,348,77914,1,8
200,316,78101,1,8
204,284,78288,1,4
236,180,78695,21,0
296,100,79070,1,12
388,60,79445,1,2
436,76,79632,1,2
484,96,79820,2,0,B|452:140,1,50,2|2
408,156,80195,2,0,B|408:220,1,50,0|0
328,268,80757,1,2
372,292,80945,2,0,B|480:352,1,100,0|0
64,276,82070,5,8
456,192,82820,1,0
64,108,83570,1,8
80,76,83757,1,2
112,52,83945,1,2
156,40,84132,1,2
208,44,84320,1,4
304,64,84695,1,0
400,92,85070,2,0,B|432:232,1,100,8|2
456,224,85632,37,2
468,272,85820,2,0,B|416:312,1,50,2|2
408,348,86195,2,0,B|344:320,1,50,2|2
272,284,86757,2,0,B|132:216,1,150,2|4
408,144,88070,1,8
136,72,88820,1,0
184,80,89007,5,8
216,84,89195,1,6
248,88,89382,1,8
276,76,89570,1,2
288,104,89757,1,2
300,132,89945,1,2
308,164,90132,1,2
320,196,90320,1,4
