osu file format v14

[General]
AudioFilename: Doutei Korose (short Ver.).mp3
AudioLeadIn: 0
PreviewTime: 39597
Countdown: 0
SampleSet: None
StackLeniency: 0.7
Mode: 3
LetterboxInBreaks: 0
SpecialStyle: 1
WidescreenStoryboard: 1

[Editor]
DistanceSpacing: 1
BeatDivisor: 4
GridSize: 4
TimelineZoom: 3.199999

[Metadata]
Title:Doutei Korose (short Ver.)
TitleUnicode:童テイ殺セ (short Ver.)
Artist:Yamamoto Momiji
ArtistUnicode:山本椛
Creator:ALEFY
Version:EXH
Source:
Tags:MONOTONE,IOSYS,Halozy,sumijun
BeatmapID:923934
BeatmapSetID:428029

[Difficulty]
HPDrainRate:8
CircleSize:4
OverallDifficulty:7
ApproachRate:5
SliderMultiplier:1.4
SliderTickRate:2

[Events]
//Background and Video events
0,0,"back.jpg",0,0
//Break Periods
//Storyboard Layer 0 (Background)
//Storyboard Layer 1 (Fail)
//Storyboard Layer 2 (Pass)
//Storyboard Layer 3 (Foreground)
//Storyboard Sound Samples

[TimingPoints]
597,300,4,1,0,10,1,0
4797,-200,4,1,0,10,0,0
4872,-133.333333333333,4,1,0,10,0,0
4947,-100,4,1,0,10,0,0
4984,-90.9090909090909,4,1,0,10,0,0
5022,-83.3333333333333,4,1,0,10,0,0
5040,-76.9230769230769,4,1,0,10,0,0
5059,-71.4285714285714,4,1,0,10,0,0
5078,-66.6666666666667,4,1,0,10,0,0
5097,-200,4,1,0,10,0,0
5172,-133.333333333333,4,1,0,10,0,0
5247,-100,4,1,0,10,0,0
5284,-90.9090909090909,4,1,0,10,0,0
5322,-83.3333333333333,4,1,0,10,0,0
5340,-76.9230769230769,4,1,0,10,0,0
5359,-71.4285714285714,4,1,0,10,0,0
5378,-66.6666666666667,4,1,0,10,0,0
5397,-100,4,1,0,10,0,0
9297,-66.6666666666667,4,1,0,10,0,0
9372,-79.9999999999999,4,1,0,10,0,0
9447,-100,4,1,0,10,0,0
9484,-111.111111111111,4,1,0,10,0,0
9522,-125,4,1,0,10,0,0
9540,-142.857142857143,4,1,0,10,0,0
9559,-166.666666666667,4,1,0,10,0,0
9578,-200,4,1,0,10,0,0
9597,-100,4,1,0,10,0,0
10197,30,4,1,0,10,1,0
10197,-12.5,4,1,0,10,0,0
10199,600000000,4,1,0,10,1,0
10497,30,4,1,0,10,1,0
10497,-12.5,4,1,0,10,0,0
10499,600000000,4,1,0,10,1,0
10797,30,4,1,0,10,1,0
10797,-12.5,4,1,0,10,0,0
10799,600000000,4,1,0,10,1,0
11097,30,4,1,0,10,1,0
11097,-12.5,4,1,0,10,0,0
11099,600000000,4,1,0,10,1,0
11397,300,4,1,0,10,1,0
20397,-66.6666666666667,4,1,0,10,0,0
20547,-79.9999999999999,4,1,0,10,0,0
20697,-100,4,1,0,10,0,0
20772,-111.111111111111,4,1,0,10,0,0
20847,-125,4,1,0,10,0,0
20884,-142.857142857143,4,1,0,10,0,0
20922,-166.666666666667,4,1,0,10,0,0
20959,-200,4,1,0,10,0,0
20997,600,4,1,0,10,1,0
20997,-50,4,1,0,10,0,0
30597,300,4,1,0,10,1,0
39597,-66.6666666666667,4,1,0,10,0,0
39672,-79.9999999999999,4,1,0,10,0,0
39747,-100,4,1,0,10,0,0
39784,-111.111111111111,4,1,0,10,0,0
39822,-125,4,1,0,10,0,0
39840,-142.857142857143,4,1,0,10,0,0
39859,-166.666666666667,4,1,0,10,0,0
39878,-200,4,1,0,10,0,0
39972,-133.333333333333,4,1,0,10,0,0
40047,-100,4,1,0,10,0,0
40084,-90.9090909090909,4,1,0,10,0,0
40122,-83.3333333333333,4,1,0,10,0,0
40140,-76.9230769230769,4,1,0,10,0,0
40159,-71.4285714285714,4,1,0,10,0,0
40178,-66.6666666666667,4,1,0,10,0,0
40197,-100,4,1,0,10,0,0
54297,-200,4,1,0,10,0,0
54372,-133.333333333333,4,1,0,10,0,0
54447,-100,4,1,0,10,0,0
54484,-90.9090909090909,4,1,0,10,0,0
54522,-83.3333333333333,4,1,0,10,0,0
54540,-76.9230769230769,4,1,0,10,0,0
54559,-71.4285714285714,4,1,0,10,0,0
54578,-66.6666666666667,4,1,0,10,0,0
54597,-100,4,1,0,10,0,0
54897,-200,4,1,0,10,0,0
54972,-133.333333333333,4,1,0,10,0,0
55047,-100,4,1,0,10,0,0
55084,-90.9090909090909,4,1,0,10,0,0
55122,-83.3333333333333,4,1,0,10,0,0
55140,-76.9230769230769,4,1,0,10,0,0
55159,-71.4285714285714,4,1,0,10,0,0
55178,-66.6666666666667,4,1,0,10,0,0
55197,-100,4,1,0,10,0,0
55497,-200,4,1,0,10,0,0
55572,-133.333333333333,4,1,0,10,0,0
55647,-100,4,1,0,10,0,0
55684,-90.9090909090909,4,1,0,10,0,0
55722,-83.3333333333333,4,1,0,10,0,0
55740,-76.9230769230769,4,1,0,10,0,0
55759,-71.4285714285714,4,1,0,10,0,0
55778,-66.6666666666667,4,1,0,10,0,0
55797,-100,4,1,0,10,0,0
56097,-200,4,1,0,10,0,0
56172,-133.333333333333,4,1,0,10,0,0
56247,-100,4,1,0,10,0,0
56284,-90.9090909090909,4,1,0,10,0,0
56322,-83.3333333333333,4,1,0,10,0,0
56340,-76.9230769230769,4,1,0,10,0,0
56359,-71.4285714285714,4,1,0,10,0,0
56378,-66.6666666666667,4,1,0,10,0,0
56397,-100,4,1,0,10,0,0
56997,600,4,1,0,10,1,0
56997,-50,4,1,0,10,0,0
63897,300,4,1,0,10,1,0
63897,-66.6666666666667,4,1,0,10,0,0
63972,-79.9999999999999,4,1,0,10,0,0
64047,-100,4,1,0,10,0,0
64084,-111.111111111111,4,1,0,10,0,0
64122,-125,4,1,0,10,0,0
64140,-142.857142857143,4,1,0,10,0,0
64159,-166.666666666667,4,1,0,10,0,0
64178,-200,4,1,0,10,0,0
64197,300,4,1,0,10,1,0
73797,600,4,1,0,10,1,0
73797,-50,4,1,0,10,0,0
78597,300,4,1,0,10,1,0
92697,-66.6666666666667,4,1,0,10,0,0
92772,-79.9999999999999,4,1,0,10,0,0
92847,-100,4,1,0,10,0,0
92884,-111.111111111111,4,1,0,10,0,0
92922,-125,4,1,0,10,0,0
92940,-142.857142857143,4,1,0,10,0,0
92959,-166.666666666667,4,1,0,10,0,0
92978,-200,4,1,0,10,0,0
92997,-100,4,1,0,10,0,0
93297,-66.6666666666667,4,1,0,10,0,0
93372,-79.9999999999999,4,1,0,10,0,0
93447,-100,4,1,0,10,0,0
93484,-111.111111111111,4,1,0,10,0,0
93522,-125,4,1,0,10,0,0
93540,-142.857142857143,4,1,0,10,0,0
93559,-166.666666666667,4,1,0,10,0,0
93578,-200,4,1,0,10,0,0
93597,-100,4,1,0,10,0,0
93897,-66.6666666666667,4,1,0,10,0,0
93972,-79.9999999999999,4,1,0,10,0,0
94047,-100,4,1,0,10,0,0
94084,-111.111111111111,4,1,0,10,0,0
94122,-125,4,1,0,10,0,0
94140,-142.857142857143,4,1,0,10,0,0
94159,-166.666666666667,4,1,0,10,0,0
94178,-200,4,1,0,10,0,0
94197,-100,4,1,0,10,0,0
94497,-66.6666666666667,4,1,0,10,0,0
94572,-79.9999999999999,4,1,0,10,0,0
94647,-100,4,1,0,10,0,0
94684,-111.111111111111,4,1,0,10,0,0
94722,-125,4,1,0,10,0,0
94740,-142.857142857143,4,1,0,10,0,0
94759,-166.666666666667,4,1,0,10,0,0
94778,-200,4,1,0,10,0,0
94797,-100,4,1,0,10,0,0
95997,-66.6666666666667,4,1,0,10,0,0
96147,-79.9999999999999,4,1,0,10,0,0
96297,-100,4,1,0,10,0,0
96372,-111.111111111111,4,1,0,10,0,0
96447,-125,4,1,0,10,0,0
96484,-142.857142857143,4,1,0,10,0,0
96522,-166.666666666666,4,1,0,10,0,0
96540,-200,4,1,0,10,0,0
96559,-400,4,1,0,10,0,0
96578,-1000,4,1,0,10,0,0
96597,300,4,1,0,10,1,0
96597,-200,4,1,0,10,0,0
96672,-133.333333333333,4,1,0,10,0,0
96747,-100,4,1,0,10,0,0
96784,-90.9090909090909,4,1,0,10,0,0
96822,-83.3333333333333,4,1,0,10,0,0
96840,-76.9230769230769,4,1,0,10,0,0
96859,-71.4285714285714,4,1,0,10,0,0
96878,-66.6666666666667,4,1,0,10,0,0
96897,-100,4,1,0,10,0,0
97497,-66.6666666666667,4,1,0,10,0,0
97572,-79.9999999999999,4,1,0,10,0,0
97647,-100,4,1,0,10,0,0
97684,-111.111111111111,4,1,0,10,0,0
97722,-125,4,1,0,10,0,0
97740,-142.857142857143,4,1,0,10,0,0
97759,-166.666666666667,4,1,0,10,0,0
97778,-200,4,1,0,10,0,0
97797,300,4,1,0,10,1,0
111897,-200,4,1,0,10,0,0
111972,-133.333333333333,4,1,0,10,0,0
112047,-100,4,1,0,10,0,0
112084,-90.9090909090909,4,1,0,10,0,0
112122,-83.3333333333333,4,1,0,10,0,0
112140,-76.9230769230769,4,1,0,10,0,0
112159,-71.4285714285714,4,1,0,10,0,0
112178,-66.6666666666667,4,1,0,10,0,0
112197,-100,4,1,0,10,0,0
112497,-200,4,1,0,10,0,0
112572,-133.333333333333,4,1,0,10,0,0
112647,-100,4,1,0,10,0,0
112684,-90.9090909090909,4,1,0,10,0,0
112722,-83.3333333333333,4,1,0,10,0,0
112740,-76.9230769230769,4,1,0,10,0,0
112759,-71.4285714285714,4,1,0,10,0,0
112778,-66.6666666666667,4,1,0,10,0,0
112797,-100,4,1,0,10,0,0
113097,-200,4,1,0,10,0,0
113172,-133.333333333333,4,1,0,10,0,0
113247,-100,4,1,0,10,0,0
113284,-90.9090909090909,4,1,0,10,0,0
113322,-83.3333333333333,4,1,0,10,0,0
113340,-76.9230769230769,4,1,0,10,0,0
113359,-71.4285714285714,4,1,0,10,0,0
113378,-66.6666666666667,4,1,0,10,0,0
113397,-100,4,1,0,10,0,0
113697,-200,4,1,0,10,0,0
113772,-133.333333333333,4,1,0,10,0,0
113847,-100,4,1,0,10,0,0
113884,-90.9090909090909,4,1,0,10,0,0
113922,-83.3333333333333,4,1,0,10,0,0
113940,-76.9230769230769,4,1,0,10,0,0
113959,-71.4285714285714,4,1,0,10,0,0
113978,-66.6666666666667,4,1,0,10,0,0
113997,-100,4,1,0,10,0,0
114597,600,4,1,0,10,1,0
114597,-50,4,1,0,10,0,0
121497,300,4,1,0,10,1,0
121497,-66.6666666666667,4,1,0,10,0,0
121572,-79.9999999999999,4,1,0,10,0,0
121647,-100,4,1,0,10,0,0
121684,-111.111111111111,4,1,0,10,0,0
121722,-125,4,1,0,10,0,0
121740,-142.857142857143,4,1,0,10,0,0
121759,-166.666666666667,4,1,0,10,0,0
121778,-200,4,1,0,10,0,0
121797,300,4,1,0,10,1,0
125997,-200,4,1,0,10,0,0
126072,-133.333333333333,4,1,0,10,0,0
126147,-100,4,1,0,10,0,0
126184,-90.9090909090909,4,1,0,10,0,0
126222,-83.3333333333333,4,1,0,10,0,0
126240,-76.9230769230769,4,1,0,10,0,0
126259,-71.4285714285714,4,1,0,10,0,0
126278,-66.6666666666667,4,1,0,10,0,0
126297,-200,4,1,0,10,0,0
126372,-133.333333333333,4,1,0,10,0,0
126447,-100,4,1,0,10,0,0
126484,-90.9090909090909,4,1,0,10,0,0
126522,-83.3333333333333,4,1,0,10,0,0
126540,-76.9230769230769,4,1,0,10,0,0
126559,-71.4285714285714,4,1,0,10,0,0
126578,-66.6666666666667,4,1,0,10,0,0
126597,-100,4,1,0,10,0,0

[HitObjects]
448,192,597,5,0,0:0:0:0:
320,192,597,1,0,0:0:0:0:
64,192,747,1,0,0:0:0:0:
320,192,897,128,0,1197:0:0:0:0:
192,192,897,1,0,0:0:0:0:
64,192,1047,1,0,0:0:0:0:
64,192,1197,1,0,0:0:0:0:
192,192,1197,128,0,1497:0:0:0:0:
320,192,1347,1,0,0:0:0:0:
448,192,1497,1,0,0:0:0:0:
320,192,1497,1,0,0:0:0:0:
192,192,1647,1,0,0:0:0:0:
64,192,1647,128,0,1947:0:0:0:0:
320,192,1947,1,0,0:0:0:0:
192,192,2097,1,0,0:0:0:0:
448,192,2097,1,0,0:0:0:0:
64,192,2247,1,0,0:0:0:0:
448,192,2397,1,0,0:0:0:0:
320,192,2397,1,0,0:0:0:0:
192,192,2547,1,0,0:0:0:0:
64,192,2622,1,0,0:0:0:0:
320,192,2697,1,0,0:0:0:0:
448,192,2697,1,0,0:0:0:0:
64,192,2847,1,0,0:0:0:0:
320,192,2847,1,0,0:0:0:0:
192,192,2997,1,0,0:0:0:0:
64,192,2997,1,0,0:0:0:0:
448,192,3147,1,0,0:0:0:0:
64,192,3297,1,0,0:0:0:0:
320,192,3297,128,0,3597:0:0:0:0:
192,192,3447,1,0,0:0:0:0:
64,192,3597,1,0,0:0:0:0:
448,192,3597,128,0,3897:0:0:0:0:
192,192,3747,1,0,0:0:0:0:
64,192,3897,1,0,0:0:0:0:
192,192,3897,1,0,0:0:0:0:
448,192,4047,1,0,0:0:0:0:
320,192,4047,128,0,4347:0:0:0:0:
64,192,4347,1,0,0:0:0:0:
192,192,4497,1,0,0:0:0:0:
320,192,4497,1,0,0:0:0:0:
448,192,4647,1,0,0:0:0:0:
320,192,4797,1,0,0:0:0:0:
64,192,4797,1,0,0:0:0:0:
448,192,4797,1,0,0:0:0:0:
192,192,5097,1,0,0:0:0:0:
64,192,5097,1,0,0:0:0:0:
448,192,5097,1,0,0:0:0:0:
448,192,5397,1,0,0:0:0:0:
64,192,5397,1,0,0:0:0:0:
192,192,5547,1,0,0:0:0:0:
320,192,5697,1,0,0:0:0:0:
192,192,5697,128,0,5997:0:0:0:0:
448,192,5847,1,0,0:0:0:0:
320,192,5997,1,0,0:0:0:0:
64,192,5997,128,0,6297:0:0:0:0:
192,192,6147,1,0,0:0:0:0:
448,192,6147,1,0,0:0:0:0:
320,192,6297,1,0,0:0:0:0:
448,192,6297,1,0,0:0:0:0:
64,192,6447,1,0,0:0:0:0:
320,192,6447,128,0,6747:0:0:0:0:
192,192,6747,1,0,0:0:0:0:
320,192,6897,1,0,0:0:0:0:
448,192,6897,1,0,0:0:0:0:
64,192,7047,1,0,0:0:0:0:
192,192,7197,1,0,0:0:0:0:
320,192,7197,1,0,0:0:0:0:
448,192,7347,1,0,0:0:0:0:
320,192,7422,1,0,0:0:0:0:
192,192,7497,1,0,0:0:0:0:
64,192,7497,1,0,0:0:0:0:
192,192,7647,1,0,0:0:0:0:
448,192,7647,1,0,0:0:0:0:
448,192,7797,1,0,0:0:0:0:
320,192,7797,1,0,0:0:0:0:
64,192,7947,1,0,0:0:0:0:
64,192,8097,1,0,0:0:0:0:
320,192,8097,128,0,8397:0:0:0:0:
192,192,8247,1,0,0:0:0:0:
64,192,8397,1,0,0:0:0:0:
448,192,8397,128,0,8697:0:0:0:0:
320,192,8547,1,0,0:0:0:0:
192,192,8697,1,0,0:0:0:0:
64,192,8697,1,0,0:0:0:0:
192,192,8847,1,0,0:0:0:0:
448,192,8847,1,0,0:0:0:0:
64,192,9147,1,0,0:0:0:0:
320,192,9147,1,0,0:0:0:0:
320,192,9297,1,0,0:0:0:0:
192,192,9297,1,0,0:0:0:0:
64,192,9597,1,0,0:0:0:0:
192,192,9597,1,0,0:0:0:0:
448,192,9597,1,0,0:0:0:0:
320,192,9747,1,0,0:0:0:0:
192,192,9897,1,0,0:0:0:0:
320,192,9897,1,0,0:0:0:0:
64,192,11397,1,0,0:0:0:0:
320,192,11397,1,0,0:0:0:0:
448,192,11397,1,0,0:0:0:0:
192,192,11547,1,0,0:0:0:0:
448,192,11697,128,0,11997:0:0:0:0:
320,192,11697,1,0,0:0:0:0:
64,192,11997,1,0,0:0:0:0:
192,192,11997,1,0,0:0:0:0:
320,192,12147,1,0,0:0:0:0:
192,192,12297,1,0,0:0:0:0:
448,192,12297,1,0,0:0:0:0:
320,192,12447,1,0,0:0:0:0:
192,192,12597,1,0,0:0:0:0:
64,192,12597,1,0,0:0:0:0:
448,192,12747,1,0,0:0:0:0:
320,192,12747,1,0,0:0:0:0:
320,192,13047,1,0,0:0:0:0:
448,192,13047,1,0,0:0:0:0:
192,192,13197,1,0,0:0:0:0:
64,192,13197,1,0,0:0:0:0:
320,192,13347,128,0,13647:0:0:0:0:
448,192,13347,1,0,0:0:0:0:
64,192,13497,1,0,0:0:0:0:
192,192,13647,1,0,0:0:0:0:
320,192,13797,1,0,0:0:0:0:
448,192,13797,128,0,14097:0:0:0:0:
64,192,13947,1,0,0:0:0:0:
192,192,14097,128,0,14397:0:0:0:0:
320,192,14097,1,0,0:0:0:0:
448,192,14247,1,0,0:0:0:0:
320,192,14397,128,0,14697:0:0:0:0:
64,192,14397,1,0,0:0:0:0:
192,192,14547,1,0,0:0:0:0:
64,192,14697,128,0,14997:0:0:0:0:
448,192,14697,1,0,0:0:0:0:
320,192,14847,1,0,0:0:0:0:
192,192,14997,1,0,0:0:0:0:
320,192,14997,1,0,0:0:0:0:
320,192,15297,1,0,0:0:0:0:
192,192,15297,1,0,0:0:0:0:
64,192,15597,1,0,0:0:0:0:
448,192,15597,1,0,0:0:0:0:
320,192,15672,1,0,0:0:0:0:
192,192,15747,1,0,0:0:0:0:
64,192,15822,1,0,0:0:0:0:
320,192,15897,1,0,0:0:0:0:
448,192,15897,1,0,0:0:0:0:
448,192,16197,1,0,0:0:0:0:
64,192,16197,128,0,16497:0:0:0:0:
320,192,16347,1,0,0:0:0:0:
192,192,16497,1,0,0:0:0:0:
448,192,16497,1,0,0:0:0:0:
320,192,16647,1,0,0:0:0:0:
64,192,16647,1,0,0:0:0:0:
192,192,16797,1,0,0:0:0:0:
448,192,16797,1,0,0:0:0:0:
320,192,16947,1,0,0:0:0:0:
192,192,16947,1,0,0:0:0:0:
320,192,17097,1,0,0:0:0:0:
64,192,17097,1,0,0:0:0:0:
192,192,17247,1,0,0:0:0:0:
64,192,17247,1,0,0:0:0:0:
320,192,17397,1,0,0:0:0:0:
448,192,17397,128,0,17697:0:0:0:0:
64,192,17547,1,0,0:0:0:0:
64,192,17697,1,0,0:0:0:0:
192,192,17697,1,0,0:0:0:0:
320,192,17847,1,0,0:0:0:0:
448,192,17997,1,0,0:0:0:0:
64,192,17997,1,0,0:0:0:0:
64,192,18147,1,0,0:0:0:0:
192,192,18147,1,0,0:0:0:0:
320,192,18297,1,0,0:0:0:0:
192,192,18297,1,0,0:0:0:0:
448,192,18447,1,0,0:0:0:0:
64,192,18447,1,0,0:0:0:0:
192,192,18597,1,0,0:0:0:0:
448,192,18597,1,0,0:0:0:0:
320,192,18747,1,0,0:0:0:0:
192,192,18897,1,0,0:0:0:0:
64,192,18897,1,0,0:0:0:0:
448,192,19047,1,0,0:0:0:0:
320,192,19197,1,0,0:0:0:0:
64,192,19197,1,0,0:0:0:0:
192,192,19347,1,0,0:0:0:0:
320,192,19347,1,0,0:0:0:0:
448,192,19497,1,0,0:0:0:0:
64,192,19497,128,0,19797:0:0:0:0:
192,192,19797,1,0,0:0:0:0:
448,192,19797,1,0,0:0:0:0:
448,192,19947,1,0,0:0:0:0:
64,192,19947,1,0,0:0:0:0:
320,192,20097,1,0,0:0:0:0:
448,192,20097,1,0,0:0:0:0:
192,192,20247,1,0,0:0:0:0:
320,192,20247,1,0,0:0:0:0:
192,192,20397,1,0,0:0:0:0:
448,192,20397,1,0,0:0:0:0:
64,192,20397,1,0,0:0:0:0:
320,192,20997,1,0,0:0:0:0:
448,192,20997,1,0,0:0:0:0:
64,192,21297,1,0,0:0:0:0:
320,192,21297,1,0,0:0:0:0:
192,192,21447,1,0,0:0:0:0:
448,192,21597,1,0,0:0:0:0:
320,192,21597,128,0,21897:0:0:0:0:
64,192,21897,128,0,22197:0:0:0:0:
320,192,22197,128,0,22647:0:0:0:0:
448,192,22197,128,0,23097:0:0:0:0:
192,192,22497,1,0,0:0:0:0:
64,192,22647,128,0,23397:0:0:0:0:
320,192,22797,1,0,0:0:0:0:
192,192,22797,1,0,0:0:0:0:
320,192,23097,128,0,23397:0:0:0:0:
192,192,23397,1,0,0:0:0:0:
448,192,23397,128,0,23697:0:0:0:0:
64,192,23697,1,0,0:0:0:0:
192,192,23847,128,0,24297:0:0:0:0:
448,192,23997,1,0,0:0:0:0:
320,192,23997,1,0,0:0:0:0:
64,192,24297,1,0,0:0:0:0:
448,192,24297,1,0,0:0:0:0:
192,192,24597,1,0,0:0:0:0:
64,192,24597,128,0,25047:0:0:0:0:
448,192,24897,1,0,0:0:0:0:
320,192,25047,128,0,25497:0:0:0:0:
192,192,25197,1,0,0:0:0:0:
64,192,25197,1,0,0:0:0:0:
448,192,25347,1,0,0:0:0:0:
192,192,25497,128,0,25797:0:0:0:0:
64,192,25797,1,0,0:0:0:0:
448,192,25797,128,0,26097:0:0:0:0:
192,192,26097,128,0,26397:0:0:0:0:
64,192,26097,1,0,0:0:0:0:
448,192,26247,1,0,0:0:0:0:
320,192,26397,128,0,26697:0:0:0:0:
64,192,26397,1,0,0:0:0:0:
448,192,26697,128,0,26997:0:0:0:0:
64,192,26697,128,0,26997:0:0:0:0:
192,192,26997,1,0,0:0:0:0:
320,192,26997,128,0,27297:0:0:0:0:
64,192,27297,1,0,0:0:0:0:
192,192,27447,128,0,27897:0:0:0:0:
320,192,27597,1,0,0:0:0:0:
448,192,27597,1,0,0:0:0:0:
448,192,27897,1,0,0:0:0:0:
64,192,27897,128,0,28197:0:0:0:0:
448,192,28197,1,0,0:0:0:0:
320,192,28197,128,0,28497:0:0:0:0:
64,192,28497,1,0,0:0:0:0:
192,192,28647,1,0,0:0:0:0:
448,192,28647,1,0,0:0:0:0:
320,192,28797,1,0,0:0:0:0:
64,192,28797,128,0,29997:0:0:0:0:
320,192,29097,1,0,0:0:0:0:
192,192,29397,1,0,0:0:0:0:
320,192,29547,1,0,0:0:0:0:
448,192,29547,1,0,0:0:0:0:
192,192,29697,1,0,0:0:0:0:
448,192,29847,1,0,0:0:0:0:
320,192,29997,1,0,0:0:0:0:
192,192,29997,1,0,0:0:0:0:
64,192,30147,1,0,0:0:0:0:
448,192,30297,1,0,0:0:0:0:
320,192,30297,1,0,0:0:0:0:
192,192,30447,1,0,0:0:0:0:
448,192,30597,1,0,0:0:0:0:
64,192,30597,128,0,31047:0:0:0:0:
192,192,30747,1,0,0:0:0:0:
448,192,30897,1,0,0:0:0:0:
320,192,31047,128,0,31497:0:0:0:0:
192,192,31047,1,0,0:0:0:0:
64,192,31197,1,0,0:0:0:0:
192,192,31347,1,0,0:0:0:0:
448,192,31497,1,0,0:0:0:0:
320,192,31647,1,0,0:0:0:0:
192,192,31797,128,0,32247:0:0:0:0:
64,192,31797,1,0,0:0:0:0:
448,192,31947,1,0,0:0:0:0:
64,192,32097,1,0,0:0:0:0:
320,192,32247,128,0,32697:0:0:0:0:
448,192,32247,1,0,0:0:0:0:
192,192,32397,1,0,0:0:0:0:
64,192,32547,1,0,0:0:0:0:
192,192,32697,1,0,0:0:0:0:
320,192,32847,1,0,0:0:0:0:
64,192,32997,128,0,33447:0:0:0:0:
448,192,32997,1,0,0:0:0:0:
320,192,33147,1,0,0:0:0:0:
192,192,33297,1,0,0:0:0:0:
448,192,33447,128,0,33897:0:0:0:0:
320,192,33447,1,0,0:0:0:0:
64,192,33597,1,0,0:0:0:0:
192,192,33747,1,0,0:0:0:0:
320,192,33897,1,0,0:0:0:0:
448,192,34047,1,0,0:0:0:0:
192,192,34197,128,0,34647:0:0:0:0:
320,192,34197,1,0,0:0:0:0:
64,192,34347,1,0,0:0:0:0:
320,192,34497,1,0,0:0:0:0:
448,192,34647,128,0,35097:0:0:0:0:
64,192,34647,1,0,0:0:0:0:
192,192,34797,1,0,0:0:0:0:
320,192,34947,1,0,0:0:0:0:
192,192,35097,1,0,0:0:0:0:
64,192,35247,1,0,0:0:0:0:
320,192,35397,1,0,0:0:0:0:
448,192,35397,128,0,35697:0:0:0:0:
64,192,35697,1,0,0:0:0:0:
448,192,35847,1,0,0:0:0:0:
192,192,35997,1,0,0:0:0:0:
320,192,35997,128,0,36297:0:0:0:0:
64,192,36147,1,0,0:0:0:0:
192,192,36297,1,0,0:0:0:0:
320,192,36447,1,0,0:0:0:0:
64,192,36597,1,0,0:0:0:0:
192,192,36597,128,0,36897:0:0:0:0:
448,192,36597,1,0,0:0:0:0:
320,192,36897,1,0,0:0:0:0:
192,192,37047,1,0,0:0:0:0:
448,192,37197,1,0,0:0:0:0:
64,192,37197,128,0,37497:0:0:0:0:
320,192,37347,1,0,0:0:0:0:
192,192,37497,1,0,0:0:0:0:
448,192,37647,1,0,0:0:0:0:
64,192,37797,1,0,0:0:0:0:
192,192,37797,1,0,0:0:0:0:
64,192,37947,1,0,0:0:0:0:
320,192,37947,1,0,0:0:0:0:
192,192,38097,1,0,0:0:0:0:
320,192,38097,1,0,0:0:0:0:
192,192,38247,1,0,0:0:0:0:
448,192,38247,1,0,0:0:0:0:
320,192,38397,1,0,0:0:0:0:
448,192,38397,1,0,0:0:0:0:
320,192,38547,1,0,0:0:0:0:
192,192,38547,1,0,0:0:0:0:
192,192,38697,1,0,0:0:0:0:
64,192,38697,1,0,0:0:0:0:
64,192,38847,1,0,0:0:0:0:
320,192,38847,1,0,0:0:0:0:
448,192,38997,1,0,0:0:0:0:
320,192,38997,1,0,0:0:0:0:
64,192,39072,1,0,0:0:0:0:
192,192,39147,1,0,0:0:0:0:
448,192,39147,1,0,0:0:0:0:
320,192,39222,1,0,0:0:0:0:
192,192,39297,1,0,0:0:0:0:
64,192,39297,1,0,0:0:0:0:
448,192,39372,1,0,0:0:0:0:
320,192,39447,1,0,0:0:0:0:
192,192,39447,1,0,0:0:0:0:
64,192,39522,1,0,0:0:0:0:
448,192,39597,1,0,0:0:0:0:
320,192,39597,1,0,0:0:0:0:
64,192,39897,1,0,0:0:0:0:
192,192,39897,1,0,0:0:0:0:
320,192,40197,1,0,0:0:0:0:
64,192,40197,1,0,0:0:0:0:
448,192,40197,128,0,40497:0:0:0:0:
192,192,40347,1,0,0:0:0:0:
64,192,40497,1,0,0:0:0:0:
192,192,40497,1,0,0:0:0:0:
320,192,40647,128,0,40947:0:0:0:0:
448,192,40797,1,0,0:0:0:0:
192,192,40797,1,0,0:0:0:0:
64,192,40947,128,0,41247:0:0:0:0:
320,192,41097,1,0,0:0:0:0:
192,192,41097,1,0,0:0:0:0:
448,192,41247,128,0,41997:0:0:0:0:
320,192,41397,1,0,0:0:0:0:
192,192,41547,128,0,41697:0:0:0:0:
64,192,41697,1,0,0:0:0:0:
320,192,41697,1,0,0:0:0:0:
192,192,41847,128,0,42147:0:0:0:0:
64,192,41997,1,0,0:0:0:0:
448,192,42147,1,0,0:0:0:0:
192,192,42297,1,0,0:0:0:0:
64,192,42297,1,0,0:0:0:0:
320,192,42297,1,0,0:0:0:0:
448,192,42447,1,0,0:0:0:0:
448,192,42597,1,0,0:0:0:0:
192,192,42597,128,0,42897:0:0:0:0:
320,192,42747,1,0,0:0:0:0:
448,192,42897,1,0,0:0:0:0:
64,192,42897,1,0,0:0:0:0:
320,192,43047,128,0,43347:0:0:0:0:
192,192,43197,1,0,0:0:0:0:
64,192,43197,1,0,0:0:0:0:
448,192,43347,128,0,43647:0:0:0:0:
192,192,43497,1,0,0:0:0:0:
320,192,43497,1,0,0:0:0:0:
64,192,43647,128,0,44397:0:0:0:0:
448,192,43797,1,0,0:0:0:0:
320,192,43947,128,0,44097:0:0:0:0:
448,192,44097,1,0,0:0:0:0:
192,192,44097,1,0,0:0:0:0:
320,192,44247,128,0,44547:0:0:0:0:
192,192,44397,1,0,0:0:0:0:
448,192,44547,1,0,0:0:0:0:
320,192,44697,1,0,0:0:0:0:
192,192,44697,1,0,0:0:0:0:
64,192,44697,128,0,44997:0:0:0:0:
448,192,44847,1,0,0:0:0:0:
192,192,44997,1,0,0:0:0:0:
320,192,44997,128,0,45297:0:0:0:0:
64,192,45147,1,0,0:0:0:0:
192,192,45297,1,0,0:0:0:0:
448,192,45297,1,0,0:0:0:0:
320,192,45447,128,0,45747:0:0:0:0:
192,192,45597,1,0,0:0:0:0:
448,192,45597,1,0,0:0:0:0:
64,192,45747,128,0,46047:0:0:0:0:
320,192,45897,1,0,0:0:0:0:
448,192,45897,1,0,0:0:0:0:
192,192,46047,128,0,46497:0:0:0:0:
448,192,46197,1,0,0:0:0:0:
64,192,46197,1,0,0:0:0:0:
320,192,46347,1,0,0:0:0:0:
448,192,46497,1,0,0:0:0:0:
320,192,46497,1,0,0:0:0:0:
64,192,46647,1,0,0:0:0:0:
192,192,46797,128,0,47397:0:0:0:0:
448,192,46797,128,0,47097:0:0:0:0:
64,192,46947,1,0,0:0:0:0:
320,192,47097,1,0,0:0:0:0:
64,192,47097,1,0,0:0:0:0:
448,192,47247,1,0,0:0:0:0:
64,192,47397,128,0,47997:0:0:0:0:
320,192,47397,128,0,47697:0:0:0:0:
448,192,47547,1,0,0:0:0:0:
192,192,47697,1,0,0:0:0:0:
448,192,47697,1,0,0:0:0:0:
320,192,47847,1,0,0:0:0:0:
448,192,47997,128,0,48597:0:0:0:0:
192,192,47997,128,0,48297:0:0:0:0:
320,192,48147,1,0,0:0:0:0:
320,192,48297,1,0,0:0:0:0:
64,192,48297,1,0,0:0:0:0:
192,192,48447,1,0,0:0:0:0:
320,192,48597,128,0,49197:0:0:0:0:
64,192,48597,128,0,48897:0:0:0:0:
192,192,48747,1,0,0:0:0:0:
448,192,48897,1,0,0:0:0:0:
192,192,48897,1,0,0:0:0:0:
64,192,49047,1,0,0:0:0:0:
192,192,49197,1,0,0:0:0:0:
64,192,49197,1,0,0:0:0:0:
320,192,49347,1,0,0:0:0:0:
448,192,49347,1,0,0:0:0:0:
192,192,49497,1,0,0:0:0:0:
64,192,49497,1,0,0:0:0:0:
448,192,49497,1,0,0:0:0:0:
320,192,49647,1,0,0:0:0:0:
192,192,49647,1,0,0:0:0:0:
320,192,49797,1,0,0:0:0:0:
64,192,49797,128,0,50097:0:0:0:0:
448,192,49797,128,0,49947:0:0:0:0:
192,192,49947,1,0,0:0:0:0:
320,192,50097,1,0,0:0:0:0:
448,192,50097,1,0,0:0:0:0:
64,192,50247,1,0,0:0:0:0:
192,192,50247,128,0,50547:0:0:0:0:
320,192,50397,1,0,0:0:0:0:
448,192,50397,1,0,0:0:0:0:
448,192,50547,128,0,50847:0:0:0:0:
64,192,50697,1,0,0:0:0:0:
320,192,50697,1,0,0:0:0:0:
192,192,50847,128,0,51597:0:0:0:0:
64,192,50997,1,0,0:0:0:0:
448,192,51147,128,0,51297:0:0:0:0:
320,192,51297,1,0,0:0:0:0:
64,192,51297,1,0,0:0:0:0:
448,192,51447,128,0,51747:0:0:0:0:
320,192,51597,1,0,0:0:0:0:
192,192,51747,1,0,0:0:0:0:
64,192,51747,1,0,0:0:0:0:
64,192,51897,1,0,0:0:0:0:
320,192,51897,1,0,0:0:0:0:
448,192,51897,1,0,0:0:0:0:
192,192,52047,1,0,0:0:0:0:
448,192,52047,1,0,0:0:0:0:
320,192,52197,128,0,52497:0:0:0:0:
64,192,52197,128,0,52347:0:0:0:0:
192,192,52347,1,0,0:0:0:0:
64,192,52497,1,0,0:0:0:0:
448,192,52497,1,0,0:0:0:0:
448,192,52647,1,0,0:0:0:0:
192,192,52647,128,0,52947:0:0:0:0:
320,192,52797,1,0,0:0:0:0:
64,192,52797,1,0,0:0:0:0:
448,192,52947,128,0,53247:0:0:0:0:
64,192,53097,1,0,0:0:0:0:
192,192,53097,1,0,0:0:0:0:
320,192,53247,128,0,53997:0:0:0:0:
192,192,53397,1,0,0:0:0:0:
64,192,53547,128,0,53697:0:0:0:0:
448,192,53697,1,0,0:0:0:0:
192,192,53697,1,0,0:0:0:0:
64,192,53847,128,0,54147:0:0:0:0:
448,192,53997,1,0,0:0:0:0:
320,192,54147,1,0,0:0:0:0:
192,192,54297,1,0,0:0:0:0:
64,192,54297,1,0,0:0:0:0:
448,192,54297,1,0,0:0:0:0:
448,192,54597,1,0,0:0:0:0:
64,192,54597,1,0,0:0:0:0:
320,192,54597,128,0,54897:0:0:0:0:
64,192,54897,1,0,0:0:0:0:
448,192,54897,1,0,0:0:0:0:
192,192,54897,1,0,0:0:0:0:
448,192,55197,1,0,0:0:0:0:
192,192,55197,128,0,55497:0:0:0:0:
320,192,55197,1,0,0:0:0:0:
64,192,55497,1,0,0:0:0:0:
320,192,55497,1,0,0:0:0:0:
448,192,55497,1,0,0:0:0:0:
320,192,55797,1,0,0:0:0:0:
448,192,55797,128,0,56097:0:0:0:0:
64,192,55797,1,0,0:0:0:0:
192,192,56097,1,0,0:0:0:0:
320,192,56097,1,0,0:0:0:0:
64,192,56097,1,0,0:0:0:0:
320,192,56397,1,0,0:0:0:0:
64,192,56397,128,0,56697:0:0:0:0:
448,192,56397,1,0,0:0:0:0:
320,192,56697,1,0,0:0:0:0:
192,192,56697,1,0,0:0:0:0:
448,192,56697,1,0,0:0:0:0:
320,192,56847,1,0,0:0:0:0:
64,192,56847,1,0,0:0:0:0:
192,192,56997,1,0,0:0:0:0:
64,192,56997,1,0,0:0:0:0:
448,192,56997,128,0,57297:0:0:0:0:
320,192,57297,128,0,57597:0:0:0:0:
64,192,57447,1,0,0:0:0:0:
64,192,57597,1,0,0:0:0:0:
192,192,57597,128,0,57897:0:0:0:0:
448,192,57597,128,0,58197:0:0:0:0:
64,192,57897,128,0,58197:0:0:0:0:
320,192,58047,1,0,0:0:0:0:
192,192,58047,1,0,0:0:0:0:
320,192,58197,128,0,58497:0:0:0:0:
64,192,58347,1,0,0:0:0:0:
192,192,58347,1,0,0:0:0:0:
448,192,58497,1,0,0:0:0:0:
64,192,58497,128,0,58797:0:0:0:0:
320,192,58647,1,0,0:0:0:0:
192,192,58797,1,0,0:0:0:0:
448,192,58797,128,0,59097:0:0:0:0:
320,192,58872,1,0,0:0:0:0:
64,192,58947,1,0,0:0:0:0:
192,192,59022,1,0,0:0:0:0:
64,192,59097,1,0,0:0:0:0:
320,192,59097,128,0,59397:0:0:0:0:
64,192,59397,128,0,60597:0:0:0:0:
192,192,59397,1,0,0:0:0:0:
448,192,59397,1,0,0:0:0:0:
192,192,59847,1,0,0:0:0:0:
320,192,59997,1,0,0:0:0:0:
448,192,59997,1,0,0:0:0:0:
320,192,60297,1,0,0:0:0:0:
448,192,60597,128,0,61797:0:0:0:0:
320,192,60597,1,0,0:0:0:0:
192,192,60747,1,0,0:0:0:0:
64,192,60747,1,0,0:0:0:0:
320,192,60897,1,0,0:0:0:0:
192,192,61047,1,0,0:0:0:0:
64,192,61197,1,0,0:0:0:0:
320,192,61197,1,0,0:0:0:0:
192,192,61197,1,0,0:0:0:0:
64,192,61347,1,0,0:0:0:0:
320,192,61497,1,0,0:0:0:0:
192,192,61497,1,0,0:0:0:0:
192,192,61647,1,0,0:0:0:0:
320,192,61797,1,0,0:0:0:0:
64,192,61797,128,0,62097:0:0:0:0:
192,192,62097,1,0,0:0:0:0:
320,192,62247,128,0,62997:0:0:0:0:
448,192,62247,128,0,63897:0:0:0:0:
64,192,62997,1,0,0:0:0:0:
64,192,63297,1,0,0:0:0:0:
320,192,63297,1,0,0:0:0:0:
192,192,63597,1,0,0:0:0:0:
320,192,63672,1,0,0:0:0:0:
64,192,63747,1,0,0:0:0:0:
192,192,63822,1,0,0:0:0:0:
64,192,63897,1,0,0:0:0:0:
320,192,63897,1,0,0:0:0:0:
64,192,64197,1,0,0:0:0:0:
192,192,64197,1,0,0:0:0:0:
448,192,64197,128,0,64347:0:0:0:0:
320,192,64347,128,0,64497:0:0:0:0:
64,192,64497,128,0,64647:0:0:0:0:
192,192,64497,1,0,0:0:0:0:
448,192,64497,1,0,0:0:0:0:
448,192,64647,128,0,64797:0:0:0:0:
320,192,64797,128,0,64947:0:0:0:0:
192,192,64797,1,0,0:0:0:0:
64,192,64947,128,0,65097:0:0:0:0:
448,192,65097,128,0,65247:0:0:0:0:
192,192,65097,1,0,0:0:0:0:
320,192,65097,1,0,0:0:0:0:
320,192,65247,128,0,65397:0:0:0:0:
64,192,65397,128,0,65472:0:0:0:0:
448,192,65472,128,0,65547:0:0:0:0:
320,192,65547,128,0,65622:0:0:0:0:
192,192,65622,128,0,65697:0:0:0:0:
448,192,65697,1,0,0:0:0:0:
64,192,65697,1,0,0:0:0:0:
320,192,65772,1,0,0:0:0:0:
192,192,65847,128,0,66297:0:0:0:0:
64,192,65997,1,0,0:0:0:0:
448,192,66147,1,0,0:0:0:0:
448,192,66297,1,0,0:0:0:0:
320,192,66297,128,0,66597:0:0:0:0:
64,192,66447,1,0,0:0:0:0:
64,192,66597,1,0,0:0:0:0:
192,192,66597,128,0,66897:0:0:0:0:
448,192,66597,128,0,66747:0:0:0:0:
320,192,66747,1,0,0:0:0:0:
448,192,66897,128,0,67197:0:0:0:0:
64,192,66897,128,0,67047:0:0:0:0:
192,192,67047,128,0,67347:0:0:0:0:
320,192,67197,1,0,0:0:0:0:
448,192,67347,128,0,67647:0:0:0:0:
320,192,67497,1,0,0:0:0:0:
64,192,67497,1,0,0:0:0:0:
192,192,67497,1,0,0:0:0:0:
64,192,67647,1,0,0:0:0:0:
448,192,67797,1,0,0:0:0:0:
192,192,67797,128,0,67947:0:0:0:0:
320,192,67947,128,0,68097:0:0:0:0:
192,192,68097,128,0,68247:0:0:0:0:
64,192,68097,1,0,0:0:0:0:
448,192,68097,1,0,0:0:0:0:
64,192,68247,128,0,68697:0:0:0:0:
320,192,68397,1,0,0:0:0:0:
448,192,68397,1,0,0:0:0:0:
192,192,68547,1,0,0:0:0:0:
192,192,68697,1,0,0:0:0:0:
448,192,68697,1,0,0:0:0:0:
320,192,68697,1,0,0:0:0:0:
320,192,68847,1,0,0:0:0:0:
192,192,68997,1,0,0:0:0:0:
64,192,68997,1,0,0:0:0:0:
448,192,68997,128,0,69147:0:0:0:0:
320,192,69147,128,0,69297:0:0:0:0:
64,192,69297,128,0,69447:0:0:0:0:
192,192,69297,1,0,0:0:0:0:
448,192,69297,1,0,0:0:0:0:
448,192,69447,128,0,69597:0:0:0:0:
320,192,69597,128,0,69747:0:0:0:0:
64,192,69597,1,0,0:0:0:0:
192,192,69747,128,0,69897:0:0:0:0:
448,192,69897,128,0,70047:0:0:0:0:
320,192,69897,1,0,0:0:0:0:
64,192,69897,1,0,0:0:0:0:
320,192,70047,128,0,70197:0:0:0:0:
64,192,70197,128,0,70347:0:0:0:0:
192,192,70197,1,0,0:0:0:0:
448,192,70347,128,0,70497:0:0:0:0:
192,192,70497,128,0,70647:0:0:0:0:
320,192,70497,1,0,0:0:0:0:
64,192,70497,1,0,0:0:0:0:
64,192,70647,128,0,70797:0:0:0:0:
448,192,70797,128,0,70947:0:0:0:0:
192,192,70797,1,0,0:0:0:0:
320,192,70947,128,0,71097:0:0:0:0:
192,192,71097,128,0,71247:0:0:0:0:
64,192,71097,1,0,0:0:0:0:
448,192,71097,1,0,0:0:0:0:
320,192,71247,128,0,71397:0:0:0:0:
448,192,71397,128,0,71547:0:0:0:0:
64,192,71397,128,0,71547:0:0:0:0:
192,192,71547,128,0,71697:0:0:0:0:
64,192,71697,128,0,71847:0:0:0:0:
320,192,71697,1,0,0:0:0:0:
448,192,71697,128,0,71847:0:0:0:0:
320,192,71847,128,0,71997:0:0:0:0:
192,192,71997,128,0,72147:0:0:0:0:
448,192,71997,128,0,72147:0:0:0:0:
64,192,72147,128,0,72297:0:0:0:0:
448,192,72297,128,0,72447:0:0:0:0:
320,192,72297,1,0,0:0:0:0:
192,192,72297,128,0,72447:0:0:0:0:
320,192,72447,128,0,72822:0:0:0:0:
192,192,72597,128,0,72822:0:0:0:0:
64,192,72597,128,0,72822:0:0:0:0:
448,192,72747,128,0,73122:0:0:0:0:
192,192,72897,128,0,73272:0:0:0:0:
320,192,72897,128,0,73122:0:0:0:0:
64,192,72897,1,0,0:0:0:0:
64,192,73047,128,0,73422:0:0:0:0:
320,192,73197,128,0,73422:0:0:0:0:
448,192,73197,128,0,73422:0:0:0:0:
192,192,73347,128,0,73572:0:0:0:0:
448,192,73497,128,0,73722:0:0:0:0:
320,192,73497,128,0,73722:0:0:0:0:
64,192,73497,128,0,73722:0:0:0:0:
192,192,73647,128,0,73797:0:0:0:0:
448,192,73797,128,0,76197:0:0:0:0:
64,192,73797,1,0,0:0:0:0:
320,192,73797,1,0,0:0:0:0:
192,192,74397,1,0,0:0:0:0:
192,192,74997,1,0,0:0:0:0:
192,192,75597,1,0,0:0:0:0:
64,192,76197,128,0,78297:0:0:0:0:
192,192,76197,1,0,0:0:0:0:
320,192,76797,1,0,0:0:0:0:
320,192,77397,1,0,0:0:0:0:
320,192,77997,1,0,0:0:0:0:
192,192,78072,1,0,0:0:0:0:
448,192,78147,1,0,0:0:0:0:
320,192,78222,1,0,0:0:0:0:
192,192,78297,1,0,0:0:0:0:
192,192,78447,1,0,0:0:0:0:
320,192,78597,1,0,0:0:0:0:
448,192,78597,1,0,0:0:0:0:
64,192,78897,1,0,0:0:0:0:
64,192,79497,1,0,0:0:0:0:
320,192,79947,128,0,80097:0:0:0:0:
64,192,80097,1,0,0:0:0:0:
320,192,80247,128,0,80697:0:0:0:0:
64,192,80697,1,0,0:0:0:0:
448,192,81297,1,0,0:0:0:0:
448,192,81897,1,0,0:0:0:0:
192,192,82347,128,0,82497:0:0:0:0:
448,192,82497,1,0,0:0:0:0:
192,192,82647,128,0,83097:0:0:0:0:
448,192,83097,1,0,0:0:0:0:
192,192,83697,1,0,0:0:0:0:
192,192,84297,1,0,0:0:0:0:
192,192,84897,1,0,0:0:0:0:
192,192,85497,1,0,0:0:0:0:
320,192,86097,1,0,0:0:0:0:
320,192,86697,1,0,0:0:0:0:
64,192,87147,1,0,0:0:0:0:
320,192,87297,1,0,0:0:0:0:
448,192,87297,1,0,0:0:0:0:
64,192,87597,1,0,0:0:0:0:
192,192,87672,1,0,0:0:0:0:
64,192,87747,1,0,0:0:0:0:
192,192,87822,1,0,0:0:0:0:
320,192,87897,1,0,0:0:0:0:
448,192,87897,1,0,0:0:0:0:
64,192,88197,1,0,0:0:0:0:
192,192,88197,1,0,0:0:0:0:
448,192,88197,1,0,0:0:0:0:
448,192,88347,128,0,88497:0:0:0:0:
320,192,88497,1,0,0:0:0:0:
64,192,88497,1,0,0:0:0:0:
192,192,88647,128,0,88797:0:0:0:0:
320,192,88797,1,0,0:0:0:0:
448,192,88797,1,0,0:0:0:0:
192,192,88947,128,0,89097:0:0:0:0:
64,192,89097,1,0,0:0:0:0:
448,192,89097,1,0,0:0:0:0:
320,192,89247,128,0,89997:0:0:0:0:
64,192,89397,1,0,0:0:0:0:
192,192,89547,128,0,89697:0:0:0:0:
448,192,89697,1,0,0:0:0:0:
192,192,89847,128,0,90147:0:0:0:0:
64,192,89997,1,0,0:0:0:0:
320,192,90147,1,0,0:0:0:0:
192,192,90297,1,0,0:0:0:0:
448,192,90297,1,0,0:0:0:0:
448,192,90597,1,0,0:0:0:0:
320,192,90597,1,0,0:0:0:0:
64,192,90597,1,0,0:0:0:0:
64,192,90747,128,0,90897:0:0:0:0:
192,192,90897,1,0,0:0:0:0:
448,192,90897,1,0,0:0:0:0:
320,192,91047,128,0,91197:0:0:0:0:
192,192,91197,1,0,0:0:0:0:
64,192,91197,1,0,0:0:0:0:
320,192,91347,128,0,91497:0:0:0:0:
448,192,91497,1,0,0:0:0:0:
192,192,91497,1,0,0:0:0:0:
64,192,91647,128,0,92397:0:0:0:0:
320,192,91797,1,0,0:0:0:0:
448,192,91947,128,0,92097:0:0:0:0:
192,192,92097,1,0,0:0:0:0:
448,192,92247,128,0,92547:0:0:0:0:
320,192,92397,1,0,0:0:0:0:
64,192,92547,1,0,0:0:0:0:
448,192,92697,1,0,0:0:0:0:
192,192,92697,1,0,0:0:0:0:
64,192,92997,1,0,0:0:0:0:
192,192,92997,1,0,0:0:0:0:
448,192,92997,1,0,0:0:0:0:
320,192,92997,128,0,93297:0:0:0:0:
64,192,93297,1,0,0:0:0:0:
192,192,93297,1,0,0:0:0:0:
448,192,93297,1,0,0:0:0:0:
448,192,93597,1,0,0:0:0:0:
320,192,93597,1,0,0:0:0:0:
64,192,93597,1,0,0:0:0:0:
192,192,93597,128,0,93897:0:0:0:0:
64,192,93897,1,0,0:0:0:0:
320,192,93897,1,0,0:0:0:0:
448,192,93897,1,0,0:0:0:0:
192,192,94197,1,0,0:0:0:0:
64,192,94197,1,0,0:0:0:0:
320,192,94197,1,0,0:0:0:0:
448,192,94197,128,0,94497:0:0:0:0:
64,192,94497,1,0,0:0:0:0:
192,192,94497,1,0,0:0:0:0:
320,192,94497,1,0,0:0:0:0:
320,192,94797,1,0,0:0:0:0:
448,192,94797,1,0,0:0:0:0:
192,192,94797,1,0,0:0:0:0:
64,192,94797,128,0,95097:0:0:0:0:
192,192,95097,1,0,0:0:0:0:
320,192,95097,1,0,0:0:0:0:
448,192,95097,1,0,0:0:0:0:
64,192,95397,128,0,96447:0:0:0:0:
192,192,95397,128,0,96447:0:0:0:0:
448,192,95397,128,0,96447:0:0:0:0:
320,192,95397,128,0,96447:0:0:0:0:
64,192,96597,1,0,0:0:0:0:
192,192,96597,1,0,0:0:0:0:
320,192,96597,1,0,0:0:0:0:
448,192,96597,1,0,0:0:0:0:
64,192,96897,1,0,0:0:0:0:
192,192,96897,1,0,0:0:0:0:
320,192,96897,1,0,0:0:0:0:
448,192,96897,1,0,0:0:0:0:
448,192,97197,1,0,0:0:0:0:
64,192,97197,1,0,0:0:0:0:
320,192,97272,1,0,0:0:0:0:
192,192,97347,1,0,0:0:0:0:
64,192,97422,1,0,0:0:0:0:
320,192,97497,1,0,0:0:0:0:
448,192,97497,1,0,0:0:0:0:
192,192,97797,1,0,0:0:0:0:
448,192,97797,1,0,0:0:0:0:
64,192,97797,128,0,98097:0:0:0:0:
320,192,97947,1,0,0:0:0:0:
320,192,98097,1,0,0:0:0:0:
448,192,98097,1,0,0:0:0:0:
192,192,98247,128,0,98547:0:0:0:0:
64,192,98397,1,0,0:0:0:0:
320,192,98397,1,0,0:0:0:0:
448,192,98547,128,0,98847:0:0:0:0:
192,192,98697,1,0,0:0:0:0:
320,192,98697,1,0,0:0:0:0:
64,192,98847,128,0,99597:0:0:0:0:
192,192,98997,1,0,0:0:0:0:
320,192,99147,128,0,99297:0:0:0:0:
448,192,99297,1,0,0:0:0:0:
192,192,99297,1,0,0:0:0:0:
320,192,99447,128,0,99747:0:0:0:0:
448,192,99597,1,0,0:0:0:0:
64,192,99747,1,0,0:0:0:0:
320,192,99897,1,0,0:0:0:0:
192,192,99897,1,0,0:0:0:0:
448,192,99897,1,0,0:0:0:0:
64,192,100047,1,0,0:0:0:0:
64,192,100197,1,0,0:0:0:0:
320,192,100197,128,0,100497:0:0:0:0:
192,192,100347,1,0,0:0:0:0:
448,192,100497,1,0,0:0:0:0:
64,192,100497,1,0,0:0:0:0:
192,192,100647,128,0,100947:0:0:0:0:
320,192,100797,1,0,0:0:0:0:
448,192,100797,1,0,0:0:0:0:
64,192,100947,128,0,101247:0:0:0:0:
192,192,101097,1,0,0:0:0:0:
320,192,101097,1,0,0:0:0:0:
448,192,101247,128,0,101997:0:0:0:0:
64,192,101397,1,0,0:0:0:0:
192,192,101547,128,0,101697:0:0:0:0:
320,192,101697,1,0,0:0:0:0:
64,192,101697,1,0,0:0:0:0:
192,192,101847,128,0,102147:0:0:0:0:
320,192,101997,1,0,0:0:0:0:
64,192,102147,1,0,0:0:0:0:
192,192,102297,1,0,0:0:0:0:
448,192,102297,128,0,102597:0:0:0:0:
320,192,102297,1,0,0:0:0:0:
64,192,102447,1,0,0:0:0:0:
192,192,102597,128,0,102897:0:0:0:0:
320,192,102597,1,0,0:0:0:0:
448,192,102747,1,0,0:0:0:0:
320,192,102897,1,0,0:0:0:0:
64,192,102897,1,0,0:0:0:0:
192,192,103047,128,0,103347:0:0:0:0:
64,192,103197,1,0,0:0:0:0:
320,192,103197,1,0,0:0:0:0:
448,192,103347,128,0,103647:0:0:0:0:
64,192,103497,1,0,0:0:0:0:
192,192,103497,1,0,0:0:0:0:
320,192,103647,128,0,104097:0:0:0:0:
448,192,103797,1,0,0:0:0:0:
64,192,103797,1,0,0:0:0:0:
192,192,103947,1,0,0:0:0:0:
64,192,104097,1,0,0:0:0:0:
192,192,104097,1,0,0:0:0:0:
448,192,104247,1,0,0:0:0:0:
64,192,104397,128,0,104697:0:0:0:0:
320,192,104397,128,0,104997:0:0:0:0:
448,192,104547,1,0,0:0:0:0:
192,192,104697,1,0,0:0:0:0:
448,192,104697,1,0,0:0:0:0:
64,192,104847,1,0,0:0:0:0:
448,192,104997,128,0,105597:0:0:0:0:
192,192,104997,128,0,105297:0:0:0:0:
64,192,105147,1,0,0:0:0:0:
64,192,105297,1,0,0:0:0:0:
320,192,105297,1,0,0:0:0:0:
192,192,105447,1,0,0:0:0:0:
64,192,105597,128,0,106197:0:0:0:0:
320,192,105597,128,0,105897:0:0:0:0:
192,192,105747,1,0,0:0:0:0:
448,192,105897,1,0,0:0:0:0:
192,192,105897,1,0,0:0:0:0:
320,192,106047,1,0,0:0:0:0:
448,192,106197,128,0,106497:0:0:0:0:
192,192,106197,128,0,106797:0:0:0:0:
320,192,106347,1,0,0:0:0:0:
64,192,106497,1,0,0:0:0:0:
320,192,106497,1,0,0:0:0:0:
448,192,106647,1,0,0:0:0:0:
448,192,106797,1,0,0:0:0:0:
320,192,106797,1,0,0:0:0:0:
64,192,106947,1,0,0:0:0:0:
192,192,106947,1,0,0:0:0:0:
320,192,107097,1,0,0:0:0:0:
64,192,107097,1,0,0:0:0:0:
448,192,107097,1,0,0:0:0:0:
320,192,107247,1,0,0:0:0:0:
192,192,107247,1,0,0:0:0:0:
448,192,107397,128,0,107697:0:0:0:0:
64,192,107397,128,0,107547:0:0:0:0:
192,192,107397,1,0,0:0:0:0:
320,192,107547,1,0,0:0:0:0:
192,192,107697,1,0,0:0:0:0:
64,192,107697,1,0,0:0:0:0:
320,192,107847,128,0,108147:0:0:0:0:
448,192,107847,1,0,0:0:0:0:
192,192,107997,1,0,0:0:0:0:
64,192,107997,1,0,0:0:0:0:
64,192,108147,128,0,108447:0:0:0:0:
192,192,108297,1,0,0:0:0:0:
448,192,108297,1,0,0:0:0:0:
320,192,108447,128,0,109197:0:0:0:0:
448,192,108597,1,0,0:0:0:0:
64,192,108747,128,0,108897:0:0:0:0:
448,192,108897,1,0,0:0:0:0:
192,192,108897,1,0,0:0:0:0:
64,192,109047,128,0,109347:0:0:0:0:
192,192,109197,1,0,0:0:0:0:
320,192,109347,1,0,0:0:0:0:
448,192,109347,1,0,0:0:0:0:
448,192,109497,1,0,0:0:0:0:
192,192,109497,1,0,0:0:0:0:
64,192,109497,1,0,0:0:0:0:
320,192,109647,1,0,0:0:0:0:
64,192,109647,1,0,0:0:0:0:
448,192,109797,128,0,109947:0:0:0:0:
192,192,109797,128,0,110097:0:0:0:0:
320,192,109947,1,0,0:0:0:0:
448,192,110097,1,0,0:0:0:0:
64,192,110097,1,0,0:0:0:0:
320,192,110247,128,0,110547:0:0:0:0:
64,192,110247,1,0,0:0:0:0:
192,192,110397,1,0,0:0:0:0:
448,192,110397,1,0,0:0:0:0:
64,192,110547,128,0,110847:0:0:0:0:
448,192,110697,1,0,0:0:0:0:
320,192,110697,1,0,0:0:0:0:
192,192,110847,128,0,111597:0:0:0:0:
320,192,110997,1,0,0:0:0:0:
448,192,111147,128,0,111297:0:0:0:0:
320,192,111297,1,0,0:0:0:0:
64,192,111297,1,0,0:0:0:0:
448,192,111447,128,0,111747:0:0:0:0:
64,192,111597,1,0,0:0:0:0:
192,192,111747,1,0,0:0:0:0:
64,192,111897,1,0,0:0:0:0:
448,192,111897,1,0,0:0:0:0:
320,192,111897,1,0,0:0:0:0:
64,192,112197,1,0,0:0:0:0:
192,192,112197,128,0,112497:0:0:0:0:
448,192,112197,1,0,0:0:0:0:
448,192,112497,1,0,0:0:0:0:
320,192,112497,1,0,0:0:0:0:
64,192,112497,1,0,0:0:0:0:
64,192,112797,1,0,0:0:0:0:
320,192,112797,128,0,113097:0:0:0:0:
192,192,112797,1,0,0:0:0:0:
448,192,113097,1,0,0:0:0:0:
192,192,113097,1,0,0:0:0:0:
64,192,113097,1,0,0:0:0:0:
64,192,113397,128,0,113697:0:0:0:0:
448,192,113397,1,0,0:0:0:0:
192,192,113397,1,0,0:0:0:0:
192,192,113697,1,0,0:0:0:0:
448,192,113697,1,0,0:0:0:0:
320,192,113697,1,0,0:0:0:0:
64,192,113997,1,0,0:0:0:0:
448,192,113997,128,0,114297:0:0:0:0:
192,192,113997,1,0,0:0:0:0:
192,192,114297,1,0,0:0:0:0:
320,192,114297,1,0,0:0:0:0:
64,192,114297,1,0,0:0:0:0:
448,192,114447,1,0,0:0:0:0:
192,192,114447,1,0,0:0:0:0:
448,192,114597,1,0,0:0:0:0:
64,192,114597,128,0,114897:0:0:0:0:
320,192,114597,1,0,0:0:0:0:
192,192,114597,1,0,0:0:0:0:
192,192,114897,128,0,115197:0:0:0:0:
448,192,115047,1,0,0:0:0:0:
448,192,115197,1,0,0:0:0:0:
320,192,115197,128,0,115497:0:0:0:0:
64,192,115197,128,0,115797:0:0:0:0:
448,192,115497,128,0,115797:0:0:0:0:
192,192,115647,1,0,0:0:0:0:
320,192,115647,1,0,0:0:0:0:
192,192,115797,128,0,116097:0:0:0:0:
320,192,115947,1,0,0:0:0:0:
448,192,115947,1,0,0:0:0:0:
448,192,116097,128,0,116397:0:0:0:0:
64,192,116097,1,0,0:0:0:0:
192,192,116247,1,0,0:0:0:0:
320,192,116397,1,0,0:0:0:0:
64,192,116397,128,0,116697:0:0:0:0:
192,192,116472,1,0,0:0:0:0:
448,192,116547,1,0,0:0:0:0:
320,192,116622,1,0,0:0:0:0:
448,192,116697,1,0,0:0:0:0:
192,192,116697,128,0,116997:0:0:0:0:
448,192,116997,128,0,118197:0:0:0:0:
320,192,116997,1,0,0:0:0:0:
64,192,116997,1,0,0:0:0:0:
192,192,117447,1,0,0:0:0:0:
64,192,117597,1,0,0:0:0:0:
192,192,117597,1,0,0:0:0:0:
320,192,117597,1,0,0:0:0:0:
192,192,117897,1,0,0:0:0:0:
64,192,118197,128,0,119397:0:0:0:0:
192,192,118197,1,0,0:0:0:0:
320,192,118347,1,0,0:0:0:0:
448,192,118347,1,0,0:0:0:0:
192,192,118497,1,0,0:0:0:0:
320,192,118647,1,0,0:0:0:0:
448,192,118797,1,0,0:0:0:0:
320,192,118797,1,0,0:0:0:0:
192,192,118797,1,0,0:0:0:0:
448,192,118947,1,0,0:0:0:0:
192,192,119097,1,0,0:0:0:0:
320,192,119097,1,0,0:0:0:0:
320,192,119247,1,0,0:0:0:0:
192,192,119397,1,0,0:0:0:0:
448,192,119397,128,0,119697:0:0:0:0:
320,192,119397,1,0,0:0:0:0:
320,192,119697,1,0,0:0:0:0:
192,192,119847,128,0,120597:0:0:0:0:
64,192,119847,128,0,121497:0:0:0:0:
448,192,120597,1,0,0:0:0:0:
192,192,120897,1,0,0:0:0:0:
448,192,120897,1,0,0:0:0:0:
320,192,121197,1,0,0:0:0:0:
192,192,121272,1,0,0:0:0:0:
448,192,121347,1,0,0:0:0:0:
320,192,121422,1,0,0:0:0:0:
448,192,121497,1,0,0:0:0:0:
192,192,121497,1,0,0:0:0:0:
64,192,121797,5,0,0:0:0:0:
192,192,121797,1,0,0:0:0:0:
448,192,121947,1,0,0:0:0:0:
192,192,122097,128,0,122397:0:0:0:0:
320,192,122097,1,0,0:0:0:0:
448,192,122247,1,0,0:0:0:0:
320,192,122397,128,0,122697:0:0:0:0:
448,192,122397,1,0,0:0:0:0:
192,192,122547,1,0,0:0:0:0:
192,192,122697,1,0,0:0:0:0:
64,192,122697,1,0,0:0:0:0:
448,192,122847,128,0,123147:0:0:0:0:
320,192,122847,1,0,0:0:0:0:
192,192,123147,1,0,0:0:0:0:
64,192,123297,1,0,0:0:0:0:
320,192,123297,1,0,0:0:0:0:
448,192,123447,1,0,0:0:0:0:
64,192,123597,1,0,0:0:0:0:
192,192,123597,1,0,0:0:0:0:
320,192,123747,1,0,0:0:0:0:
448,192,123822,1,0,0:0:0:0:
64,192,123897,1,0,0:0:0:0:
192,192,123897,1,0,0:0:0:0:
192,192,124047,1,0,0:0:0:0:
448,192,124047,1,0,0:0:0:0:
320,192,124197,1,0,0:0:0:0:
448,192,124197,1,0,0:0:0:0:
64,192,124347,1,0,0:0:0:0:
448,192,124497,1,0,0:0:0:0:
192,192,124497,128,0,124797:0:0:0:0:
320,192,124647,1,0,0:0:0:0:
64,192,124797,128,0,125097:0:0:0:0:
448,192,124797,1,0,0:0:0:0:
320,192,124947,1,0,0:0:0:0:
320,192,125097,1,0,0:0:0:0:
448,192,125097,1,0,0:0:0:0:
192,192,125247,128,0,125547:0:0:0:0:
64,192,125247,1,0,0:0:0:0:
448,192,125547,1,0,0:0:0:0:
320,192,125697,1,0,0:0:0:0:
192,192,125697,1,0,0:0:0:0:
64,192,125847,1,0,0:0:0:0:
64,192,125997,1,0,0:0:0:0:
448,192,125997,1,0,0:0:0:0:
192,192,125997,1,0,0:0:0:0:
448,192,126297,1,0,0:0:0:0:
64,192,126297,1,0,0:0:0:0:
320,192,126297,1,0,0:0:0:0:
64,192,126597,1,0,0:0:0:0:
448,192,126597,1,0,0:0:0:0:
320,192,126747,1,0,0:0:0:0:
192,192,126897,1,0,0:0:0:0:
320,192,126897,128,0,127197:0:0:0:0:
64,192,127047,1,0,0:0:0:0:
448,192,127197,128,0,127497:0:0:0:0:
192,192,127197,1,0,0:0:0:0:
320,192,127347,1,0,0:0:0:0:
64,192,127347,1,0,0:0:0:0:
64,192,127497,1,0,0:0:0:0:
192,192,127497,1,0,0:0:0:0:
192,192,127647,128,0,127947:0:0:0:0:
448,192,127647,1,0,0:0:0:0:
320,192,127947,1,0,0:0:0:0:
64,192,128097,1,0,0:0:0:0:
192,192,128097,1,0,0:0:0:0:
448,192,128247,1,0,0:0:0:0:
192,192,128397,1,0,0:0:0:0:
320,192,128397,1,0,0:0:0:0:
64,192,128547,1,0,0:0:0:0:
192,192,128622,1,0,0:0:0:0:
320,192,128697,1,0,0:0:0:0:
448,192,128697,1,0,0:0:0:0:
64,192,128847,1,0,0:0:0:0:
320,192,128847,1,0,0:0:0:0:
64,192,128997,1,0,0:0:0:0:
192,192,128997,1,0,0:0:0:0:
448,192,129147,1,0,0:0:0:0:
192,192,129297,128,0,129597:0:0:0:0:
448,192,129297,1,0,0:0:0:0:
320,192,129447,1,0,0:0:0:0:
64,192,129597,128,0,129897:0:0:0:0:
448,192,129597,1,0,0:0:0:0:
192,192,129747,5,0,0:0:0:0:
320,192,129897,1,0,0:0:0:0:
448,192,129897,1,0,0:0:0:0:
64,192,130047,1,0,0:0:0:0:
320,192,130047,1,0,0:0:0:0:
192,192,130347,1,0,0:0:0:0:
448,192,130347,1,0,0:0:0:0:
192,192,130497,1,0,0:0:0:0:
320,192,130497,1,0,0:0:0:0:
320,192,130797,1,0,0:0:0:0:
64,192,130797,1,0,0:0:0:0:
448,192,130797,1,0,0:0:0:0:
192,192,130947,1,0,0:0:0:0:
192,192,131097,1,0,0:0:0:0:
320,192,131097,1,0,0:0:0:0:
