osu file format v6

[General]
AudioFilename: ( episode01 ed).mp3
AudioLeadIn: 0
PreviewTime: 58541
Countdown: 1
SampleSet: Soft
StackLeniency: 0.7
Mode: 0
LetterboxInBreaks: 1
SkinPreference:Hikari

[Editor]
DistanceSpacing: 1
BeatDivisor: 2
GridSize: 8

[Metadata]
Title:Genmusou
Artist:Yakusi Ruri
Creator:AngelHoney
Version:Normal
Source:Dark Knight Ingrid
Tags:hell makai kishi ingrid yakushi vanmonky

[Difficulty]
HPDrainRate:6
CircleSize:4
OverallDifficulty:5
SliderMultiplier:0.8
SliderTickRate:2

[Events]
//Background and Video events
0,0,"Genmusou.jpg"
//Break Periods
2,45367,47582
//Storyboard Layer 0 (Background)
//Storyboard Layer 1 (Fail)
//Storyboard Layer 2 (Pass)
//Storyboard Layer 3 (Foreground)
//Storyboard Sound Samples
//Background Colour Transformations
3,100,163,162,255

[TimingPoints]
1795,722.89156626506,4,2,0,16,1,0
23476,-100,4,2,0,17,0,0
24741,-100,4,2,0,18,0,0
33597,-100,4,2,0,27,0,0
35043,-100,4,2,0,14,0,0
36308,-100,4,2,0,16,0,0
56006,-100,4,2,0,17,0,0
56729,-100,4,2,0,26,0,0
57452,-100,4,2,0,33,0,0
58175,-100,4,2,0,43,0,0
58898,-100,4,2,0,40,0,1
82030,-100,4,2,0,17,0,0
91072,-100,4,2,0,30,0,0
91794,-100,4,2,0,18,0,0
92517,-100,4,2,0,0,0,0

[Colours]
Combo1 : 91,91,255
Combo2 : 255,85,85
Combo3 : 255,236,255
Combo4 : 201,147,255

[HitObjects]
48,48,1795,2,0,L|160:48,1,80,2|0
112,128,3240,2,0,L|224:128,1,80,2|0
176,208,4686,1,2
216,208,5048,1,0
256,208,5409,1,2
296,208,5770,2,0,L|392:208,1,80
424,320,7578,6,0,L|312:320,1,80,2|0
360,240,9023,2,0,L|248:240,1,80,2|0
240,240,10108,1,8
80,240,11554,2,0,B|24:296|48:328,2,80
112,216,13361,6,2,L|112:104,1,80,0|0
184,168,14807,2,2,L|184:56,1,80,0|0
256,112,16252,2,2,L|256:0,1,80,0|2
296,32,17337,1,8
368,64,18060,1,0
392,96,18421,1,0
408,136,18782,1,0
408,176,19144,5,2
392,216,19505,1,2
368,248,19867,1,2
288,272,20590,1,2
248,256,20951,1,2
216,240,21313,1,2
184,216,21674,2,0,B|136:176|152:112,1,80
256,208,23481,12,0,24566
96,160,24927,6,2,L|192:96,1,80
240,144,26373,2,2,L|144:208,1,80,0|0
168,272,27819,2,2,L|264:208,1,80,0|0
312,256,29264,2,2,L|216:320,1,80,0|0
168,312,30710,5,2
168,272,31072,1,2
168,232,31433,1,10
240,192,32156,1,2
240,232,32517,1,2
240,272,32879,1,10
256,208,33240,12,0,35770
256,192,36493,6,2,L|352:192,1,80
256,192,37939,2,2,L|256:304,1,80
336,296,39385,5,0
336,256,39746,1,0
336,216,40108,1,0
408,176,40831,1,0
408,216,41192,1,0
408,256,41554,1,0
352,312,42276,5,0
312,312,42638,1,0
272,312,42999,1,0
232,312,43361,1,0
192,312,43722,2,2,L|80:312,2,80
48,48,48782,5,2
88,48,49144,1,2
128,48,49505,1,2
168,48,49867,1,2
208,48,50228,1,2
256,112,50951,5,0
336,112,51674,1,0
336,192,52397,1,0
256,192,53120,1,0
176,184,53843,5,2
144,168,54204,1,2
120,136,54566,1,2
104,96,54927,1,2
96,56,55288,1,2
256,208,56011,12,0,58541
80,48,58903,5,12
80,48,59264,1,8
80,48,59626,2,2,L|192:48,1,80,4|8
144,128,61072,2,2,L|256:128,1,80,2|10
216,208,62517,2,8,L|328:208,3,80
336,208,65048,6,2,L|400:208,1,40
392,128,66132,2,2,L|456:128,1,40
456,48,67216,1,2
416,48,67578,1,0
376,48,67939,1,2
256,208,68301,12,4,70108
80,336,70469,5,6
80,296,70831,1,2
80,256,71192,1,6
80,176,71915,1,2
80,136,72276,1,2
80,96,72638,1,2
160,96,73361,5,2
200,96,73722,1,2
240,96,74084,1,2
320,96,74807,1,2
360,96,75168,1,2
400,96,75529,1,2
400,216,76614,6,2,L|400:152,1,40
320,176,77698,2,2,L|320:240,1,40,2|2
248,176,78782,5,2
248,216,79144,1,2
248,256,79505,1,2
248,296,79867,2,2,L|360:296,1,80
408,296,81313,2,2,L|512:296,1,80
488,216,82758,5,2
456,192,83120,1,2
424,168,83481,1,2
344,168,84204,1,2
312,192,84566,1,2
280,216,84927,1,2
200,216,85650,2,2,L|136:168,2,80,2|2|10
232,240,87457,1,0
264,264,87819,1,0
296,288,88180,1,0
336,288,88541,5,2
376,288,88903,1,2
336,288,89264,1,2
336,208,89987,1,2
376,208,90349,1,2
336,208,90710,1,2
256,208,91072,12,0,92879
