osu file format v6

[General]
AudioFilename: ( episode01 ed).mp3
AudioLeadIn: 0
PreviewTime: 58541
Countdown: 1
SampleSet: Soft
StackLeniency: 0.7
Mode: 0
LetterboxInBreaks: 1
SkinPreference:Hikari

[Editor]
DistanceSpacing: 1.20000004768372
BeatDivisor: 4
GridSize: 8

[Metadata]
Title:Genmusou
Artist:Yakusi Ruri
Creator:AngelHoney
Version:Hard
Source:Dark Knight Ingrid
Tags:hell makai kishi ingrid yakushi vanmonky

[Difficulty]
HPDrainRate:6
CircleSize:5
OverallDifficulty:5
SliderMultiplier:1.5
SliderTickRate:2

[Events]
//Background and Video events
0,0,"Genmusou.jpg"
//Break Periods
//Storyboard Layer 0 (Background)
//Storyboard Layer 1 (Fail)
//Storyboard Layer 2 (Pass)
//Storyboard Layer 3 (Foreground)
//Storyboard Sound Samples
//Background Colour Transformations
3,100,163,162,255

[TimingPoints]
1795,722.89156626506,4,2,0,30,1,0
10108,-100,4,2,0,21,0,0
10650,-100,4,2,0,11,0,0
11373,-100,4,2,0,42,0,0
23481,-100,4,2,0,14,0,0
24566,-100,4,2,0,35,0,0
33602,-100,4,2,0,14,0,0
34505,-100,4,2,0,35,0,0
53843,-100,4,2,0,13,0,0
55108,-100,4,2,0,23,0,0
56373,-100,4,2,0,37,0,0
59626,-100,4,2,0,37,0,1
67939,-100,4,2,0,20,0,1
70108,-100,4,2,0,42,0,1
81313,-100,4,2,0,41,0,0
92879,-100,4,2,0,0,0,0
94325,-100,4,2,0,0,0,0

[Colours]
Combo1 : 62,62,255
Combo2 : 255,0,0
Combo3 : 255,232,255
Combo4 : 194,134,255

[HitObjects]
160,160,1794,1,2
96,96,2156,1,0
160,32,2517,1,2
336,32,3240,1,2
400,96,3602,1,0
336,160,3963,1,2
336,336,4686,5,2
272,272,5048,1,0
208,208,5409,1,2
112,208,5770,1,2
64,48,6493,5,0
128,112,6855,1,2
192,176,7216,1,2
256,240,7578,5,2
320,304,7939,1,0
384,368,8301,1,2
448,192,9023,1,2
352,192,9385,1,0
448,192,9746,1,2
256,208,10108,12,2,11192
64,64,11554,5,0
128,112,11915,1,0
192,64,12276,1,0
256,112,12638,1,0
320,64,12999,1,0
416,128,13361,5,2
368,208,13722,1,0
288,256,14084,1,2
128,176,14807,1,2
160,96,15168,1,0
240,48,15529,1,2
416,48,16252,5,2
416,144,16614,1,0
416,240,16975,1,2
416,336,17337,1,2
320,176,18060,5,0
256,112,18421,1,0
192,176,18782,1,0
192,48,19144,5,2
256,112,19505,1,0
320,48,19867,1,2
496,48,20590,1,2
432,112,20951,1,0
368,176,21313,1,2
304,240,21674,1,2
224,48,22397,5,0
144,48,22758,1,0
64,48,23120,1,0
256,208,23481,12,0,24204
32,320,24927,5,2
112,272,25288,1,0
144,304,25469,1,0
176,272,25650,1,2
208,304,25831,1,0
240,272,26011,1,0
320,304,26373,2,0,B|352:256|384:304|384:304|384:304,2,75,2|0|2
320,208,27457,5,0
384,144,27819,1,2
416,112,27999,1,0
384,80,28180,1,0
304,48,28541,2,0,B|256:16|208:16,1,75,2|0
144,48,29264,6,0,B|112:80,1,37.5,2|0
112,112,29626,2,0,B|160:160,1,37.5
144,176,29987,2,0,B|96:224,1,37.5,2|0
112,240,30349,2,8,B|160:288,1,37.5
176,288,30710,5,2
256,240,31072,1,0
288,208,31252,1,0
336,208,31433,1,2
368,240,31614,1,0
416,240,31794,1,0
496,208,32156,2,0,B|512:208|528:176|512:144|480:128,1,75,2|0
416,144,32879,1,2
336,144,33240,2,0,C|335:135|335:135|335:143|335:143|327:135|327:135|327:143|327:143|319:135|319:135|319:143|319:143|311:135|311:135|311:143|311:143|303:135|303:135|303:143|303:143|295:135|295:135|295:143|295:143|287:135|287:135|287:143|287:143|279:135|279:135|279:143|279:143|271:135|271:135|271:143|271:143|263:135|263:135|263:143|263:143|266:138,1,225,0|2
192,96,34686,5,0
112,112,35048,1,2
80,192,35409,1,0
112,272,35770,1,2
176,320,36132,1,0
256,320,36493,5,2
344,304,36855,2,0,C|392:272,1,37.5
408,256,37216,1,2
424,216,37397,1,0
432,168,37578,1,0
392,88,37939,2,0,B|432:56|464:96,2,75,2|0|2
304,64,39023,5,0
216,88,39385,1,2
128,64,39746,1,0
88,40,39927,1,2
80,128,40288,1,2
40,104,40469,1,0
40,192,40831,1,2
88,264,41192,1,0
168,304,41554,1,2
256,312,41915,1,8
344,296,42276,5,2
416,240,42638,1,0
416,152,42999,2,0,B|392:88,1,37.5,2|0
376,80,43361,1,0
336,64,43541,1,0
296,48,43722,2,0,B|256:16|192:48,1,75,2|0
144,48,44445,1,2
200,120,44807,2,0,B|200:160|152:112|152:160,1,75,0|2
64,176,45529,5,0
120,248,45891,1,2
200,288,46252,1,0
120,248,46614,1,2
200,288,46975,1,0
288,304,47337,1,2
376,296,47698,1,0
456,248,48060,1,4
456,72,48782,5,2
384,16,49144,1,0
312,72,49505,1,2
264,72,49686,1,0
216,72,49867,1,0
176,152,50228,1,2
128,72,50590,1,0
216,72,50951,5,2
264,72,51132,1,0
312,72,51313,1,0
288,160,51674,1,2
344,232,52035,1,0
272,288,52397,1,2
184,320,52758,1,0
144,304,52939,1,0
120,264,53120,1,2
256,208,53843,12,0,54927
80,320,55288,5,2
80,232,55650,1,2
272,56,56373,5,0
360,56,56734,1,8
272,56,57096,1,8
360,56,57457,1,8
416,112,57819,1,8
416,144,57999,1,8
416,176,58180,1,8
416,256,58541,1,8
336,256,58903,5,2
304,288,59084,1,2
272,256,59264,1,2
240,224,59445,1,2
208,256,59626,1,6
144,320,59987,1,0
80,256,60349,1,2
24,184,60710,2,0,B|56:144|96:184,3,75,0|2|0|2
176,184,62156,5,2
208,152,62337,1,0
240,120,62517,1,6
296,192,62879,1,2
328,224,63060,1,2
416,208,63421,1,2
448,240,63602,1,2
456,64,64325,1,0
456,152,64686,1,0
456,64,65048,5,2
416,40,65228,1,2
376,24,65409,2,2,B|320:24,2,37.5
456,64,66132,1,2
456,152,66493,2,0,B|496:184|456:216,1,75,0|2
400,288,67216,1,0
312,312,67578,1,2
256,208,67939,12,2,69746
48,88,70469,5,2
72,56,70650,1,2
104,88,70831,1,2
136,120,71011,1,2
168,88,71192,1,6
224,16,71554,1,0
280,88,71915,1,2
344,24,72276,2,2,B|376:0|416:24,3,75,0|2|0|2
464,96,73722,6,0,B|464:136,1,37.5,2|0
464,176,74084,1,2
464,264,74445,1,0
384,296,74807,1,2
344,312,74987,1,0
304,296,75168,2,2,B|256:296|256:248,3,75,0|2|0|2
224,352,76614,5,2
192,320,76794,1,0
160,288,76975,1,2
64,176,77698,1,2
64,96,78060,1,0
192,176,78782,1,2
192,96,79144,1,0
192,176,79505,1,2
272,176,79867,5,0
272,96,80228,1,2
272,176,80590,1,0
352,176,80951,1,2
352,136,81132,1,0
352,96,81313,1,4
64,136,82758,5,2
136,80,83120,1,0
208,32,83481,1,2
160,208,84204,1,2
232,152,84566,1,0
296,88,84927,1,2
256,272,85650,5,2
344,256,86011,1,0
408,200,86373,1,2
448,120,86734,1,4
256,40,87457,5,0
304,120,87819,1,2
208,120,88180,1,0
128,48,88541,5,2
64,112,88903,1,0
32,192,89264,1,2
208,160,89987,1,2
144,224,90349,1,0
112,304,90710,1,2
144,224,91072,1,4
256,80,91795,5,0
256,176,92156,1,2
256,272,92517,1,0
256,208,92879,12,0,94325
