osu file format v12

[General]
AudioFilename: (TVsize).mp3
AudioLeadIn: 0
PreviewTime: 52273
Countdown: 0
SampleSet: Normal
StackLeniency: 0.7
Mode: 0
LetterboxInBreaks: 0

[Editor]
Bookmarks: 6939
DistanceSpacing: 1
BeatDivisor: 4
GridSize: 4

[Metadata]
Title:Shounen yo Ware ni Kaere (TV Size)
TitleUnicode:少年よ我に帰れ (TV Size)
Artist:Yakushimaru Etsuko and the Metro Orchestra
ArtistUnicode:やくしまるえつこメトロオーケストラ
Creator:luxoDeh
Version:Hard
Source:Mawaru Penguindrum
Tags:Opening Genesis Kuma-san
BeatmapID:211703
BeatmapSetID:50616

[Difficulty]
HPDrainRate:6
CircleSize:4
OverallDifficulty:7
ApproachRate:7
SliderMultiplier:1.3
SliderTickRate:1

[Events]
//Background and Video events
0,0,"Beatmap.jpg",0,0
Video,0,"Mawaru penguindrum opening 2 creditless 4x3.avi"
//Break Periods
//Storyboard Layer 0 (Background)
//Storyboard Layer 1 (Fail)
//Storyboard Layer 2 (Pass)
//Storyboard Layer 3 (Foreground)
//Storyboard Sound Samples
//Background Colour Transformations
3,100,163,162,255

[TimingPoints]
273,333.333333333333,4,1,1,40,1,0
52273,-100,4,1,0,40,0,1
78940,-100,4,1,1,40,0,0
86940,-100,4,2,0,40,0,0

[Colours]
Combo1 : 231,174,56
Combo2 : 16,119,194
Combo3 : 255,117,186
Combo4 : 192,192,192

[HitObjects]
344,100,6939,2,0,P|272:80|220:100,1,130,4|8,0:0|0:0,0:0:0:0:
92,100,7606,1,0,0:0:0:0:
32,216,7939,2,0,L|32:288,1,65,8|0,0:0|0:0,0:0:0:0:
156,316,8439,2,0,L|156:251,1,65,0|8,0:0|0:0,0:0:0:0:
280,288,8939,1,0,0:0:0:0:
408,288,9272,1,8,0:0:0:0:
432,160,9606,5,0,0:0:0:0:
388,112,9772,2,0,L|340:68,1,65,0|8,0:0|0:0,0:0:0:0:
276,68,10106,2,0,L|230:113,1,65,0|0,0:0|0:0,0:0:0:0:
140,208,10606,1,8,0:0:0:0:
76,212,10772,2,0,P|20:156|36:108,1,130,0|0,0:0|0:0,0:0:0:0:
80,68,11272,1,8,0:0:0:0:
80,68,11606,1,0,0:0:0:0:
208,68,11939,1,8,0:0:0:0:
268,48,12106,1,0,0:0:0:0:
328,68,12273,6,0,P|364:136|352:208,1,130,0|8,0:0|0:0,0:0:0:0:
332,244,12773,1,0,0:0:0:0:
216,308,13106,1,0,0:0:0:0:
216,308,13273,2,0,L|260:372,2,65,8|0|0,0:0|0:0|0:0,0:0:0:0:
184,184,13939,6,0,P|147:154|67:154,1,130,8|0,0:0|0:0,0:0:0:0:
100,280,14606,1,8,0:0:0:0:
212,344,14939,6,0,P|292:344|340:296,1,130,0|8,0:0|0:0,0:0:0:0:
340,252,15439,2,0,P|376:176|484:180,1,195,0|8,0:0|0:0,0:0:0:0:
468,304,16273,1,0,0:0:0:0:
476,174,16606,2,0,L|474:109,1,65,8|0,0:0|0:0,0:0:0:0:
344,108,17106,2,0,L|276:108,1,65,0|8,0:0|0:0,0:0:0:0:
156,156,17606,6,0,L|156:292,1,130,0|8,0:0|0:0,0:0:0:0:
204,328,18106,2,0,P|264:340|336:324,1,130
372,276,18606,1,8,0:0:0:0:
428,160,18939,1,0,0:0:0:0:
476,120,19106,1,0,0:0:0:0:
428,76,19272,1,8,0:0:0:0:
304,40,19606,2,0,L|232:40,2,65,0|0|8,0:0|0:0|0:0,0:0:0:0:
300,168,20272,5,0,0:0:0:0:
252,212,20439,1,0,0:0:0:0:
200,252,20606,1,8,0:0:0:0:
84,312,20939,2,0,P|28:256|60:200,1,130,0|8,0:0|0:0,0:0:0:0:
92,176,21439,1,0,0:0:0:0:
144,136,21606,2,0,L|200:96,2,65,0|0|8,0:0|0:0|0:0,0:0:0:0:
232,232,22272,1,0,0:0:0:0:
280,272,22439,1,0,0:0:0:0:
328,312,22606,1,8,0:0:0:0:
456,312,22939,5,0,0:0:0:0:
456,248,23106,2,0,L|456:176,2,65,0|8|0,0:0|0:0|0:0,0:0:0:0:
360,160,23772,2,0,L|360:225,1,65,0|8,0:0|0:0,0:0:0:0:
256,148,24272,2,0,L|256:68,2,65,0|0|8,0:0|0:0|0:0,0:0:0:0:
232,208,24772,1,0,0:0:0:0:
188,256,24939,2,0,P|124:272|60:256,1,130,0|8,0:0|0:0,0:0:0:0:
68,128,25606,5,0,0:0:0:0:
92,68,25772,1,0,0:0:0:0:
140,24,25939,2,0,P|224:8|284:36,1,130,8|0,0:0|0:0,0:0:0:0:
308,68,26439,1,0,0:0:0:0:
332,128,26606,1,8,0:0:0:0:
328,260,26939,6,0,L|256:260,2,65,0|0|8,0:0|0:0|0:0,0:0:0:0:
368,312,27439,1,0,0:0:0:0:
328,364,27606,2,0,L|256:364,2,65,0|0|8,0:0|0:0|0:0,0:0:0:0:
420,272,28272,5,4,0:0:0:0:
376,224,28439,2,0,L|328:168,1,65,0|8,0:0|0:0,0:0:0:0:
292,128,28772,1,0,0:0:0:0:
168,92,29106,2,0,L|88:92,1,65,0|8,0:0|0:0,0:0:0:0:
20,192,29606,1,0,0:0:0:0:
20,320,29939,1,8,0:0:0:0:
148,320,30272,2,0,L|228:320,2,65,0|0|8,0:0|0:0|0:0,0:0:0:0:
148,188,30939,6,0,L|148:116,2,65,0|0|8,0:0|0:0|0:0,0:0:0:0:
212,184,31439,2,0,P|276:184|324:224,1,130,0|0,0:0|0:0,0:0:0:0:
352,284,31939,1,8,0:0:0:0:
472,336,32272,1,0,0:0:0:0:
472,204,32606,1,8,0:0:0:0:
432,152,32772,1,0,0:0:0:0:
372,124,32939,1,0,0:0:0:0:
308,124,33106,2,0,L|244:124,1,65,0|8,0:0|0:0,0:0:0:0:
112,124,33606,5,4,0:0:0:0:
112,252,33939,2,0,L|112:324,1,65,8|0,0:0|0:0,0:0:0:0:
224,252,34439,2,0,L|224:187,1,65,0|8,0:0|0:0,0:0:0:0:
336,252,34939,1,0,0:0:0:0:
332,124,35272,1,8,0:0:0:0:
296,72,35439,1,0,0:0:0:0:
232,52,35606,1,0,0:0:0:0:
168,52,35772,2,0,L|96:52,1,65,0|8,0:0|0:0,0:0:0:0:
28,160,36272,6,0,P|56:216|123:233,1,130,0|8,0:0|0:0,0:0:0:0:
180,224,36772,2,0,P|240:240|276:300,1,130,0|0,0:0|0:0,0:0:0:0:
276,360,37272,1,8,0:0:0:0:
400,324,37606,1,0,0:0:0:0:
432,268,37772,1,0,0:0:0:0:
472,320,37939,2,0,L|520:384,2,65,8|0|0,0:0|0:0|0:0,0:0:0:0:
432,268,38439,2,0,L|432:188,1,65,0|8,0:0|0:0,0:0:0:0:
432,136,38772,1,0,0:0:0:0:
412,76,38939,6,0,P|324:60|292:108,1,130,4|8,0:0|0:0,0:0:0:0:
284,144,39439,2,0,P|228:176|156:160,1,130,0|0,0:0|0:0,0:0:0:0:
128,112,39939,1,8,0:0:0:0:
28,196,40273,1,0,0:0:0:0:
116,288,40606,2,0,L|172:344,1,65,8|0,0:0|0:0,0:0:0:0:
292,332,41106,2,0,L|332:272,1,65,0|8,0:0|0:0,0:0:0:0:
392,164,41606,6,0,B|392:100|392:100|328:60,1,130,0|8,0:0|0:0,0:0:0:0:
272,64,42106,2,0,L|208:64,2,65,0|0|0,0:0|0:0|0:0,0:0:0:0:
304,120,42606,1,8,0:0:0:0:
304,248,42939,1,0,0:0:0:0:
192,312,43273,1,8,0:0:0:0:
128,312,43439,1,8,0:0:0:0:
88,260,43606,1,0,0:0:0:0:
88,196,43773,2,0,L|88:124,1,65,0|8,0:0|0:0,0:0:0:0:
192,52,44273,6,0,L|280:52,1,65
324,52,44606,1,8,0:0:0:0:
376,92,44773,1,0,0:0:0:0:
360,220,45106,2,0,L|304:264,1,65,0|8,0:0|0:0,0:0:0:0:
184,300,45606,2,0,B|120:300|120:300|88:236,1,130,0|8,0:0|0:0,0:0:0:0:
72,180,46106,1,8,0:0:0:0:
64,116,46273,1,0,0:0:0:0:
100,64,46439,1,0,0:0:0:0:
164,52,46606,1,8,0:0:0:0:
288,92,46939,5,0,0:0:0:0:
420,92,47273,2,8,L|420:164,1,65,8|0,0:0|0:0,0:0:0:0:
340,260,47773,2,8,L|340:195,1,65,0|8,0:0|0:0,0:0:0:0:
232,272,48273,1,0,0:0:0:0:
168,276,48439,1,8,0:0:0:0:
112,240,48606,1,8,0:0:0:0:
96,176,48773,1,0,0:0:0:0:
132,124,48939,6,8,P|204:132|260:124,2,130,0|8|4,0:0|0:0|0:0,0:0:0:0:
132,60,49773,2,4,P|204:52|264:60,1,130,0|4,0:0|0:0,0:0:0:0:
384,96,50439,2,0,L|464:96,2,65
384,160,50939,2,0,P|384:232|328:252,1,130,8|8,0:0|0:0,0:0:0:0:
272,256,51439,1,4,0:0:0:0:
156,200,51773,2,0,L|196:269,1,65,0|8,0:0|0:0,0:0:0:0:
288,340,52273,6,0,P|368:300|368:248,2,130,4|8|0,0:0|0:0|0:0,0:0:0:0:
204,240,53273,1,8,0:0:0:0:
204,240,53439,2,0,P|244:176|308:172,1,130,2|8,0:0|0:0,0:0:0:0:
372,268,54106,1,0,0:0:0:0:
424,148,54439,2,0,L|424:68,1,65,0|8,0:0|0:0,0:0:0:0:
364,56,54773,1,0,0:0:0:0:
300,56,54939,6,0,L|156:56,2,130,0|8|0,0:0|0:0|0:0,0:0:0:0:
292,184,55939,1,8,0:0:0:0:
244,224,56106,2,0,P|157:242|109:205,2,130,2|8|0,0:0|0:0|0:0,0:0:0:0:
184,108,57106,2,0,L|184:44,1,65,0|8,0:0|0:0,0:0:0:0:
308,80,57606,5,2,0:0:0:0:
436,80,57939,2,0,L|516:80,2,65,8|0|0,0:0|0:0|0:0,0:0:0:0:
372,80,58439,1,0,0:0:0:0:
372,144,58606,2,0,L|372:288,1,130,8|2,0:0|0:0,0:0:0:0:
312,296,59106,1,0,0:0:0:0:
252,276,59273,1,8,0:0:0:0:
220,220,59439,1,0,0:0:0:0:
108,152,59773,2,0,L|36:152,1,65,0|8,0:0|0:0,0:0:0:0:
76,276,60273,6,0,P|136:312|200:276,1,130,0|8,0:0|0:0,0:0:0:0:
252,276,60773,1,0,0:0:0:0:
196,160,61106,1,0,0:0:0:0:
132,160,61273,1,8,0:0:0:0:
12,112,61606,2,0,P|20:48|92:36,1,130,0|8,0:0|0:0,0:0:0:0:
140,32,62106,2,0,B|220:43|205:131|306:129,1,195,0|8,0:0|0:0,0:0:0:0:
244,244,62939,5,4,0:0:0:0:
300,280,63106,1,0,0:0:0:0:
352,244,63273,1,8,0:0:0:0:
256,156,63606,2,0,P|256:100|192:84,1,130,0|8,0:0|0:0,0:0:0:0:
128,84,64106,2,0,P|65:100|65:156,1,130,0|0,0:0|0:0,0:0:0:0:
100,212,64606,1,8,0:0:0:0:
184,308,64939,1,0,0:0:0:0:
248,308,65106,2,0,L|313:308,1,65,0|8,0:0|0:0,0:0:0:0:
444,308,65606,6,0,L|396:252,1,65
356,212,65939,2,0,B|340:152|288:168|288:104,1,130,8|0,0:0|0:0,0:0:0:0:
160,92,66606,1,8,0:0:0:0:
96,92,66773,1,2,0:0:0:0:
96,220,67106,1,0,0:0:0:0:
160,220,67273,1,8,0:0:0:0:
288,220,67606,2,0,B|348:248|348:248|404:216,1,130,0|8,0:0|0:0,0:0:0:0:
396,88,68273,6,0,P|358:69|278:93,1,130,0|8,0:0|0:0,0:0:0:0:
224,132,68773,2,0,P|182:150|102:134,1,130,2|0,0:0|0:0,0:0:0:0:
36,136,69273,1,8,0:0:0:0:
36,200,69439,1,0,0:0:0:0:
84,244,69606,2,0,P|120:260|212:248,1,130,2|8,0:0|0:0,0:0:0:0:
316,180,70273,1,2,0:0:0:0:
400,84,70606,1,8,0:0:0:0:
400,212,70939,6,0,P|392:284|336:292,1,130,0|8,0:0|0:0,0:0:0:0:
280,296,71439,2,0,L|215:296,1,65,0|0,0:0|0:0,0:0:0:0:
136,192,71939,1,8,0:0:0:0:
48,288,72273,2,0,L|48:216,1,65,0|0,0:0|0:0,0:0:0:0:
48,156,72606,1,8,0:0:0:0:
84,100,72773,1,0,0:0:0:0:
140,64,72939,2,0,L|205:64,1,65,0|0,0:0|0:0,0:0:0:0:
272,64,73273,1,8,0:0:0:0:
352,164,73606,1,0,0:0:0:0:
256,192,73689,12,4,77606,0:0:0:0:
352,88,78939,6,0,L|216:88,1,130,2|0,0:0|0:0,0:0:0:0:
160,88,79439,1,2,0:0:0:0:
96,272,79939,2,0,L|232:272,1,130,8|0,0:0|0:0,0:0:0:0:
288,272,80439,1,0,0:0:0:0:
352,260,80606,1,8,0:0:0:0:
408,228,80772,1,0,0:0:0:0:
408,96,81106,2,0,L|408:24,1,65,0|8,0:0|0:0,0:0:0:0:
276,40,81606,6,0,P|212:48|180:112,1,130,2|0,0:0|0:0,0:0:0:0:
180,164,82106,1,2,0:0:0:0:
192,292,82439,2,0,L|280:292,1,65,0|8,0:0|0:0,0:0:0:0:
360,212,82939,2,0,L|440:212,1,65,0|0,0:0|0:0,0:0:0:0:
360,212,83272,2,0,P|296:236|232:200,1,130,8|0,0:0|0:0,0:0:0:0:
112,212,83939,1,8,0:0:0:0:
112,84,84272,6,0,P|176:52|232:92,1,130,2|0,0:0|0:0,0:0:0:0:
260,128,84772,1,2,0:0:0:0:
360,212,85106,2,0,L|312:272,1,65,0|8,0:0|0:0,0:0:0:0:
212,336,85606,6,0,P|132:352|84:320,1,130,2|0,0:0|0:0,0:0:0:0:
48,280,86106,1,2,0:0:0:0:
48,152,86439,2,0,L|48:72,1,65,0|8,0:0|0:0,0:0:0:0:
184,156,86939,5,2,0:0:0:0:
220,100,87106,1,0,0:0:0:0:
284,100,87272,1,0,0:0:0:0:
320,156,87439,1,2,0:0:0:0:
288,280,87772,6,0,L|318:222,2,65,0|2|0,0:0|0:0|0:0,0:0:0:0:
224,280,88272,2,0,L|193:222,2,65,2|0|0,0:0|0:0|0:0,0:0:0:0:
256,336,88772,1,2,0:0:0:0:
