osu file format v12

[General]
AudioFilename: (TVsize).mp3
AudioLeadIn: 0
PreviewTime: 52273
Countdown: 0
SampleSet: Normal
StackLeniency: 0.7
Mode: 0
LetterboxInBreaks: 0

[Editor]
Bookmarks: 6939
DistanceSpacing: 1
BeatDivisor: 4
GridSize: 4

[Metadata]
Title:Shounen yo Ware ni Kaere (TV Size)
TitleUnicode:少年よ我に帰れ (TV Size)
Artist:Yakushimaru Etsuko and the Metro Orchestra
ArtistUnicode:やくしまるえつこメトロオーケストラ
Creator:luxoDeh
Version:Easy
Source:Mawaru Penguindrum
Tags:Opening Genesis Kuma-san
BeatmapID:211702
BeatmapSetID:50616

[Difficulty]
HPDrainRate:2
CircleSize:2
OverallDifficulty:2
ApproachRate:3
SliderMultiplier:0.9
SliderTickRate:1

[Events]
//Background and Video events
0,0,"Beatmap.jpg",0,0
Video,0,"Mawaru penguindrum opening 2 creditless 4x3.avi"
//Break Periods
//Storyboard Layer 0 (Background)
//Storyboard Layer 1 (Fail)
//Storyboard Layer 2 (Pass)
//Storyboard Layer 3 (Foreground)
//Storyboard Sound Samples
//Background Colour Transformations
3,100,163,162,255

[TimingPoints]
273,333.333333333333,4,1,1,40,1,0
52273,-100,4,1,0,40,0,1
78940,-100,4,1,1,40,0,0
86940,-100,4,2,0,40,0,0

[Colours]
Combo1 : 231,174,56
Combo2 : 16,119,194
Combo3 : 255,117,186
Combo4 : 192,192,192

[HitObjects]
344,96,6939,1,4,0:0:0:0:
164,96,7606,1,8,0:0:0:0:
212,268,8272,2,0,P|256:276|316:260,2,90,0|8|0,0:0|0:0|0:0,0:0:0:0:
256,92,9606,5,0,0:0:0:0:
100,184,10272,1,8,0:0:0:0:
256,272,10939,2,0,L|256:368,2,90,0|8|0,0:0|0:0|0:0,0:0:0:0:
100,184,12273,6,0,P|56:180|8:184,1,90,0|8,0:0|0:0,0:0:0:0:
112,332,13273,2,0,P|144:336|204:332,1,90,8|0,0:0|0:0,0:0:0:0:
204,244,13939,2,8,P|244:156|332:136,1,180
388,192,14939,6,0,P|396:264|356:328,1,135,0|8,0:0|0:0,0:0:0:0:
236,356,15939,1,8,0:0:0:0:
152,320,16273,2,0,P|126:263|128:192,1,135,0|8,0:0|0:0,0:0:0:0:
160,60,17273,1,8,0:0:0:0:
248,60,17606,6,0,L|340:60,2,90,4|8|0,0:0|0:0|0:0,0:0:0:0:
368,192,18939,2,0,L|278:192,2,90,0|8|0,0:0|0:0|0:0,0:0:0:0:
212,284,20272,5,0,0:0:0:0:
212,104,20939,1,8,0:0:0:0:
368,192,21606,2,0,L|476:192,2,90,0|8|0,0:0|0:0|0:0,0:0:0:0:
188,192,22939,6,0,P|120:176|84:116,2,135,0|8|0,0:0|0:0|0:0,0:0:0:0:
272,160,24272,1,0,0:0:0:0:
348,112,24606,1,8,0:0:0:0:
424,160,24939,2,0,B|468:236|468:236|448:288|388:288,1,180
312,320,25939,6,8,P|228:344|140:324,1,180
184,244,26939,2,0,P|215:203|176:128,2,135,0|8|8,0:0|0:0|0:0,0:0:0:0:
96,244,28272,6,0,P|65:203|104:128,2,135,4|8|8,0:0|0:0|0:0,0:0:0:0:
140,324,29606,1,0,0:0:0:0:
320,324,30272,1,0,0:0:0:0:
420,176,30939,6,0,P|428:104|380:56,2,135,0|8|8,0:0|0:0|0:0,0:0:0:0:
340,136,32272,2,0,P|268:128|212:164,1,135,0|8,0:0|0:0,0:0:0:0:
108,240,33272,1,8,0:0:0:0:
52,312,33606,6,0,P|122:335|176:298,2,135,0|8|8,0:0|0:0|0:0,0:0:0:0:
108,240,34939,1,0,0:0:0:0:
192,80,35606,2,0,P|140:80|104:120,1,90,0|8,0:0|0:0,0:0:0:0:
24,116,36272,6,0,P|54:175|132:188,2,135,0|8|8,0:0|0:0|0:0,0:0:0:0:
112,104,37606,2,0,P|164:60|248:60,1,135,0|8,0:0|0:0,0:0:0:0:
364,72,38606,1,8,0:0:0:0:
424,136,38939,6,0,P|364:160|300:132,1,135,4|8,0:0|0:0,0:0:0:0:
232,248,39939,2,0,L|232:338,1,90,8|0,0:0|0:0,0:0:0:0:
76,248,40939,2,0,L|76:158,1,90,0|8,0:0|0:0,0:0:0:0:
160,120,41606,6,0,P|100:72|8:100,1,180,0|8,0:0|0:0,0:0:0:0:
76,158,42606,2,8,P|109:249|184:266,2,180,8|8|8,0:0|0:0|0:0,0:0:0:0:
164,180,44273,6,0,L|300:180,2,135,0|8|8,0:0|0:0|0:0,0:0:0:0:
76,152,45606,1,0,0:0:0:0:
204,280,46273,1,8,0:0:0:0:
384,280,46939,6,0,P|476:260|500:168,1,180,4|8,0:0|0:0,0:0:0:0:
412,192,47939,1,8,0:0:0:0:
340,136,48273,2,0,L|228:276,1,180,8|0,0:0|0:0,0:0:0:0:
136,276,49273,1,8,0:0:0:0:
48,280,49606,2,4,P|76:208|136:188,1,135,4|4,0:0|0:0,0:0:0:0:
256,192,50606,12,4,52273,0:0:0:0:
396,100,52939,5,8,0:0:0:0:
260,100,53439,2,0,L|152:100,1,90,0|0,0:0|0:0,0:0:0:0:
80,120,54106,2,0,P|100:168|188:188,1,135,2|0,0:0|0:0,0:0:0:0:
264,196,54939,6,0,P|316:220|344:336,1,180,8|0,0:0|0:0,0:0:0:0:
200,368,56106,2,0,P|167:330|163:278,2,90,2|8|0,0:0|0:0|0:0,0:0:0:0:
296,272,57273,1,8,0:0:0:0:
340,192,57606,6,0,L|476:192,1,135,2|8,0:0|0:0,0:0:0:0:
476,104,58439,1,0,0:0:0:0:
340,104,58939,2,0,L|204:104,1,135,2|8,0:0|0:0,0:0:0:0:
204,192,59772,1,0,0:0:0:0:
300,288,60273,6,0,B|392:288|392:288|468:232,2,180,2|2|0,0:0|0:0|0:0,0:0:0:0:
212,288,61939,2,8,B|120:288|120:288|40:232,1,180
48,148,62939,5,4,0:0:0:0:
228,148,63606,1,0,0:0:0:0:
348,212,64106,2,0,L|348:72,1,135,2|8,0:0|0:0,0:0:0:0:
436,56,64939,1,0,0:0:0:0:
436,236,65606,5,0,0:0:0:0:
256,236,66273,1,0,0:0:0:0:
136,176,66773,2,8,L|136:312,1,135,2|8,0:0|0:0,0:0:0:0:
48,328,67606,1,0,0:0:0:0:
48,148,68272,6,0,P|110:86|156:88,1,135,2|0,0:0|0:0,0:0:0:0:
136,176,69106,1,0,0:0:0:0:
240,88,69606,2,0,P|282:88|344:152,2,135,2|2|0,0:0|0:0|0:0,0:0:0:0:
256,176,70939,5,0,0:0:0:0:
256,356,71606,1,8,0:0:0:0:
380,224,72273,2,0,P|390:267|369:319,2,90
300,264,73273,1,8,0:0:0:0:
256,192,73606,12,4,77606,0:0:0:0:
336,96,78939,6,0,L|192:96,1,135,6|2,0:0|0:0,0:0:0:0:
68,100,79939,2,8,L|68:204,1,90,8|0,0:0|0:0,0:0:0:0:
156,192,80606,1,8,0:0:0:0:
244,192,80939,1,0,0:0:0:0:
392,296,81606,6,0,L|248:296,1,135,2|2,0:0|0:0,0:0:0:0:
124,292,82606,2,8,L|68:208,1,90,8|0,0:0|0:0,0:0:0:0:
64,128,83272,1,8,0:0:0:0:
64,36,83606,1,0,0:0:0:0:
244,36,84272,6,0,L|364:128,1,135,2|2,0:0|0:0,0:0:0:0:
244,184,85272,1,8,0:0:0:0:
192,256,85606,2,0,L|300:336,1,135,2|2,0:0|0:0,0:0:0:0:
420,336,86606,1,8,0:0:0:0:
256,192,86939,12,2,88772,0:0:0:0:
