osu file format v12

[General]
AudioFilename: The Tatami Galaxy (Yojouhan Shinwa Taikei) - Clear END.mp3
AudioLeadIn: 0
PreviewTime: 51513
Countdown: 0
SampleSet: Soft
StackLeniency: 0.7
Mode: 0
LetterboxInBreaks: 1
WidescreenStoryboard: 1

[Editor]
Bookmarks: 47881
DistanceSpacing: 1.1
BeatDivisor: 4
GridSize: 8
TimelineZoom: 1

[Metadata]
Title:Kamisama no Iu Toori
TitleUnicode:Kamisama no Iu Toori
Artist:Yakushimaru Etsuko
ArtistUnicode:Yakushimaru Etsuko
Creator:tollox
Version:Normal
Source:The Tatami Galaxy
Tags:Yojouhan Shinwa Taikei
BeatmapID:395086
BeatmapSetID:161902

[Difficulty]
HPDrainRate:3
CircleSize:3
OverallDifficulty:2
ApproachRate:4
SliderMultiplier:1.1
SliderTickRate:1

[Events]
//Background and Video events
Video,-36,"The Tatami Galaxy (Yojouhan Shinwa Taikei) - Clear END (1).avi"
0,0,"tatami5.jpg",0,0
//Break Periods
//Storyboard Layer 0 (Background)
//Storyboard Layer 1 (Fail)
//Storyboard Layer 2 (Pass)
//Storyboard Layer 3 (Foreground)
//Storyboard Sound Samples
//Background Colour Transformations
3,100,163,162,255

[TimingPoints]
1580,535.714285714286,4,2,1,60,1,0
53774,-66.6666666666667,4,2,1,60,0,0
56184,-100,4,2,1,60,0,0
58327,-66.6666666666667,4,2,1,60,0,0
58595,-100,4,2,1,60,0,0

[Colours]
Combo1 : 173,220,12
Combo2 : 206,153,55
Combo3 : 244,87,249
Combo4 : 63,237,154

[HitObjects]
256,192,1580,21,8,0:0:0:0:
381,280,2115,1,0,0:0:0:0:
381,280,2383,1,0,0:0:0:0:
402,127,2919,1,0,0:0:0:0:
402,127,3187,1,0,0:0:0:0:
249,106,3722,1,8,0:0:0:0:
400,128,4258,1,0,0:0:0:0:
352,248,4794,2,0,L|312:184,2,55
248,184,5865,21,8,0:0:0:0:
356,129,6401,2,0,L|472:62,2,110
247,181,8008,1,8,0:0:0:0:
141,239,8544,2,0,L|86:226,1,55
78,144,9080,2,0,L|110:85,1,55
171,52,9615,2,0,L|240:46,1,55
308,53,10151,1,8,0:0:0:0:
392,176,10687,21,0,0:0:0:0:
392,176,10955,1,0,0:0:0:0:
328,312,11490,1,0,0:0:0:0:
328,312,11758,1,0,0:0:0:0:
256,184,12294,1,8,0:0:0:0:
328,88,12830,2,0,B|344:80|408:80|472:144|408:216|400:224|360:240,1,220
256,184,14437,5,8,0:0:0:0:
343,163,14972,2,0,L|475:132,2,110
256,184,16580,1,8,0:0:0:0:
256,192,17115,12,0,18722,0:0:0:0:
64,64,19258,21,0,0:0:0:0:
132,201,19794,1,0,0:0:0:0:
132,201,20062,1,0,0:0:0:0:
360,234,20865,37,8,0:0:0:0:
280,224,21133,1,0,0:0:0:0:
328,160,21401,1,0,0:0:0:0:
248,152,21669,1,0,0:0:0:0:
352,80,22205,2,0,P|419:150|434:226,1,165
341,337,23544,6,0,L|284:349,1,55
210,336,24080,1,0,0:0:0:0:
148,290,24347,1,0,0:0:0:0:
199,64,25151,1,8,0:0:0:0:
199,64,25419,1,0,0:0:0:0:
256,208,25955,1,0,0:0:0:0:
256,192,26222,12,0,27294,0:0:0:0:
192,88,27830,38,0,L|236:215,2,110
41,125,29437,1,8,0:0:0:0:
73,275,29972,1,0,0:0:0:0:
142,309,30240,1,0,0:0:0:0:
345,198,31044,21,0,0:0:0:0:
400,144,31312,1,0,0:0:0:0:
417,219,31580,1,8,0:0:0:0:
321,339,32115,1,0,0:0:0:0:
244,328,32383,2,0,L|186:355,1,55
176,232,33187,5,0,0:0:0:0:
176,136,33455,2,0,P|192:112|224:96,1,55
296,96,33990,1,0,0:0:0:0:
368,128,34258,1,0,0:0:0:0:
256,192,34526,12,0,35865,0:0:0:0:
248,336,36401,5,8,0:0:0:0:
393,286,36937,2,0,P|409:238|412:169,1,110
366,115,37740,2,0,P|309:123|249:164,1,110
336,208,38544,1,0,0:0:0:0:
336,208,38812,1,0,0:0:0:0:
153,216,39615,6,0,L|102:239,1,55
71,169,40151,2,0,L|121:145,1,55
256,104,40955,1,8,0:0:0:0:
352,152,41758,6,0,L|401:180,2,55
168,152,42830,2,0,L|112:184,2,55
253,262,44437,22,0,P|301:286|365:302,1,110,0|0,0:0|0:0,0:0:0:0:
433,317,45240,1,0,0:0:0:0:
448,241,45508,2,0,P|440:185|424:129,1,110
361,91,46312,2,0,P|313:75|241:83,1,110
348,200,47383,1,8,0:0:0:0:
272,344,48187,22,0,L|208:248,2,110
335,295,49526,1,8,0:0:0:0:
224,120,50330,5,0,0:0:0:0:
304,112,50597,2,0,P|328:64|328:8,1,110
288,216,53276,5,8,0:0:0:0:
254,146,53544,1,0,0:0:0:0:
276,72,53812,1,8,0:0:0:0:
352,88,54080,2,0,L|369:128,1,41.2500015735627
402,196,54481,1,8,0:0:0:0:
152,224,55151,5,8,0:0:0:0:
168,96,55687,2,0,L|222:116,1,41.2500015735627
304,144,56088,1,8,0:0:0:0:
352,200,57562,37,8,0:0:0:0:
348,123,57830,1,0,0:0:0:0:
272,112,58097,1,8,0:0:0:0:
224,40,58365,2,0,L|187:24,1,41.2500015735627
155,94,58767,1,8,0:0:0:0:
77,270,59437,6,0,P|77:302|93:342,1,55
154,294,59972,2,0,P|163:326|162:350,2,55
272,240,60776,5,2,0:0:0:0:
297,167,61044,1,2,0:0:0:0:
357,214,61312,1,2,0:0:0:0:
336,48,61847,5,8,0:0:0:0:
400,90,62115,1,0,0:0:0:0:
332,126,62383,1,8,0:0:0:0:
266,84,62651,2,0,L|226:109,1,27.5
265,172,63053,1,8,0:0:0:0:
416,208,63722,5,8,0:0:0:0:
320,269,64258,2,0,L|313:306,1,27.5
240,280,64660,1,8,0:0:0:0:
120,192,65330,1,0,0:0:0:0:
307,134,66401,5,0,0:0:0:0:
207,118,66669,1,0,0:0:0:0:
191,219,66937,1,0,0:0:0:0:
292,235,67205,1,0,0:0:0:0:
291,235,68008,5,8,0:0:0:0:
179,156,68544,5,2,0:3:0:0:
227,93,68812,1,2,0:3:0:0:
306,101,69080,1,2,0:3:0:0:
337,172,69347,1,2,0:3:0:0:
291,235,69615,1,2,0:3:0:0:
215,227,69883,1,2,0:3:0:0:
258,163,70151,5,10,0:0:0:0:
286,91,70419,1,8,0:0:0:0:
343,39,70687,1,0,0:0:0:0:
421,34,70955,1,0,0:0:0:0:
465,98,71222,2,0,P|487:135|487:215,1,110
466,319,72294,37,8,0:0:0:0:
340,229,72830,2,0,L|316:204,1,27.5
281,143,73231,2,0,P|276:94|280:69,1,55
96,104,74437,5,0,0:0:0:0:
157,56,74705,1,8,0:0:0:0:
214,107,74972,1,0,0:0:0:0:
181,176,75240,1,8,0:0:0:0:
235,230,75508,2,0,P|275:270|331:286,1,110
424,208,76580,5,8,0:0:0:0:
368,104,77115,1,0,0:0:0:0:
298,70,77383,1,8,0:0:0:0:
220,68,77651,22,2,B|146:106|118:165|113:235|141:260,1,220
186,304,78990,5,0,0:0:0:0:
262,297,79258,1,0,0:0:0:0:
329,259,79526,1,0,0:0:0:0:
378,200,79794,2,0,P|410:144|426:96,1,110
285,34,80865,5,8,0:0:0:0:
166,82,81401,2,0,L|152:128,1,27.5
139,183,81803,2,0,P|139:231|147:247,1,55
251,185,83008,5,8,0:0:0:0:
403,164,83544,1,0,0:0:0:0:
394,87,83812,1,0,0:0:0:0:
331,42,84080,1,0,0:0:0:0:
255,28,84347,1,0,0:0:0:0:
32,160,85151,5,8,0:0:0:0:
92,301,85687,1,2,0:0:0:0:
146,246,85955,1,2,0:0:0:0:
203,297,86222,21,2,0:0:0:0:
267,338,86490,1,2,0:0:0:0:
313,276,86758,1,2,0:0:0:0:
330,201,87026,1,2,0:0:0:0:
252,184,87294,37,0,0:0:0:0:
