osu file format v12

[General]
AudioFilename: The Tatami Galaxy (Yojouhan Shinwa Taikei) - Clear END.mp3
AudioLeadIn: 0
PreviewTime: 51513
Countdown: 0
SampleSet: Soft
StackLeniency: 0.7
Mode: 0
LetterboxInBreaks: 1
WidescreenStoryboard: 0

[Editor]
Bookmarks: 47881
DistanceSpacing: 1.3
BeatDivisor: 4
GridSize: 8
TimelineZoom: 1

[Metadata]
Title:Kamisama no Iu Toori
TitleUnicode:Kamisama no Iu Toori
Artist:Yakushimaru Etsuko
ArtistUnicode:Yakushimaru Etsuko
Creator:tollox
Version:Hard
Source:The Tatami Galaxy
Tags:Yojouhan Shinwa Taikei
BeatmapID:395084
BeatmapSetID:161902

[Difficulty]
HPDrainRate:5
CircleSize:4
OverallDifficulty:5
ApproachRate:7
SliderMultiplier:1.4
SliderTickRate:1

[Events]
//Background and Video events
Video,-36,"The Tatami Galaxy (Yojouhan Shinwa Taikei) - Clear END (1).avi"
0,0,"tatami5.jpg",0,0
//Break Periods
//Storyboard Layer 0 (Background)
//Storyboard Layer 1 (Fail)
//Storyboard Layer 2 (Pass)
//Storyboard Layer 3 (Foreground)
//Storyboard Sound Samples
//Background Colour Transformations
3,100,163,162,255

[TimingPoints]
1580,535.714285714286,4,2,1,60,1,0

[Colours]
Combo1 : 173,220,12
Combo2 : 206,153,55
Combo3 : 244,87,249
Combo4 : 63,237,154

[HitObjects]
256,51,1580,21,8,0:0:0:0:
258,232,2115,1,0,0:0:0:0:
258,323,2383,1,8,0:0:0:0:
424,248,2919,1,0,0:0:0:0:
424,248,3187,1,8,0:0:0:0:
112,64,3722,5,8,0:0:0:0:
192,24,3990,1,0,0:0:0:0:
144,128,4258,1,8,0:0:0:0:
224,88,4526,1,8,0:0:0:0:
144,128,4794,1,8,0:0:0:0:
224,180,5062,1,8,0:0:0:0:
300,229,5330,1,8,0:0:0:0:
64,328,5865,5,8,0:0:0:0:
153,311,6133,2,0,L|145:263,2,35
234,268,6669,1,8,0:0:0:0:
332,114,7205,1,8,0:0:0:0:
246,84,7472,2,0,L|206:73,1,35
200,144,7740,1,0,0:0:0:0:
200,144,7874,1,0,0:0:0:0:
200,144,8008,1,0,0:0:0:0:
264,192,8276,5,0,0:0:0:0:
352,160,8544,1,0,0:0:0:0:
304,240,8812,1,0,0:0:0:0:
224,288,9080,1,2,0:0:0:0:
264,184,9347,1,2,0:0:0:0:
344,152,9615,1,2,0:0:0:0:
448,184,9883,1,2,0:0:0:0:
416,96,10151,5,10,0:0:0:0:
352,32,10419,1,0,0:0:0:0:
264,40,10687,2,0,L|223:46,2,35
248,288,11490,1,8,0:0:0:0:
333,256,11758,2,0,L|373:240,1,35
72,48,12294,5,8,0:0:0:0:
161,65,12562,1,0,0:0:0:0:
240,109,12830,1,0,0:0:0:0:
192,248,13097,1,8,0:0:0:0:
272,288,13365,1,0,0:0:0:0:
360,312,13633,2,0,L|408:304,1,35
432,248,13901,1,8,0:0:0:0:
320,72,14437,1,8,0:0:0:0:
251,132,14705,1,0,0:0:0:0:
207,211,14972,1,8,0:0:0:0:
432,264,15240,1,8,0:0:0:0:
187,245,15776,1,0,0:0:0:0:
256,184,16044,1,8,0:0:0:0:
472,208,16580,5,8,0:0:0:0:
322,149,17115,1,2,0:0:0:0:
181,147,17383,1,2,0:0:0:0:
326,225,17651,1,2,0:0:0:0:
186,225,17919,1,2,0:0:0:0:
251,113,18187,1,2,0:0:0:0:
258,263,18455,1,2,0:0:0:0:
257,190,18722,1,10,0:0:0:0:
256,40,19258,5,8,0:0:0:0:
256,224,19794,1,8,0:0:0:0:
256,224,20062,1,0,0:0:0:0:
344,224,20330,1,4,0:0:0:0:
112,40,20865,1,8,0:0:0:0:
184,96,21133,1,0,0:0:0:0:
104,144,21401,1,8,0:0:0:0:
184,192,21669,1,0,0:0:0:0:
304,96,22205,5,8,0:0:0:0:
352,168,22472,1,4,0:0:0:0:
320,264,23008,2,0,L|296:304,2,35
128,80,23544,2,0,P|96:120|88:144,1,70
256,192,24080,1,8,0:0:0:0:
256,192,24347,1,0,0:0:0:0:
384,56,25151,5,0,0:0:0:0:
382,125,25285,2,0,L|350:173,1,35
291,96,25687,1,0,0:0:0:0:
104,200,25955,1,8,0:0:0:0:
134,321,26222,1,2,0:0:0:0:
192,209,26490,1,0,0:0:0:0:
223,332,26758,1,2,0:0:0:0:
277,218,27026,1,2,0:0:0:0:
304,341,27294,1,2,0:0:0:0:
208,48,27830,22,0,P|160:80|136:112,1,70
208,160,28365,1,8,0:0:0:0:
272,96,28633,1,0,0:0:0:0:
296,184,28901,1,0,0:0:0:0:
408,320,29437,37,8,0:0:0:0:
288,304,29972,2,0,L|240:296,1,35
360,216,30240,2,0,L|336:176,1,35
235,37,30910,2,0,P|201:56|175:88,1,70
112,88,31312,1,0,0:0:0:0:
88,184,31580,1,8,0:0:0:0:
194,333,32115,1,0,0:0:0:0:
285,335,32383,1,0,0:0:0:0:
341,102,33187,5,0,0:0:0:0:
263,54,33455,1,8,0:0:0:0:
172,46,33722,1,8,0:0:0:0:
89,84,33990,2,0,L|54:124,2,35
133,163,34526,5,2,0:0:0:0:
213,205,34794,2,2,P|213:229|197:245,1,35
296,217,35062,1,2,0:0:0:0:
379,180,35330,2,2,P|379:156|355:132,1,35
352,80,35597,1,2,0:0:0:0:
163,95,35865,5,8,0:0:0:0:
164,189,36133,2,0,L|172:229,1,35
190,291,36401,1,0,0:0:0:0:
245,382,36669,1,0,0:0:0:0:
392,296,36937,2,0,P|424:256|432:240,1,70
336,157,37472,5,8,0:0:0:0:
251,122,37740,2,0,P|225:158|213:198,1,70
285,241,38276,1,0,0:0:0:0:
392,175,38544,5,8,0:0:0:0:
361,297,38812,1,0,0:0:0:0:
242,338,39080,1,8,0:0:0:0:
119,309,39347,2,0,L|79:293,1,35
88,224,39615,2,0,P|128:192|160:176,1,70
383,117,40151,1,8,0:0:0:0:
360,208,40419,5,0,0:0:0:0:
448,184,40687,1,0,0:0:0:0:
384,120,40955,1,0,0:0:0:0:
152,40,41490,1,0,0:0:0:0:
152,40,41758,6,0,P|200:24|224:32,2,70
196,119,42562,1,0,0:0:0:0:
43,285,42830,6,0,P|56:336|75:361,2,70
119,235,43633,2,0,L|118:291,1,35
144,336,43901,1,0,0:0:0:0:
280,95,44169,1,8,0:0:0:0:
370,101,44437,2,0,B|365:150|320:193|259:178,1,140
280,96,45240,5,0,0:0:0:0:
280,96,45508,2,0,L|336:160,1,70
392,211,46044,1,8,0:0:0:0:
336,283,46312,2,0,L|256:315,1,70
272,310,46847,1,0,0:0:0:0:
228,230,47115,1,8,0:0:0:0:
317,214,47383,5,0,0:0:0:0:
352,296,47651,1,0,0:0:0:0:
264,312,47919,1,2,0:0:0:0:
248,200,48187,2,0,P|216:232|200:264,1,70
320,216,48722,2,0,B|344:192|352:168|352:152,1,70
248,200,49258,1,0,0:0:0:0:
320,216,49526,1,8,0:0:0:0:
376,96,50062,5,0,0:0:0:0:
456,128,50330,1,0,0:0:0:0:
376,96,50597,2,0,P|352:136|304:160,1,70
360,240,51133,1,0,0:0:0:0:
336,152,51401,1,0,0:0:0:0:
248,176,51669,1,8,0:0:0:0:
296,216,53276,5,0,0:0:0:0:
368,272,53544,1,0,0:0:0:0:
336,352,53812,1,8,0:0:0:0:
248,320,54080,1,0,0:0:0:0:
232,280,54213,1,0,0:0:0:0:
256,192,54481,1,8,0:0:0:0:
360,64,55151,6,0,P|408:88|432:128,1,70
424,192,55687,1,0,0:0:0:0:
424,240,55821,1,0,0:0:0:0:
376,320,56088,2,0,L|336:336,1,35
256,304,56490,1,0,0:0:0:0:
168,272,56758,1,8,0:0:0:0:
136,72,57294,5,8,0:0:0:0:
224,64,57562,1,0,0:0:0:0:
160,144,57830,1,0,0:0:0:0:
256,128,58097,1,8,0:0:0:0:
328,72,58365,2,0,L|320:120,1,35
312,176,58767,2,0,L|303:230,1,35
0,344,59437,5,8,0:0:0:0:
6,253,59705,1,0,0:0:0:0:
17,163,59972,1,0,0:0:0:0:
272,352,60240,5,8,0:0:0:0:
379,285,60508,1,2,0:0:0:0:
252,282,60776,1,2,0:0:0:0:
356,211,61044,1,2,0:0:0:0:
230,217,61312,1,2,0:0:0:0:
288,16,61580,5,8,0:0:0:0:
200,80,61847,1,0,0:0:0:0:
368,88,62115,1,0,0:0:0:0:
230,172,62383,1,8,0:0:0:0:
325,176,62651,1,0,0:0:0:0:
325,176,62785,1,0,0:0:0:0:
288,16,63053,1,8,0:0:0:0:
88,88,63722,5,8,0:0:0:0:
352,64,64258,5,0,0:0:0:0:
352,64,64392,1,0,0:0:0:0:
376,152,64660,1,8,0:0:0:0:
168,264,65062,1,0,0:0:0:0:
112,192,65330,1,0,0:0:0:0:
104,280,65597,1,0,0:0:0:0:
168,216,65865,1,8,0:0:0:0:
337,145,66401,1,8,0:0:0:0:
293,268,66669,1,8,0:0:0:0:
170,226,66937,1,8,0:0:0:0:
213,102,67205,1,8,0:0:0:0:
256,184,67472,1,0,0:0:0:0:
265,262,68008,2,0,L|273:350,1,70
256,184,68544,1,2,0:0:0:0:
256,184,68812,21,2,0:0:0:0:
320,120,69080,1,2,0:0:0:0:
320,256,69347,1,2,0:0:0:0:
192,256,69615,1,2,0:0:0:0:
192,120,69883,1,2,0:0:0:0:
256,184,70151,1,10,0:0:0:0:
320,120,70419,5,0,0:0:0:0:
400,168,70687,1,0,0:0:0:0:
336,232,70955,1,0,0:0:0:0:
256,272,71222,1,0,0:0:0:0:
256,272,71356,1,8,0:0:0:0:
184,216,71624,2,0,L|152:184,1,35
352,48,72294,1,8,0:0:0:0:
408,240,72830,5,0,0:0:0:0:
408,240,72963,1,0,0:0:0:0:
312,312,73231,2,0,P|280:328|240:328,1,70
96,280,73901,1,8,0:0:0:0:
272,24,74437,5,8,0:0:0:0:
352,64,74705,1,0,0:0:0:0:
296,136,74972,1,0,0:0:0:0:
216,96,75240,1,8,0:0:0:0:
272,24,75508,1,0,0:0:0:0:
272,24,75642,1,0,0:0:0:0:
352,64,75910,2,0,P|376:88|384:120,1,35
256,264,76580,1,8,0:0:0:0:
120,144,77115,5,8,0:0:0:0:
192,88,77383,1,0,0:0:0:0:
392,160,77651,5,2,0:0:0:0:
384,248,77919,1,2,0:0:0:0:
320,312,78187,1,2,0:0:0:0:
232,336,78455,1,2,0:0:0:0:
80,192,78722,1,10,0:0:0:0:
232,72,78990,5,0,0:0:0:0:
304,112,79258,1,0,0:0:0:0:
360,176,79526,1,0,0:0:0:0:
248,184,79794,5,0,0:0:0:0:
248,184,79928,1,0,0:0:0:0:
224,96,80196,2,0,P|248:56|288:32,1,70
424,40,80865,1,8,0:0:0:0:
432,224,81401,1,0,0:0:0:0:
432,224,81535,1,0,0:0:0:0:
432,224,81803,2,0,P|376:288|288:296,1,175
240,200,83008,5,8,0:0:0:0:
72,96,83544,1,10,0:0:0:0:
88,184,83812,1,2,0:0:0:0:
72,96,84080,1,2,0:0:0:0:
88,184,84347,1,2,0:0:0:0:
472,48,85151,1,8,0:0:0:0:
321,229,85687,1,2,0:0:0:0:
177,149,85955,1,2,0:0:0:0:
321,149,86222,1,2,0:0:0:0:
249,261,86490,1,2,0:0:0:0:
249,109,86758,1,2,0:0:0:0:
177,229,87026,1,2,0:0:0:0:
248,184,87294,21,14,0:0:0:0:
