osu file format v12

[General]
AudioFilename: The Tatami Galaxy (Yojouhan Shinwa Taikei) - Clear END.mp3
AudioLeadIn: 0
PreviewTime: 51513
Countdown: 0
SampleSet: Soft
StackLeniency: 0.7
Mode: 0
LetterboxInBreaks: 1
WidescreenStoryboard: 1

[Editor]
Bookmarks: 47881
DistanceSpacing: 1.2
BeatDivisor: 4
GridSize: 8
TimelineZoom: 1

[Metadata]
Title:Kamisama no Iu Toori
TitleUnicode:Kamisama no Iu Toori
Artist:Yakushimaru Etsuko
ArtistUnicode:Yakushimaru Etsuko
Creator:tollox
Version:Easy
Source:The Tatami Galaxy
Tags:Yojouhan Shinwa Taikei
BeatmapID:395083
BeatmapSetID:161902

[Difficulty]
HPDrainRate:1
CircleSize:2
OverallDifficulty:1
ApproachRate:2
SliderMultiplier:0.7
SliderTickRate:1

[Events]
//Background and Video events
Video,-36,"The Tatami Galaxy (Yojouhan Shinwa Taikei) - Clear END (1).avi"
0,0,"tatami5.jpg",0,0
//Break Periods
//Storyboard Layer 0 (Background)
//Storyboard Layer 1 (Fail)
//Storyboard Layer 2 (Pass)
//Storyboard Layer 3 (Foreground)
//Storyboard Sound Samples
//Background Colour Transformations
3,100,163,162,255

[TimingPoints]
1580,535.714285714286,4,2,1,60,1,0

[Colours]
Combo1 : 173,220,12
Combo2 : 206,153,55
Combo3 : 244,87,249
Combo4 : 63,237,154

[HitObjects]
172,305,3722,5,8,0:0:0:0:
203,214,4258,2,0,P|217:150|282:114,1,140
288,200,5865,1,8,0:0:0:0:
373,210,6401,2,0,P|333:274|260:280,1,140
288,200,8008,5,8,0:0:0:0:
209,166,8544,2,0,P|213:89|165:43,1,140
134,124,10151,1,8,0:0:0:0:
70,182,10687,2,0,P|51:98|90:50,1,140
168,42,12294,5,8,0:0:0:0:
252,63,12830,2,0,P|211:117|130:118,1,140
129,209,14437,1,8,0:0:0:0:
47,231,14972,2,0,P|82:281|167:284,1,140
241,299,16580,5,8,0:0:0:0:
221,216,17115,2,2,L|213:144,1,70
297,112,18187,2,2,L|305:188,1,70
321,266,19258,5,8,0:0:0:0:
363,340,19794,2,0,P|395:308|405:279,1,70
382,202,20865,2,0,P|296:183|237:243,1,175
156,351,23008,5,8,0:0:0:0:
190,273,23544,2,0,P|159:266|110:278,2,70
237,195,25151,5,8,0:0:0:0:
297,90,25687,2,2,P|375:141|347:252,1,210
275,275,27830,6,0,L|127:325,1,140
121,237,29437,1,8,0:0:0:0:
202,210,29972,2,0,L|275:184,1,70
347,151,31044,6,0,L|387:252,1,105
203,363,33187,6,0,L|275:326,1,70
202,268,34258,2,0,B|144:225|144:225|182:165,1,140
260,203,35865,1,8,0:0:0:0:
376,270,36937,5,8,0:0:0:0:
291,295,37472,2,0,P|195:282|102:208,1,210
178,167,39615,1,8,0:0:0:0:
101,128,40151,2,0,P|132:93|194:83,1,105
320,96,41758,6,0,P|360:128|368:144,1,70
341,228,42830,2,0,P|293:228|269:220,1,70
152,104,44437,5,8,0:0:0:0:
160,272,45508,1,8,0:0:0:0:
288,256,46312,1,0,0:0:0:0:
208,160,47115,5,0,0:0:0:0:
352,72,48187,5,0,0:0:0:0:
409,138,48722,1,8,0:0:0:0:
145,196,50330,2,0,P|180:249|222:277,1,105
295,305,51669,2,0,P|351:306|398:290,1,105
459,226,53008,2,0,B|455:224|406:178|356:176|339:276|267:181,1,210
181,179,55151,1,8,0:0:0:0:
98,158,55687,2,0,P|130:110|212:100,1,140
286,58,57294,6,0,B|321:123|266:212|176:181,1,210
208,100,59437,5,8,0:0:0:0:
119,107,59972,2,0,P|166:22|201:8,1,140
289,10,61580,2,0,B|355:-14|440:63|385:148,1,210
315,94,63722,5,8,0:0:0:0:
235,44,64258,2,0,P|181:84|181:159,1,140
260,183,65865,5,8,0:0:0:0:
311,99,66401,6,0,B|345:126|374:167|352:222|339:233,1,140
276,274,68008,2,2,B|242:284|208:279|181:250|174:234|159:213|156:186|160:158|170:136|186:109|229:94,1,280
304,58,70687,1,0,0:0:0:0:
391,42,71222,1,0,0:0:0:0:
475,70,71758,1,0,0:0:0:0:
408,127,72294,5,8,0:0:0:0:
334,177,72830,2,0,P|340:259|281:280,1,140
211,295,74437,6,0,P|195:207|271:116,1,210
352,104,76580,5,8,0:0:0:0:
436,83,77115,2,0,P|432:137|416:161,2,70
498,199,78722,6,0,B|480:252|456:276|440:292|408:308|368:316|328:316,1,210
259,293,80865,5,8,0:0:0:0:
188,342,81401,2,0,P|172:294|198:234,1,105
320,200,83008,1,8,0:0:0:0:
378,263,83544,2,0,B|418:223|413:166|369:126,1,140
284,108,85151,5,8,0:0:0:0:
354,58,85687,2,0,P|356:153|249:187,1,210
