osu file format v14

[General]
AudioFilename: audio.mp3
AudioLeadIn: 0
PreviewTime: 27248
Countdown: 0
SampleSet: Soft
StackLeniency: 0.4
Mode: 0
LetterboxInBreaks: 0
WidescreenStoryboard: 0

[Editor]
Bookmarks: 27789,40761,53734,66707,79680,89410,102383,115356
DistanceSpacing: 1
BeatDivisor: 8
GridSize: 32
TimelineZoom: 1

[Metadata]
Title:Apeiria
TitleUnicode:アペイリア
Artist:Yakushi Ruri
ArtistUnicode:薬師るり
Creator:Fushimi Rio
Version:Pata-Mon's Normal
Source:景の海のアペイリア
Tags:根本克則 KParaMUSIC Sliky's PLUS DOLCE the sea of landscape hikari umi PinkHeart Imouto OuO Oiso Pata-Mon Adol Christin imoutosan
BeatmapID:1307741
BeatmapSetID:615940

[Difficulty]
HPDrainRate:4
CircleSize:3.5
OverallDifficulty:4
ApproachRate:5
SliderMultiplier:1.2
SliderTickRate:1

[Events]
//Background and Video events
0,0,"bg.jpg",0,0
Video,-522,"flv.flv"
//Break Periods
2,27789,39561
//Storyboard Layer 0 (Background)
//Storyboard Layer 1 (Fail)
//Storyboard Layer 2 (Pass)
//Storyboard Layer 3 (Foreground)
//Storyboard Sound Samples

[TimingPoints]
573,618.556701030928,4,2,1,30,1,0
573,-166.666666666667,4,2,1,30,0,0
882,-166.666666666667,4,2,1,15,0,0
3047,-166.666666666667,4,2,1,5,0,0
5521,-166.666666666667,4,2,1,30,0,0
5830,-166.666666666667,4,2,1,15,0,0
7995,-166.666666666667,4,2,1,5,0,0
10469,-166.666666666667,4,2,1,30,0,0
10779,-166.666666666667,4,2,1,15,0,0
12944,-166.666666666667,4,2,1,5,0,0
15418,-166.666666666667,4,2,1,30,0,0
15727,-166.666666666667,4,2,1,15,0,0
19748,-166.666666666667,4,2,1,30,0,0
27248,-166.666666666667,4,1,5,30,0,0
27789,405.405405405405,4,2,1,80,1,0
40761,-100,4,2,1,80,0,0
53734,-100,4,2,1,60,0,0
66707,-100,4,2,1,80,0,0
79680,-125,4,2,1,80,0,0
89410,-100,4,2,1,80,0,0
100761,-100,4,2,1,90,0,0
102383,-100,4,2,1,90,0,1
111910,-100,4,2,1,90,0,0
112113,-100,4,2,1,90,0,1
115153,-100,4,2,1,90,0,0
115356,-100,4,2,1,90,0,1
134714,-100,4,2,1,90,0,0
134816,-100,4,2,1,90,0,1
137856,-100,4,2,1,90,0,0

[Colours]
Combo1 : 128,255,128
Combo2 : 220,220,255
Combo3 : 255,128,255
Combo4 : 128,128,255

[HitObjects]
196,192,573,6,0,B|204:120|256:64|256:64|308:120|316:192,1,287.999991210938,2|0,0:0|0:0,0:0:0:0:
316,184,5521,6,0,B|375:226|397:300|397:300|323:317|256:287,1,287.999991210938,2|0,0:0|0:0,0:0:0:0:
256,287,10469,6,0,B|189:317|115:300|115:300|137:226|196:184,1,287.999991210938
196,184,15418,6,0,B|144:220|144:220|167:316|256:364|256:364|345:316|368:220|368:220|316:184,1,503.999984619141,0|2,0:0|0:0,0:0:0:0:
352,104,20366,6,0,P|284:19|160:104,1,287.999991210938,2|2,0:0|0:0,0:0:0:0:
256,192,22995,12,0,27248,0:0:0:0:
77,160,40761,6,0,P|144:157|246:133,1,120,6|0,0:0|1:0,0:0:0:0:
255,96,41370,2,0,P|322:99|424:123,1,120,6|2,0:0|0:0,0:0:0:0:
444,141,41978,1,0,1:0:0:0:
374,280,42383,2,0,P|314:289|254:292,1,120,6|0,0:0|1:0,0:0:0:0:
196,240,42991,2,0,P|136:230|76:227,1,120,6|2,0:0|0:0,0:0:0:0:
0,242,43599,1,0,1:0:0:0:
76,378,44005,6,0,P|143:375|245:351,1,120,6|0,0:0|1:0,0:0:0:0:
254,314,44613,2,0,P|321:317|423:341,1,120,6|2,0:0|0:0,0:0:0:0:
443,359,45221,1,0,1:0:0:0:
480,208,45626,2,0,P|477:141|453:39,1,120,6|0,0:0|1:0,0:0:0:0:
420,27,46234,1,2,0:0:0:0:
420,27,46437,2,0,P|485:13|523:34,2,90,2|2|2,0:0|0:0|0:0,0:0:0:0:
356,71,47248,6,0,P|291:73|228:56,1,120,6|0,0:0|1:0,0:0:0:0:
165,32,47856,1,6,0:0:0:0:
41,127,48261,2,0,P|34:164|35:229,1,60,2|0,0:0|1:0,0:0:0:0:
141,298,48870,2,0,P|223:272|283:275,1,120,6|0,0:0|1:0,0:0:0:0:
333,281,49478,1,6,0:0:0:0:
421,152,49883,2,0,P|426:111|422:58,1,60,2|0,0:0|1:0,0:0:0:0:
293,11,50491,6,0,L|162:17,1,120,6|0,0:0|1:0,0:0:0:0:
95,24,51099,1,6,0:0:0:0:
8,153,51505,2,0,P|2:193|7:247,1,60,2|0,0:0|1:0,0:0:0:0:
41,363,52113,2,0,L|178:356,1,120,0|0,1:0|0:0,0:0:0:0:
221,307,52721,2,0,L|358:300,1,120,0|0,1:0|0:0,0:0:0:0:
389,239,53329,2,0,P|394:216|392:161,1,60,0|0,1:0|0:0,0:0:0:0:
334,131,53734,6,0,P|449:124|466:212,2,180,6|2|0,0:0|0:0|1:0,0:0:0:0:
178,131,55356,2,0,P|63:124|46:212,2,180,2|2|0,0:0|0:0|1:0,0:0:0:0:
247,272,56978,6,0,B|133:238|133:238|117:179,2,180,2|2|0,0:0|0:0|1:0,0:0:0:0:
260,117,58599,2,0,B|374:151|374:151|390:210,2,180,2|2|0,0:0|0:0|1:0,0:0:0:0:
117,179,60221,6,0,P|61:176|10:148,1,90,2|0,0:0|0:0,0:0:0:0:
13,47,60829,2,0,P|102:47|186:79,1,180,2|0,0:0|1:0,0:0:0:0:
342,79,61843,2,0,P|390:57|449:43,1,90,2|0,0:0|0:0,0:0:0:0:
512,125,62451,2,0,P|486:194|507:326,1,180,2|0,0:0|1:0,0:0:0:0:
357,372,63464,6,0,P|306:373|243:351,1,90,2|0,0:0|0:0,0:0:0:0:
226,254,64072,2,0,P|147:256|28:289,1,180,2|0,0:0|1:0,0:0:0:0:
0,131,65086,2,0,P|115:100|235:96,1,240,2|4,0:0|3:0,0:0:0:0:
388,129,66302,2,0,L|385:197,1,60,0|0,1:0|0:0,0:0:0:0:
329,243,66707,6,0,L|335:379,1,120,6|0,0:0|1:0,0:0:0:0:
489,347,67518,2,0,L|483:211,1,120,2|0,0:0|1:0,0:0:0:0:
428,171,68126,1,0,0:0:0:0:
428,171,68329,2,0,L|434:35,2,120,2|0|2,0:0|1:0|0:0,0:0:0:0:
306,269,69545,2,0,P|272:266|208:247,1,60,0|0,1:0|0:0,0:0:0:0:
191,205,69951,6,0,P|121:208|20:233,1,120,2|0,0:0|1:0,0:0:0:0:
37,65,70761,2,0,P|107:62|208:37,1,120,2|0,0:0|1:0,0:0:0:0:
233,38,71370,2,0,P|320:60|409:66,1,180,6|0,0:0|1:0,0:0:0:0:
488,52,72180,1,0,0:0:0:0:
488,52,72383,2,0,P|488:116|477:196,1,120,0|2,1:0|0:0,0:0:0:0:
437,321,73194,6,0,L|290:309,1,120,2|0,0:0|1:0,0:0:0:0:
222,188,74005,2,0,L|75:176,1,120,2|0,0:0|1:0,0:0:0:0:
38,222,74613,1,0,0:0:0:0:
38,222,74816,2,0,P|15:286|14:362,2,120,2|0|2,0:0|1:0|0:0,0:0:0:0:
141,105,76032,1,0,1:0:0:0:
280,175,76437,6,0,P|329:176|421:163,1,120,2|0,0:0|1:0,0:0:0:0:
391,11,77248,2,0,P|342:10|250:23,1,120,2|0,0:0|1:0,0:0:0:0:
206,60,77856,1,0,0:0:0:0:
206,60,78059,2,0,P|157:61|65:48,2,120,2|0|0,0:0|1:0|1:0,0:0:0:0:
359,29,79275,2,0,L|463:43,1,60,2|0,0:0|0:0,0:0:0:0:
496,54,79680,6,0,P|497:161|472:273,1,192,0|0,1:0|1:0,0:0:0:0:
435,360,80897,1,0,3:0:0:0:
357,263,81302,2,0,P|255:253|141:269,1,192,0|0,1:0|1:0,0:0:0:0:
88,360,82518,1,0,1:0:0:0:
43,244,82924,6,0,P|26:149|28:53,1,192,0|0,1:0|1:0,0:0:0:0:
146,13,84140,1,0,3:0:0:0:
264,53,84545,2,0,P|265:160|240:272,1,192,0|0,1:0|1:0,0:0:0:0:
146,315,85761,1,0,1:0:0:0:
259,368,86167,6,0,P|372:353|466:293,1,192,0|0,1:0|1:0,0:0:0:0:
506,210,87383,1,0,3:0:0:0:
393,157,87788,2,0,P|279:172|186:232,1,192,0|0,1:0|1:0,0:0:0:0:
146,315,89005,1,0,1:0:0:0:
52,232,89410,6,0,P|39:180|38:78,1,120,0|0,1:0|1:0,0:0:0:0:
49,36,90018,1,0,0:0:0:0:
49,36,90221,2,0,L|192:40,1,120,0|0,1:0|1:0,0:0:0:0:
325,39,91032,2,0,L|468:35,1,120,0|0,1:0|1:0,0:0:0:0:
459,115,91640,1,0,0:0:0:0:
459,115,91843,2,0,P|455:174|441:233,1,120,0|0,1:0|1:0,0:0:0:0:
309,318,92653,6,0,P|305:259|291:200,1,120,0|0,1:0|1:0,0:0:0:0:
212,199,93261,1,0,0:0:0:0:
212,199,93464,2,0,P|199:251|198:353,1,120,0|0,1:0|1:0,0:0:0:0:
47,368,94275,2,0,P|34:316|33:214,2,120,0|0|0,1:0|1:0|1:0,0:0:0:0:
195,317,95491,2,0,P|188:287|186:257,1,60,0|0,1:0|0:0,0:0:0:0:
214,184,95897,6,0,L|348:189,1,120,0|0,1:0|1:0,0:0:0:0:
347,111,96505,1,0,0:0:0:0:
347,111,96707,2,0,L|213:106,1,120,0|0,1:0|1:0,0:0:0:0:
201,262,97518,2,0,L|335:267,1,120,0|0,1:0|1:0,0:0:0:0:
334,189,98126,1,0,0:0:0:0:
334,189,98328,2,0,L|200:184,1,120,0|0,1:0|1:0,0:0:0:0:
57,180,99140,6,0,P|38:236|41:334,1,120,0|0,1:0|1:0,0:0:0:0:
50,375,99748,1,0,0:0:0:0:
50,375,99951,2,0,L|184:370,1,120,0|0,1:0|1:0,0:0:0:0:
293,274,100761,2,0,L|360:276,1,60,0|0,1:0|1:0,0:0:0:0:
149,158,101572,2,0,L|82:160,1,60,0|0,1:0|1:0,0:0:0:0:
293,42,102383,6,0,L|427:47,1,120,6|0,0:0|1:0,0:0:0:0:
490,52,102991,2,0,P|505:113|503:207,1,120,2|2,0:0|0:0,0:0:0:0:
497,247,103599,1,0,1:0:0:0:
410,376,104005,2,0,L|276:371,1,120,2|0,0:0|1:0,0:0:0:0:
226,326,104613,2,0,L|92:331,1,120,2|2,0:0|0:0,0:0:0:0:
28,334,105221,1,0,1:0:0:0:
0,181,105626,6,0,P|16:113|91:39,1,120,2|0,0:0|1:0,0:0:0:0:
108,27,106234,1,0,0:0:0:0:
108,27,106437,2,0,P|174:7|276:34,1,120,2|0,0:0|1:0,0:0:0:0:
298,45,107045,1,0,0:0:0:0:
298,45,107248,2,0,P|348:92|375:194,2,120,2|0|2,0:0|1:0|0:0,0:0:0:0:
223,182,108464,2,0,P|225:226|241:275,1,60,0|0,1:0|0:0,0:0:0:0:
259,313,108870,6,0,P|312:305|418:307,1,120,6|0,0:0|1:0,0:0:0:0:
456,310,109478,1,2,0:0:0:0:
507,162,109883,2,0,P|512:132|512:102,1,60,2|0,0:0|1:0,0:0:0:0:
374,28,110491,2,0,P|310:34|230:38,1,120,2|0,0:0|1:0,0:0:0:0:
176,37,111099,1,2,0:0:0:0:
57,138,111505,2,0,L|54:235,1,60,2|0,0:0|1:0,0:0:0:0:
117,341,112113,6,0,P|167:355|251:311,1,120,2|0,0:0|0:0,0:0:0:0:
278,272,112721,2,0,L|352:278,1,60,2|2,0:0|0:0,0:0:0:0:
408,244,113126,2,0,P|428:207|423:139,1,90,0|0,1:0|1:0,0:0:0:0:
357,67,113734,2,0,B|274:52|228:122|228:122|182:52|99:67,1,300,4|2,1:2|0:0,0:0:0:0:
98,301,115356,6,0,P|178:292|227:246,1,120,6|0,0:0|1:0,0:0:0:0:
250,203,115964,2,0,L|420:210,1,120,2|2,0:0|0:0,0:0:0:0:
447,215,116572,1,0,1:0:0:0:
409,63,116978,2,0,L|239:56,1,120,2|0,0:0|1:0,0:0:0:0:
217,89,117586,2,0,P|137:80|88:34,1,120,2|2,0:0|0:0,0:0:0:0:
47,7,118194,1,0,1:0:0:0:
0,155,118599,6,0,P|0:214|13:273,1,120,2|0,0:0|1:0,0:0:0:0:
169,273,119410,2,0,P|182:214|182:154,1,120,2|0,0:0|1:0,0:0:0:0:
91,28,120221,2,0,L|-14:43,2,90,6|2|2,0:0|0:0|0:0,0:0:0:0:
163,57,121032,2,0,P|229:58|302:32,1,120,0|2,1:0|0:0,0:0:0:0:
430,0,121843,6,0,L|438:155,1,120,6|0,0:0|1:0,0:0:0:0:
393,184,122451,2,0,L|401:339,1,120,2|2,0:0|0:0,0:0:0:0:
404,382,123059,1,0,1:0:0:0:
251,353,123464,2,0,L|243:198,1,120,2|0,0:0|1:0,0:0:0:0:
92,197,124275,2,0,L|100:352,1,120,2|0,0:0|1:0,0:0:0:0:
251,353,125086,6,0,L|341:345,2,60,6|2|0,0:0|0:0|1:0,0:0:0:0:
98,317,125897,2,0,L|8:325,2,60,2|2|0,0:0|0:0|1:0,0:0:0:0:
206,204,126707,2,0,L|386:188,1,120,2|0,0:0|1:0,0:0:0:0:
370,342,127518,2,0,L|190:358,1,120,2|0,0:0|1:0,0:0:0:0:
98,317,128329,6,0,P|73:265|83:162,1,120,2|0,0:0|1:0,0:0:0:0:
84,126,128937,1,0,0:0:0:0:
84,126,129140,2,0,L|264:110,1,120,2|0,0:0|1:0,0:0:0:0:
305,233,129951,2,0,L|485:249,1,120,2|0,0:0|1:0,0:0:0:0:
482,191,130559,1,0,0:0:0:0:
482,191,130761,2,0,P|511:126|495:25,1,120,2|0,0:0|1:0,0:0:0:0:
357,98,131572,6,0,L|177:82,2,120,2|0|2,0:0|1:0|0:0,0:0:0:0:
482,191,132788,1,0,1:0:0:0:
464,346,133194,2,0,P|359:362|339:253,1,240,6|2,0:0|0:0,0:0:0:0:
482,191,134410,1,0,1:0:0:0:
357,98,134816,6,0,P|265:75|175:104,2,180,0|0|0,1:0|1:0|1:0,0:0:0:0:
428,321,136640,2,0,B|332:321|271:247|271:247|210:321|114:321,1,360,0|0,1:0|1:0,0:0:0:0:
