osu file format v14

[General]
AudioFilename: audio.mp3
AudioLeadIn: 0
PreviewTime: 27248
Countdown: 0
SampleSet: Soft
StackLeniency: 0.4
Mode: 0
LetterboxInBreaks: 0
WidescreenStoryboard: 1

[Editor]
DistanceSpacing: 1
BeatDivisor: 4
GridSize: 4
TimelineZoom: 2

[Metadata]
Title:Apeiria
TitleUnicode:アペイリア
Artist:Yakushi Ruri
ArtistUnicode:薬師るり
Creator:Fushimi Rio
Version:Imouto's Hard
Source:景の海のアペイリア
Tags:根本克則 KParaMUSIC Sliky's PLUS DOLCE the sea of landscape hikari umi PinkHeart Imouto OuO Oiso Pata-Mon Adol Christin imoutosan
BeatmapID:1305860
BeatmapSetID:615940

[Difficulty]
HPDrainRate:6
CircleSize:4
OverallDifficulty:6
ApproachRate:7.5
SliderMultiplier:1.6
SliderTickRate:1

[Events]
//Background and Video events
0,0,"bg.jpg",0,0
Video,-522,"flv.flv"
//Break Periods
//Storyboard Layer 0 (Background)
//Storyboard Layer 1 (Fail)
//Storyboard Layer 2 (Pass)
//Storyboard Layer 3 (Foreground)
//Storyboard Sound Samples

[TimingPoints]
573,618.556701030928,4,2,1,30,1,0
573,-200,4,2,1,30,0,0
26552,-200,4,2,1,40,0,0
26707,-200,4,2,1,50,0,0
26861,-200,4,2,1,60,0,0
27016,-200,4,2,1,70,0,0
27093,-200,4,2,1,50,0,0
27170,-200,4,2,1,40,0,0
27248,-100,4,1,5,30,0,0
27789,405.405405405405,4,2,1,50,1,0
27789,-125,4,2,1,50,0,0
40356,-133.333333333333,4,2,1,80,0,0
40761,-100,4,2,1,80,0,0
53734,-100,4,2,1,60,0,0
65086,-100,4,2,1,40,0,0
65897,-100,4,2,1,60,0,0
66707,-100,4,2,1,70,0,0
79680,-100,4,2,1,90,0,0
89410,-100,4,2,1,80,0,0
100761,-133.333333333333,4,2,1,90,0,0
101978,-100,4,2,1,100,0,0
102383,-100,4,2,1,80,0,1
111910,-100,4,2,1,80,0,0
112113,-100,4,2,1,100,0,1
113126,-133.333333333333,4,2,1,100,0,1
113734,-133.333333333333,4,2,2,100,0,1
114343,-100,4,2,1,100,0,1
114545,-100,4,2,1,80,0,1
115153,-100,4,2,1,80,0,0
115356,-100,4,2,1,80,0,1
129140,-100,4,2,2,80,0,1
129951,-100,4,2,3,80,0,1
130761,-100,4,2,1,80,0,1
131572,-100,4,2,2,90,0,1
132383,-100,4,2,1,90,0,1
133194,-100,4,2,3,90,0,1
134005,-100,4,2,2,100,0,1
134714,-100,4,2,1,90,0,0
134816,-100,4,2,1,100,0,1
137856,-100,4,2,1,100,0,0

[Colours]
Combo1 : 128,255,128
Combo2 : 220,220,255
Combo3 : 255,128,255
Combo4 : 128,128,255

[HitObjects]
256,192,573,5,8,0:3:0:0:
256,192,5521,5,8,0:3:0:0:
383,137,10469,6,0,P|401:104|405:67,2,60,8|0|0,0:3|0:0|0:0,0:0:0:0:
316,78,11707,2,0,P|276:70|223:77,1,80,0|0,0:0|0:0,0:0:0:0:
193,266,15418,6,0,P|182:297|179:336,2,60,8|0|0,0:3|0:0|0:0,0:0:0:0:
226,184,16655,2,0,P|237:152|239:97,1,80,0|0,0:0|0:0,0:0:0:0:
305,144,19748,5,2,0:0:0:0:
384,305,20366,2,0,P|416:288|454:290,2,60,8|0|0,0:3|0:0|0:0,0:0:0:0:
342,225,21603,2,0,P|378:204|429:199,1,80,0|0,0:0|0:0,0:0:0:0:
266,277,22841,1,8,0:0:0:0:
256,192,22918,12,0,27248,0:0:0:0:
154,119,27789,5,2,0:0:0:0:
232,92,27991,1,0,0:0:0:0:
271,164,28194,2,0,P|309:158|347:134,1,64,0|2,0:0|0:0,0:0:0:0:
476,62,28802,2,0,P|481:100|466:140,1,64,0|2,0:0|0:0,0:0:0:0:
398,31,29410,6,0,P|391:62|398:92,1,64,2|0,0:0|0:0,0:0:0:0:
409,175,29816,2,0,P|413:210|398:253,1,64,0|2,0:0|0:0,0:0:0:0:
278,345,30424,2,0,P|246:338|215:345,1,64,0|2,0:0|0:0,0:0:0:0:
136,371,30829,2,0,L|106:383,2,32,0|0|2,0:0|0:0|0:0,0:0:0:0:
149,289,31234,5,0,0:0:0:0:
73,243,31437,2,0,P|60:291|72:331,1,64,2|0,0:0|0:0,0:0:0:0:
183,104,32451,6,0,L|211:66,1,32,0|0,0:0|0:0,0:0:0:0:
126,172,32653,2,0,P|100:139|97:90,1,64,2|0,0:0|0:0,0:0:0:0:
125,263,33059,2,0,P|84:253|51:216,1,64,0|0,0:0|0:0,0:0:0:0:
212,187,33464,2,0,L|291:170,1,64,2|0,0:0|0:0,0:0:0:0:
288,91,33870,2,0,L|349:109,1,64,0|0,0:0|0:0,0:0:0:0:
429,85,34275,5,2,0:0:0:0:
409,166,34478,1,0,0:0:0:0:
347,222,34680,2,0,P|385:246|413:250,1,64,0|2,0:0|0:0,0:0:0:0:
297,378,35288,2,0,P|266:368|242:348,1,64,0|2,0:0|0:0,0:0:0:0:
198,272,35694,2,0,L|234:260,1,32,0|0,0:0|0:0,0:0:0:0:
114,303,35897,6,0,P|128:331|154:350,2,64,2|0|0,0:0|0:0|0:0,0:0:0:0:
114,303,36505,1,2,0:0:0:0:
77,140,36910,2,0,P|59:105|28:86,1,64,0|2,0:0|0:0,0:0:0:0:
55,227,37316,2,0,L|7:239,2,32,0|0|2,0:0|0:0|0:0,0:0:0:0:
140,204,37721,6,0,L|213:182,2,64,0|2|0,0:0|0:0|0:0,0:0:0:0:
255,84,38532,1,0,0:0:0:0:
249,247,38937,1,0,0:0:0:0:
249,247,39038,1,0,0:0:0:0:
249,247,39140,2,0,P|274:300|327:324,2,96,2|0|0,0:0|0:0|0:0,0:0:0:0:
237,164,39951,2,0,L|294:132,1,64,2|0,0:0|0:0,0:0:0:0:
327,209,40356,6,0,P|381:225|421:210,1,90.0000034332277,0|0,1:0|0:0,0:0:0:0:
406,160,40761,6,0,P|411:121|433:81,1,80,4|0,0:0|0:0,0:0:0:0:
438,54,41066,1,0,0:0:0:0:
438,54,41167,2,0,P|392:45|350:57,1,80,0|0,1:0|3:0,0:0:0:0:
273,35,41572,2,0,P|239:68|186:87,1,80,0|0,0:0|0:0,0:0:0:0:
177,78,41876,1,0,3:0:0:0:
177,78,41978,2,0,P|145:52|74:47,1,80,0|0,1:0|0:0,0:0:0:0:
38,97,42383,6,0,P|11:167|27:252,1,160,2|0,3:2|1:0,0:0:0:0:
112,260,42991,1,0,3:0:0:0:
143,177,43194,2,0,P|204:149|288:179,1,160,0|0,0:0|1:0,0:0:0:0:
342,240,43802,1,2,0:0:0:0:
342,240,44005,6,0,P|374:209|386:168,1,80,4|0,0:0|0:0,0:0:0:0:
416,185,44309,1,0,0:0:0:0:
416,185,44410,2,0,P|455:194|497:184,1,80,0|0,1:0|3:0,0:0:0:0:
449,273,44816,2,0,P|448:319|471:355,1,80,0|0,0:0|0:0,0:0:0:0:
432,354,45120,1,0,3:0:0:0:
432,354,45221,2,0,P|395:343|358:354,1,80,0|0,1:0|0:0,0:0:0:0:
278,357,45626,6,0,P|226:295|140:296,1,160,4|0,0:1|0:0,0:0:0:0:
68,321,46234,1,0,0:0:0:0:
83,236,46437,2,0,L|120:219,2,40,4|0|0,1:0|0:0|3:0,0:0:0:0:
103,163,46741,2,0,L|70:140,2,40,0|0|0,1:0|0:0|0:0,0:0:0:0:
155,149,47045,1,0,1:0:0:0:
155,149,47248,6,0,P|231:132|259:101,1,120,4|0,0:0|0:0,0:0:0:0:
277,73,47653,1,0,1:0:0:0:
350,126,47856,2,0,L|518:115,1,160,2|2,0:0|0:0,0:0:0:0:
481,199,48464,1,0,1:0:0:0:
393,205,48667,1,0,0:0:0:0:
354,284,48870,6,0,P|371:342|434:384,1,120,0|0,0:0|0:0,0:0:0:0:
447,384,49275,1,0,1:0:0:0:
450,287,49478,2,0,L|286:279,1,160,2|2,0:0|0:0,0:0:0:0:
226,339,50086,2,0,L|264:366,1,40,0|0,1:0|3:0,0:0:0:0:
128,343,50491,6,0,P|91:320|71:274,1,80,4|0,0:0|0:0,0:0:0:0:
60,259,50795,1,0,0:0:0:0:
60,259,50897,2,0,B|110:270|157:240,1,80,0|0,1:0|0:0,0:0:0:0:
96,172,51302,2,0,P|92:132|98:90,1,80,0|0,1:0|0:0,0:0:0:0:
108,62,51606,1,0,0:0:0:0:
108,62,51707,2,0,P|148:80|185:129,1,80,0|2,1:0|0:0,0:0:0:0:
224,190,52113,6,0,L|276:218,5,40,4|0|0|0|0|0,1:0|0:0|0:0|0:0|3:0|0:0,0:0:0:0:
289,219,52721,2,0,L|339:207,5,40,4|0|0|0|0|0,0:0|0:0|0:0|0:0|3:0|3:0,0:0:0:0:
347,184,53329,6,0,L|376:140,3,40,0|0|0|0,1:0|1:0|1:0|3:0,0:0:0:0:
400,143,53734,6,0,P|446:206|430:283,1,160,4|0,0:2|0:0,0:0:0:0:
383,367,54343,2,0,P|337:304|354:228,1,160,2|0,0:0|0:0,0:0:0:0:
400,143,54951,1,0,1:0:0:0:
477,102,55153,1,0,0:0:0:0:
432,26,55356,6,0,P|367:32|331:19,1,80,2|0,0:0|0:0,0:0:0:0:
318,20,55660,2,0,P|277:14|230:23,1,80,0|0,0:0|0:0,0:0:0:0:
207,37,55964,1,0,0:0:0:0:
165,114,56167,2,0,P|133:82|121:36,1,80,0|0,0:0|0:0,0:0:0:0:
36,28,56572,1,0,1:0:0:0:
41,115,56775,1,0,0:0:0:0:
99,180,56978,6,0,P|165:207|223:188,2,120,4|2|2,0:0|0:0|0:0,0:0:0:0:
41,115,57788,1,0,0:0:0:0:
12,198,57991,1,0,0:0:0:0:
165,114,58194,2,0,L|253:109,1,80,0|0,1:0|0:0,0:0:0:0:
328,137,58599,6,0,P|341:181|376:216,1,80,2|0,0:0|0:0,0:0:0:0:
392,195,58903,2,0,P|432:186|475:197,1,80,0|0,0:0|0:0,0:0:0:0:
499,206,59207,1,0,0:0:0:0:
471,349,59410,2,0,P|439:325|420:291,1,80,2|0,0:0|0:0,0:0:0:0:
331,287,59816,1,0,1:0:0:0:
263,343,60018,1,0,0:0:0:0:
181,308,60221,6,0,P|129:349|49:356,2,120,4|2|2,0:0|0:0|0:0,0:0:0:0:
254,255,61032,1,0,0:0:0:0:
263,343,61234,1,0,0:0:0:0:
181,308,61437,2,0,P|144:295|113:270,1,80,0|0,1:0|0:0,0:0:0:0:
63,195,61843,6,0,P|131:181|191:230,2,120,2|2|0,0:0|0:0|0:0,0:0:0:0:
38,40,62653,1,0,0:0:0:0:
10,124,62856,1,0,0:0:0:0:
105,96,63059,2,0,L|196:77,1,80,0|0,1:0|0:0,0:0:0:0:
260,37,63464,6,0,P|306:98|384:106,1,160,4|0,0:0|0:0,0:0:0:0:
426,29,64072,2,0,P|473:105|435:178,1,160,2|0,0:0|0:0,0:0:0:0:
385,225,64680,1,0,1:0:0:0:
469,251,64883,1,0,0:0:0:0:
385,225,65086,6,0,P|347:215|308:220,1,80,0|0,3:0|0:0,0:0:0:0:
396,312,65491,2,0,P|430:339|485:345,1,80,0|2,0:0|0:0,0:0:0:0:
307,307,65897,2,0,P|258:334|170:320,1,120,4|0,0:1|0:0,0:0:0:0:
152,339,66302,2,0,L|133:374,3,40,0|0|2|2,1:0|3:0|0:0|0:0,0:0:0:0:
133,299,66707,6,0,P|129:252|111:191,1,80,4|0,0:0|0:0,0:0:0:0:
130,131,67113,2,0,L|40:124,1,80,0|0,1:0|0:0,0:0:0:0:
101,53,67518,2,0,L|185:42,1,80,2|2,0:0|0:0,0:0:0:0:
268,36,67924,1,0,1:0:0:0:
230,115,68126,1,2,0:0:0:0:
180,187,68329,6,0,P|142:178|104:189,1,80,0|0,0:0|0:0,0:0:0:0:
249,243,68734,2,0,P|287:252|325:241,1,80,2|0,1:2|0:0,0:0:0:0:
387,177,69140,1,2,1:2:0:0:
321,117,69343,1,2,0:0:0:0:
321,117,69444,1,0,0:0:0:0:
321,117,69545,1,0,1:0:0:0:
360,38,69748,1,2,0:0:0:0:
447,27,69951,6,0,P|472:67|474:114,1,80,4|0,0:0|0:0,0:0:0:0:
465,186,70356,2,0,P|471:230|502:271,1,80,0|2,1:0|0:0,0:0:0:0:
505,347,70761,2,0,P|458:340|409:356,1,80,0|2,0:0|0:2,0:0:0:0:
340,365,71167,1,2,1:2:0:0:
289,292,71370,6,0,P|228:343|142:327,1,160,4|2,0:0|0:0,0:0:0:0:
115,252,71978,1,0,1:0:0:0:
203,251,72180,1,2,0:0:0:0:
69,327,72383,1,2,3:2:0:0:
55,187,72586,2,0,L|50:143,2,40,2|0|0,3:2|0:0|1:0,0:0:0:0:
139,162,72991,1,0,3:0:0:0:
139,162,73093,1,0,0:0:0:0:
139,162,73194,6,0,P|176:169|224:151,1,80,4|0,0:0|0:0,0:0:0:0:
310,42,73599,1,0,1:0:0:0:
228,76,73802,1,0,0:0:0:0:
299,130,74005,1,2,0:0:0:0:
381,99,74207,2,0,L|391:150,2,40,2|2|0,0:0|0:0|1:0,0:0:0:0:
464,70,74613,1,2,0:0:0:0:
464,70,74714,1,2,0:0:0:0:
464,70,74816,6,0,P|457:30|434:-1,1,80,4|0,0:0|0:0,0:0:0:0:
471,157,75221,2,0,P|477:195|503:230,1,80,0|0,1:0|0:0,0:0:0:0:
491,313,75626,1,2,0:0:0:0:
435,381,75829,1,2,0:0:0:0:
386,307,76032,1,2,1:2:0:0:
330,375,76235,1,2,0:0:0:0:
270,310,76437,6,0,P|240:350|202:366,1,80,4|0,0:0|0:0,0:0:0:0:
125,361,76843,2,0,P|84:335|32:332,1,80,0|0,1:0|0:0,0:0:0:0:
107,260,77248,1,2,0:0:0:0:
107,260,77451,1,0,0:0:0:0:
192,237,77653,1,0,1:0:0:0:
192,237,77856,1,2,0:0:0:0:
127,176,78059,5,0,0:0:0:0:
55,124,78261,2,0,L|19:99,2,40,2|2|2,0:0|0:0|1:2,0:0:0:0:
127,176,78667,1,2,0:0:0:0:
50,219,78870,2,0,L|14:244,2,40,0|0|0,1:0|3:0|0:0,0:0:0:0:
127,176,79275,1,0,0:0:0:0:
203,132,79478,1,0,1:0:0:0:
203,132,79579,1,0,1:0:0:0:
203,132,79680,6,0,P|209:81|313:29,1,160,4|0,1:0|0:0,0:0:0:0:
328,104,80288,2,0,L|290:115,2,40,0|0|0,3:0|3:0|1:0,0:0:0:0:
382,34,80694,1,0,3:0:0:0:
382,34,80796,1,0,3:0:0:0:
382,34,80897,1,0,1:0:0:0:
464,63,81099,2,0,L|502:52,2,40,0|0|0,3:0|3:0|1:0,0:0:0:0:
439,147,81505,5,0,1:0:0:0:
394,222,81707,2,0,P|385:271|399:304,1,80,2|2,0:0|0:0,0:0:0:0:
476,333,82113,2,0,P|485:284|471:251,1,80,4|0,1:0|0:0,0:0:0:0:
439,147,82518,2,0,P|393:134|346:147,1,80,4|0,1:0|0:0,0:0:0:0:
263,84,82924,6,0,P|249:178|195:210,1,160,4|2,1:0|3:2,0:0:0:0:
175,117,83532,2,0,L|78:152,1,80,0|0,1:0|1:0,0:0:0:0:
17,176,83937,2,0,L|-4:134,2,40,0|0|0,3:0|3:0|1:0,0:0:0:0:
87,228,84343,1,0,3:0:0:0:
87,228,84444,1,0,3:0:0:0:
87,228,84545,6,0,P|134:243|161:277,1,80,0|0,1:0|3:0,0:0:0:0:
8,331,84951,2,0,P|47:332|83:316,1,80,0|0,1:0|0:0,0:0:0:0:
154,264,85356,1,2,1:2:0:0:
165,350,85559,1,0,0:0:0:0:
233,225,85761,1,0,1:0:0:0:
244,311,85964,1,0,0:0:0:0:
310,261,86167,6,0,P|318:210|296:162,1,80,4|0,1:2|1:0,0:0:0:0:
360,110,86572,2,0,P|399:115|433:135,1,80,2|0,0:0|0:0,0:0:0:0:
271,104,86978,1,0,0:0:0:0:
201,50,87180,1,2,0:0:0:0:
198,137,87383,2,0,L|294:92,1,80,2|0,1:2|1:0,0:0:0:0:
333,41,87788,6,0,P|412:10|492:64,1,160,0|2,1:0|0:0,0:0:0:0:
511,121,88397,1,0,0:0:0:0:
465,196,88599,2,0,L|384:214,1,80,4|0,1:0|0:0,0:0:0:0:
436,288,89005,2,0,L|359:305,1,80,0|0,1:0|0:0,0:0:0:0:
290,243,89410,6,0,P|220:225|138:264,1,160,4|0,1:0|1:0,0:0:0:0:
93,332,90018,1,0,0:0:0:0:
52,243,90221,2,0,L|45:165,1,80,0|0,1:0|0:0,0:0:0:0:
136,175,90626,2,0,L|129:97,1,80,0|0,1:0|0:0,0:0:0:0:
58,44,91032,6,0,P|147:9|209:58,1,160,4|0,1:0|1:0,0:0:0:0:
262,97,91640,1,0,0:0:0:0:
344,67,91843,2,0,L|427:49,1,80,0|0,1:0|0:0,0:0:0:0:
499,120,92248,2,0,L|416:138,1,80,0|0,1:0|0:0,0:0:0:0:
335,157,92653,6,0,L|353:240,1,80,4|0,1:0|0:0,0:0:0:0:
406,304,93059,1,0,1:0:0:0:
406,304,93261,1,0,0:0:0:0:
318,317,93464,2,0,L|233:259,1,80,0|0,1:0|0:0,0:0:0:0:
216,353,93870,2,0,L|131:295,1,80,0|0,1:0|0:0,0:0:0:0:
81,363,94275,5,4,1:0:0:0:
63,276,94478,1,0,0:0:0:0:
131,220,94680,2,0,L|217:201,1,80,0|2,1:0|0:0,0:0:0:0:
294,180,95086,1,2,1:2:0:0:
232,288,95288,1,0,0:0:0:0:
209,202,95491,2,0,L|186:107,1,80,2|2,1:2|0:0,0:0:0:0:
114,79,95897,6,0,P|165:120|260:98,1,160,4|0,1:0|1:0,0:0:0:0:
327,57,96505,1,0,0:0:0:0:
403,13,96707,2,0,L|419:94,1,80,0|0,1:0|0:0,0:0:0:0:
507,78,97113,2,0,L|488:168,1,80,0|0,1:0|0:0,0:0:0:0:
421,211,97518,6,0,P|398:288|456:365,1,160,4|0,1:0|1:0,0:0:0:0:
492,275,98126,1,0,0:0:0:0:
304,281,98329,2,0,L|201:297,1,80,0|0,1:0|0:0,0:0:0:0:
180,384,98734,2,0,L|283:368,1,80,0|0,1:0|0:0,0:0:0:0:
95,324,99140,6,0,L|13:317,1,80,4|0,1:0|0:0,0:0:0:0:
77,235,99545,2,0,L|159:242,1,80,0|0,1:0|0:0,0:0:0:0:
223,175,99951,2,0,B|189:151|189:151|169:117,1,80,0|0,1:0|0:0,0:0:0:0:
254,92,100356,2,0,B|288:116|288:116|306:150,1,80,0|0,1:0|0:0,0:0:0:0:
354,221,100761,6,0,L|309:261,1,60.0000022888184,4|0,1:2|1:0,0:0:0:0:
330,353,101572,6,0,L|374:312,1,60.0000022888184,4|0,1:2|1:0,0:0:0:0:
439,252,101978,2,0,B|453:234|453:234|428:185|462:140,1,120,2|0,0:0|0:0,0:0:0:0:
474,113,102383,6,0,P|425:119|369:92,1,80,4|0,0:0|0:0,0:0:0:0:
310,91,102788,1,0,1:0:0:0:
242,149,102991,2,0,P|218:179|210:218,1,80,0|2,0:0|0:0,0:0:0:0:
327,176,103397,1,2,0:0:0:0:
310,91,103599,2,0,P|278:69|239:63,1,80,0|0,1:0|0:0,0:0:0:0:
157,25,104005,6,0,P|149:77|168:119,1,80,2|0,0:0|0:0,0:0:0:0:
122,183,104410,1,0,1:0:0:0:
72,259,104613,2,0,P|45:288|7:301,1,80,0|2,0:0|0:0,0:0:0:0:
35,180,105019,1,2,0:2:0:0:
122,183,105221,2,0,P|149:211|161:249,1,80,0|2,1:0|0:2,0:0:0:0:
131,332,105626,6,0,P|170:336|208:325,1,80,4|0,0:0|0:2,0:0:0:0:
322,277,106032,1,0,1:0:0:0:
241,242,106234,1,0,0:0:0:0:
289,359,106437,2,0,P|338:365|380:344,1,80,2|0,0:0|0:0,0:0:0:0:
453,350,106843,1,0,1:0:0:0:
407,276,107045,1,2,1:2:0:0:
472,142,107248,6,0,P|482:181|475:220,1,80,4|0,0:0|0:0,0:0:0:0:
391,179,107653,2,0,P|383:141|390:102,1,80,0|0,3:0|3:0,0:0:0:0:
469,62,108059,2,0,L|507:47,2,40,4|0|0,1:0|0:0|3:0,0:0:0:0:
390,102,108464,1,2,0:0:0:0:
322,45,108667,1,0,3:0:0:0:
322,45,108768,1,0,0:0:0:0:
322,45,108870,6,0,P|260:70|219:125,1,120,4|0,0:0|0:0,0:0:0:0:
215,139,109275,2,0,P|257:142|301:167,1,80,0|0,1:0|0:0,0:0:0:0:
368,199,109680,1,2,0:0:0:0:
288,237,109883,1,2,0:0:0:0:
196,223,110086,2,0,P|159:206|127:134,1,120,0|0,1:0|0:0,0:0:0:0:
97,124,110491,6,0,P|52:133|16:164,1,80,2|0,0:0|0:0,0:0:0:0:
5,278,110897,2,0,P|26:244|60:223,1,80,0|2,1:0|0:0,0:0:0:0:
89,307,111302,1,2,0:0:0:0:
19,361,111505,1,2,0:0:0:0:
160,367,111707,2,0,P|190:345|242:339,1,80,0|0,1:0|0:0,0:0:0:0:
322,350,112113,6,0,P|398:364|457:315,1,160,4|0,1:2|0:0,0:0:0:0:
496,236,112721,2,0,P|435:230|407:245,1,80,4|0,1:0|0:0,0:0:0:0:
290,184,113126,6,0,P|261:193|239:213,1,60.0000022888184,4|0,0:1|0:0,0:0:0:0:
359,187,113430,2,0,P|387:177|409:157,1,60.0000022888184,2|0,0:0|0:0,0:0:0:0:
320,227,113734,6,0,P|333:260|370:289,1,60.0000022888184,4|0,1:2|0:0,0:0:0:0:
327,146,114038,2,0,P|317:117|297:95,1,60.0000022888184,2|0,0:0|0:0,0:0:0:0:
226,64,114343,2,0,P|298:94|373:71,1,160,4|2,0:1|0:0,0:0:0:0:
429,1,114951,2,0,P|457:38|461:88,1,80,0|0,0:0|0:0,0:0:0:0:
476,157,115356,6,0,P|433:148|392:158,1,80,4|0,0:0|0:0,0:0:0:0:
350,229,115761,1,0,1:0:0:0:
437,237,115964,2,0,P|446:289|436:322,1,80,0|0,0:0|0:0,0:0:0:0:
371,370,116370,1,0,0:0:0:0:
308,307,116572,2,0,P|274:279|226:275,1,80,0|0,1:0|0:0,0:0:0:0:
164,319,116978,5,2,0:0:0:0:
111,248,117180,1,0,0:0:0:0:
152,170,117383,2,0,L|237:165,1,80,0|0,1:0|0:0,0:0:0:0:
298,108,117788,1,2,0:0:0:0:
261,27,117991,1,0,0:0:0:0:
349,30,118194,2,0,P|385:67|389:110,1,80,0|0,1:0|0:0,0:0:0:0:
448,162,118599,5,2,0:0:0:0:
394,232,118802,1,0,0:0:0:0:
470,276,119005,1,0,1:0:0:0:
416,346,119208,1,2,0:0:0:0:
339,303,119410,2,0,P|295:290|237:314,1,80,0|0,0:0|0:0,0:0:0:0:
196,233,119816,2,0,L|278:214,1,80,0|0,1:0|0:0,0:0:0:0:
307,133,120221,6,0,P|273:96|229:85,1,80,4|0,0:0|0:0,0:0:0:0:
213,88,120525,2,0,L|114:93,1,80,0|0,3:0|0:0,0:0:0:0:
100,94,120829,1,0,1:0:0:0:
36,154,121032,2,0,L|3:191,1,40,4|0,1:2|3:0,0:0:0:0:
136,172,121336,2,0,L|103:209,1,40,0|4,3:0|1:0,0:0:0:0:
41,265,121640,1,0,3:0:0:0:
41,265,121741,1,0,0:0:0:0:
41,265,121843,6,0,P|13:316|76:379,1,160,4|0,0:0|1:0,0:0:0:0:
150,332,122451,2,0,P|192:321|244:339,1,80,2|0,0:0|0:0,0:0:0:0:
309,360,122856,1,0,0:0:0:0:
304,271,123059,2,0,L|238:225,1,80,0|0,1:0|0:0,0:0:0:0:
338,189,123464,5,2,0:0:0:0:
396,254,123667,1,0,0:0:0:0:
396,254,123870,2,0,P|436:273|483:270,1,80,0|0,1:0|0:0,0:0:0:0:
453,185,124275,1,2,0:0:0:0:
418,64,124478,1,0,0:0:0:0:
495,107,124680,1,0,1:0:0:0:
375,141,124883,1,2,0:0:0:0:
286,136,125086,6,0,P|294:94|325:65,2,80,4|2|2,0:0|0:0|1:2,0:0:0:0:
289,224,125694,1,0,0:0:0:0:
208,189,125897,2,0,L|155:163,2,40,2|0|0,0:0|0:0|0:0,0:0:0:0:
289,224,126302,1,0,1:0:0:0:
370,256,126505,1,2,0:0:0:0:
355,342,126707,6,0,P|390:359|430:358,1,80,2|0,0:0|0:0,0:0:0:0:
271,312,127113,2,0,L|271:360,2,40,0|0|0,1:0|3:0|0:0,0:0:0:0:
188,342,127518,2,0,P|152:359|112:358,1,80,2|0,0:0|0:0,0:0:0:0:
133,272,127924,1,0,1:0:0:0:
57,227,128126,1,2,0:0:0:0:
101,150,128329,6,0,P|133:182|168:194,2,80,12|0|0,0:0|0:0|1:0,0:0:0:0:
98,61,128937,1,0,0:0:0:0:
179,97,129140,2,0,P|186:54|171:6,2,80,10|0|0,0:0|0:0|1:0,0:0:0:0:
165,193,129748,1,2,0:0:0:0:
98,61,129951,5,8,3:2:0:0:
266,78,130153,1,0,0:0:0:0:
266,78,130356,2,0,P|307:83|354:116,1,80,0|0,1:0|0:0,0:0:0:0:
380,180,130761,1,8,1:2:0:0:
291,176,130964,1,0,3:0:0:0:
429,105,131167,2,0,P|464:146|468:191,1,80,0|0,1:0|3:0,0:0:0:0:
487,256,131572,6,0,P|424:250|357:271,1,120,12|0,0:0|3:0,0:0:0:0:
341,280,131978,1,0,1:0:0:0:
406,344,132180,1,0,3:0:0:0:
320,364,132383,2,0,L|252:320,1,80,8|0,1:2|3:0,0:0:0:0:
97,289,132788,2,0,L|164:332,1,80,0|0,1:0|3:0,0:0:0:0:
203,253,133194,5,12,0:0:0:0:
245,176,133397,1,0,1:0:0:0:
157,176,133599,2,0,L|117:176,3,40,0|0|0|0,0:0|0:0|0:0|1:0,0:0:0:0:
185,160,134005,2,0,P|216:126|228:80,1,80,4|0,1:2|1:0,0:0:0:0:
151,43,134410,1,4,1:0:0:0:
297,46,134613,1,0,1:0:0:0:
383,49,134816,6,0,L|463:115,1,80,4|0,1:2|0:0,0:0:0:0:
512,152,135221,1,0,0:0:0:0:
376,140,135424,2,0,L|390:231,1,80,4|0,1:0|0:0,0:0:0:0:
403,303,135829,1,0,1:0:0:0:
312,208,136032,6,0,L|271:288,1,80,4|0,1:0|0:0,0:0:0:0:
240,356,136437,1,0,1:0:0:0:
192,280,136640,2,0,L|112:280,1,80,4|0,0:2|1:0,0:0:0:0:
164,356,137045,1,0,1:0:0:0:
275,279,137248,6,0,P|309:304|318:363,2,80,4|0|0,1:1|1:0|1:0,0:0:0:0:
192,280,137856,1,4,1:0:0:0:
