osu file format v14

[General]
AudioFilename: audio.mp3
AudioLeadIn: 0
PreviewTime: 27248
Countdown: 0
SampleSet: Soft
StackLeniency: 0.4
Mode: 0
LetterboxInBreaks: 0
WidescreenStoryboard: 1

[Editor]
DistanceSpacing: 1
BeatDivisor: 4
GridSize: 4
TimelineZoom: 1.6

[Metadata]
Title:Apeiria
TitleUnicode:アペイリア
Artist:Yakushi Ruri
ArtistUnicode:薬師るり
Creator:Fushimi Rio
Version:Adol's Easy
Source:景の海のアペイリア
Tags:根本克則 KParaMUSIC Sliky's PLUS DOLCE the sea of landscape hikari umi PinkHeart Imouto OuO Oiso Pata-Mon Adol Christin imoutosan
BeatmapID:1305804
BeatmapSetID:615940

[Difficulty]
HPDrainRate:2
CircleSize:3
OverallDifficulty:1
ApproachRate:2
SliderMultiplier:0.999999999999999
SliderTickRate:1

[Events]
//Background and Video events
0,0,"bg.jpg",0,0
Video,-522,"flv.flv"
//Break Periods
2,773,3961
2,5721,8909
2,10669,13858
2,15618,18806
2,20566,21281
2,27789,39201
//Storyboard Layer 0 (Background)
//Storyboard Layer 1 (Fail)
//Storyboard Layer 2 (Pass)
//Storyboard Layer 3 (Foreground)
//Storyboard Sound Samples

[TimingPoints]
573,618.556701030928,4,2,1,30,1,0
573,-100,4,2,1,30,0,0
27248,-100,4,1,5,30,0,0
27789,405.405405405405,4,2,1,80,1,0
40356,-100,4,2,1,80,0,0
40761,-100,4,2,1,80,0,0
53734,-100,4,2,1,60,0,0
65086,-100,4,2,1,40,0,0
65694,-100,4,2,1,40,0,0
65897,-100,4,2,1,60,0,0
66707,-100,4,2,1,70,0,0
79680,-100,4,2,1,90,0,0
82113,-100,4,2,1,90,0,0
82518,-100,4,2,1,90,0,0
82924,-100,4,2,1,90,0,0
88599,-100,4,2,1,90,0,0
89410,-100,4,2,1,80,0,0
100761,-100,4,2,1,90,0,0
101978,-100,4,2,1,100,0,0
102383,-100,4,2,1,80,0,1
111910,-100,4,2,1,80,0,0
112113,-100,4,2,1,100,0,1
113734,-100,4,2,2,100,0,1
114343,-100,4,2,1,100,0,1
114545,-100,4,2,1,80,0,1
115153,-100,4,2,1,80,0,0
115356,-100,4,2,1,80,0,1
129140,-100,4,2,2,80,0,1
129951,-100,4,2,3,80,0,1
130761,-100,4,2,1,80,0,1
131572,-100,4,2,2,90,0,1
132383,-100,4,2,1,90,0,1
133194,-100,4,2,3,90,0,1
134005,-100,4,2,2,100,0,1
134714,-100,4,2,1,90,0,0
134816,-100,4,2,1,100,0,1
135018,-100,4,2,1,100,0,1
135221,-100,4,2,1,100,0,1
135626,-100,4,2,1,100,0,1
135829,-100,4,2,1,100,0,1
136234,-100,4,2,1,100,0,1
136437,-100,4,2,1,100,0,1
136843,-100,4,2,1,100,0,1
137045,-100,4,2,1,100,0,1
137248,-100,4,2,1,100,0,1
137451,-100,4,2,1,100,0,1
137653,-100,4,2,1,100,0,1
137856,-100,4,2,1,100,0,0

[Colours]
Combo1 : 128,255,128
Combo2 : 220,220,255
Combo3 : 255,128,255
Combo4 : 128,128,255

[HitObjects]
384,40,573,5,8,0:3:0:0:
200,32,5521,5,8,0:3:0:0:
16,216,10469,5,8,0:3:0:0:
272,260,15418,5,8,0:3:0:0:
376,128,20366,5,8,0:3:0:0:
200,32,22841,5,8,0:0:0:0:
256,192,23150,12,0,27248,0:0:0:0:
76,211,40761,6,0,B|177:190|177:190|227:100,1,200,4|0,0:0|0:0,0:0:0:0:
272,17,41978,1,0,1:0:0:0:
337,92,42383,2,0,P|388:131|485:133,1,150,2|0,3:2|3:0,0:0:0:0:
470,287,43599,1,0,1:0:0:0:
394,352,44005,6,0,P|300:332|270:234,1,200,4|0,0:0|0:0,0:0:0:0:
366,259,45221,1,0,1:0:0:0:
438,190,45626,2,0,B|411:93|411:93|320:55,1,200,2|4,0:0|1:0,0:0:0:0:
119,62,47248,6,0,P|72:108|120:161,1,150,4|2,0:0|0:0,0:0:0:0:
259,109,48464,1,0,1:0:0:0:
327,181,48870,2,0,B|381:230|381:230|317:306,1,150,0|2,0:0|0:0,0:0:0:0:
196,238,50086,1,0,1:0:0:0:
95,236,50491,6,0,B|76:268|24:303|24:303|53:362,1,150,4|0,0:0|0:0,0:0:0:0:
195,338,51707,1,0,1:0:0:0:
196,238,52113,2,0,P|186:171|110:146,2,150,4|4|0,1:0|0:0|1:0,0:0:0:0:
295,238,53734,6,0,P|305:171|381:146,1,150,4|2,0:2|0:0,0:0:0:0:
448,275,54951,1,0,1:0:0:0:
398,362,55356,2,0,L|291:337,1,99.9999999999999,2|0,0:0|0:0,0:0:0:0:
200,346,56167,2,0,P|146:346|98:318,1,99.9999999999999,0|0,0:0|1:0,0:0:0:0:
39,250,56978,6,0,B|69:202|73:157|73:157|45:112,1,150,4|2,0:0|0:0,0:0:0:0:
179,44,58194,1,0,1:0:0:0:
258,104,58599,2,0,P|311:111|363:102,1,99.9999999999999,2|0,0:0|0:0,0:0:0:0:
452,73,59410,2,0,L|468:178,1,99.9999999999999,2|0,0:0|1:0,0:0:0:0:
485,270,60221,6,0,B|441:249|389:246|389:246|345:275,1,150,4|2,0:0|0:0,0:0:0:0:
220,354,61437,1,0,1:0:0:0:
149,283,61843,2,0,B|106:255|106:255|54:258|10:279,1,150,2|0,0:0|0:0,0:0:0:0:
11,129,63059,1,0,1:0:0:0:
96,77,63464,6,0,P|166:64|249:82,1,150,4|2,0:0|0:0,0:0:0:0:
372,153,64680,2,0,L|397:52,1,99.9999999999999,0|0,1:0|3:0,0:0:0:0:
89,313,66707,6,0,P|81:260|90:209,1,99.9999999999999,4|0,0:0|1:0,0:0:0:0:
154,139,67518,2,0,L|149:39,1,99.9999999999999,2|0,0:0|1:0,0:0:0:0:
249,39,68329,2,0,L|244:138,1,99.9999999999999,0|2,0:0|1:2,0:0:0:0:
195,226,69140,2,0,P|218:276|220:328,1,99.9999999999999,2|0,1:2|1:0,0:0:0:0:
315,354,69951,6,0,P|369:359|420:351,1,99.9999999999999,4|0,0:0|1:0,0:0:0:0:
485,282,70761,2,0,P|456:225|388:169,1,150,0|4,0:0|0:0,0:0:0:0:
244,138,71978,1,0,1:0:0:0:
147,163,72383,2,0,B|101:175|101:175|37:160,1,99.9999999999999,2|0,3:2|1:0,0:0:0:0:
108,81,73194,6,0,L|211:55,1,99.9999999999999,4|0,0:0|1:0,0:0:0:0:
302,77,74005,2,0,P|356:67|406:73,1,99.9999999999999,2|0,0:0|1:0,0:0:0:0:
477,135,74816,2,0,P|491:185|481:234,1,99.9999999999999,4|0,0:0|1:0,0:0:0:0:
422,311,75626,2,0,P|371:304|319:310,1,99.9999999999999,2|2,0:0|1:2,0:0:0:0:
224,327,76437,6,0,B|167:306|167:306|138:276,1,99.9999999999999,4|0,0:0|1:0,0:0:0:0:
75,200,77248,2,0,L|94:95,1,99.9999999999999,2|0,0:0|1:0,0:0:0:0:
166,33,78059,2,0,B|272:26,2,99.9999999999999,0|2|0,0:0|1:2|1:0,0:0:0:0:
256,211,79680,6,0,B|321:166|386:246|451:197,1,200,4|0,1:0|1:0,0:0:0:0:
507,117,80897,1,0,1:0:0:0:
409,105,81302,2,0,L|425:7,1,99.9999999999999,0|2,1:0|0:0,0:0:0:0:
329,34,82113,2,0,P|280:43|224:32,1,99.9999999999999,4|4,1:0|1:0,0:0:0:0:
140,77,82924,6,0,B|122:128|89:161|89:161|103:209|163:242,1,200,4|0,1:0|1:0,0:0:0:0:
247,203,84140,1,0,1:0:0:0:
337,161,84545,2,0,L|438:178,1,99.9999999999999,0|0,1:0|1:0,0:0:0:0:
503,250,85356,2,0,P|512:302|501:354,1,99.9999999999999,2|0,1:2|1:0,0:0:0:0:
404,366,86167,6,0,P|322:314|219:325,1,200,4|0,1:2|0:0,0:0:0:0:
131,364,87383,1,2,1:2:0:0:
76,280,87788,2,0,P|65:230|81:175,1,99.9999999999999,0|2,1:0|0:0,0:0:0:0:
113,90,88599,2,0,L|212:104,1,99.9999999999999,4|0,1:0|1:0,0:0:0:0:
309,81,89410,5,4,1:0:0:0:
407,96,89816,2,0,B|462:103|462:103|518:85,2,99.9999999999999,0|0|0,1:0|1:0|1:0,0:0:0:0:
341,171,91032,2,0,B|368:271,1,99.9999999999999,4|0,1:0|1:0,0:0:0:0:
309,349,91843,2,0,P|258:358|204:349,1,99.9999999999999,0|0,1:0|1:0,0:0:0:0:
132,289,92653,6,0,L|32:294,1,99.9999999999999,4|0,1:0|1:0,0:0:0:0:
32,194,93464,2,0,L|131:199,1,99.9999999999999,0|0,1:0|1:0,0:0:0:0:
221,154,94275,2,0,P|243:106|250:45,2,99.9999999999999,4|0|2,1:0|1:0|1:2,0:0:0:0:
251,249,95491,1,2,1:2:0:0:
343,287,95897,6,0,L|445:278,1,99.9999999999999,4|0,1:0|1:0,0:0:0:0:
428,179,96707,2,0,P|450:132|456:82,1,99.9999999999999,0|0,1:0|1:0,0:0:0:0:
370,32,97518,2,0,L|268:45,1,99.9999999999999,4|0,1:0|1:0,0:0:0:0:
183,93,98329,2,0,L|81:106,1,99.9999999999999,0|0,1:0|1:0,0:0:0:0:
25,187,99140,6,0,B|13:242|13:242|24:294,2,99.9999999999999,4|0|0,1:0|1:0|1:0,0:0:0:0:
109,240,100356,2,0,L|127:345,1,99.9999999999999,0|4,1:0|1:2,0:0:0:0:
415,62,102383,6,0,B|417:124|436:160|436:160|410:216,1,150,4|0,0:0|0:0,0:0:0:0:
367,292,103397,1,2,0:0:0:0:
222,252,104005,2,0,P|138:265|76:248,1,150,2|0,0:0|0:0,0:0:0:0:
21,164,105018,1,2,0:0:0:0:
136,67,105626,6,0,P|186:81|253:75,1,99.9999999999999,4|0,0:0|1:0,0:0:0:0:
325,38,106437,2,0,P|380:44|434:67,1,99.9999999999999,2|0,0:0|1:0,0:0:0:0:
471,146,107248,2,0,B|499:190|498:241|498:241|439:251|406:294,1,200,4|4,0:0|1:0,0:0:0:0:
211,280,108870,6,0,P|134:267|91:199,1,150,4|0,0:0|0:0,0:0:0:0:
129,66,110086,1,0,1:0:0:0:
224,94,110491,2,0,B|323:114|323:114|386:87,1,150,2|2,0:0|0:0,0:0:0:0:
435,228,111707,1,0,1:0:0:0:
351,284,112113,6,0,B|298:298|230:283|230:283|194:296,2,150,4|4|0,1:2|1:0|0:0,0:0:0:0:
435,228,113734,2,0,B|453:180|453:180|435:136|444:74,1,150,4|4,1:2|0:1,0:0:0:0:
192,83,115356,6,0,P|174:152|191:237,1,150,4|0,0:0|0:0,0:0:0:0:
259,359,116572,1,0,1:0:0:0:
356,335,116978,2,0,P|412:336|489:281,1,150,2|0,0:0|0:0,0:0:0:0:
453,137,118194,1,0,1:0:0:0:
370,80,118599,6,0,P|321:98|271:95,1,99.9999999999999,2|0,0:0|1:0,0:0:0:0:
182,55,119410,2,0,L|67:77,1,99.9999999999999,0|0,0:0|1:0,0:0:0:0:
22,152,120221,2,0,P|50:222|49:296,1,150,4|0,0:0|1:0,0:0:0:0:
299,312,121843,6,0,P|353:331|445:313,1,150,4|2,0:0|0:0,0:0:0:0:
485,224,122856,1,0,0:0:0:0:
390,107,123464,2,0,B|316:123|316:123|254:109|254:109|192:126,1,200,2|2,0:0|0:0,0:0:0:0:
376,200,125086,6,0,P|346:22|480:76,1,400,4|2,0:0|0:0,0:0:0:0:
140,288,128329,6,0,L|252:269,1,99.9999999999999,12|0,0:0|1:0,0:0:0:0:
328,320,129140,2,0,P|382:320|433:288,1,99.9999999999999,10|0,0:0|1:0,0:0:0:0:
468,210,129951,2,0,L|455:110,1,99.9999999999999,8|0,3:2|1:0,0:0:0:0:
369,59,130761,2,0,P|314:51|265:63,1,99.9999999999999,8|0,1:2|0:0,0:0:0:0:
177,95,131572,5,12,0:0:0:0:
256,192,131775,12,12,133194,0:0:0:0:
143,306,134816,6,0,B|192:293|192:293|289:314,1,150,4|4,1:2|1:0,0:0:0:0:
365,185,136032,2,0,B|315:197|315:197|218:176,1,150,4|4,1:0|0:2,0:0:0:0:
148,44,137248,6,0,L|299:76,1,150,4|0,1:1|0:0,0:0:0:0:
