osu file format v13

[General]
AudioFilename: 11 Out Of The Blue.mp3
AudioLeadIn: 0
PreviewTime: 85117
Countdown: 0
SampleSet: Soft
StackLeniency: 0.7
Mode: 3
LetterboxInBreaks: 0
SpecialStyle: 0
WidescreenStoryboard: 1

[Editor]
DistanceSpacing: 1.1
BeatDivisor: 4
GridSize: 8
TimelineZoom: 2

[Metadata]
Title:Out Of The Blue
TitleUnicode:Out Of The Blue
Artist:Yak_Won
ArtistUnicode:Yak_Won
Creator:Ez2dj_7144
Version:7K Hard
Source:Ez2DJ Azure Expression
Tags:EZ2AC ExPew nowsmart [_Mee_] [_Karen_]
BeatmapID:543260
BeatmapSetID:233932

[Difficulty]
HPDrainRate:7
CircleSize:7
OverallDifficulty:7
ApproachRate:5
SliderMultiplier:1.4
SliderTickRate:1

[Events]
//Background and Video events
0,0,"out_of_the_blue.png",0,0
//Break Periods
//Storyboard Layer 0 (Background)
//Storyboard Layer 1 (Fail)
//Storyboard Layer 2 (Pass)
//Storyboard Layer 3 (Foreground)
//Storyboard Sound Samples

[TimingPoints]
3235,352.941176470588,4,2,1,40,1,0
27234,-100,4,2,1,60,0,1
38529,-100,4,2,1,60,0,0
107705,-100,4,2,1,60,0,1
130293,-100,4,2,1,60,0,0
131705,363.636363636364,4,2,1,40,1,0
133159,375,4,2,1,40,1,0
134659,387.096774193548,4,2,1,40,1,0
136207,400,4,2,1,40,1,0
137807,413.793103448276,4,2,1,40,1,0
139462,444.444444444444,4,2,1,40,1,0

[HitObjects]
475,192,3235,5,0,0:0:0:0:
36,192,3235,1,0,0:0:0:0:
329,192,3411,1,0,0:0:0:0:
182,192,3587,1,0,0:0:0:0:
329,192,3764,1,0,0:0:0:0:
475,192,3940,1,0,0:0:0:0:
329,192,4117,1,0,0:0:0:0:
182,192,4293,1,0,0:0:0:0:
36,192,4470,1,0,0:0:0:0:
475,192,4646,1,0,0:0:0:0:
329,192,4646,1,0,0:0:0:0:
182,192,4823,1,0,0:0:0:0:
36,192,4999,1,0,0:0:0:0:
182,192,5176,1,0,0:0:0:0:
329,192,5352,1,0,0:0:0:0:
182,192,5529,1,0,0:0:0:0:
329,192,5705,1,0,0:0:0:0:
475,192,5882,1,0,0:0:0:0:
329,192,6058,1,0,0:0:0:0:
182,192,6058,1,0,0:0:0:0:
36,192,6234,1,0,0:0:0:0:
256,192,6411,1,0,0:0:0:0:
109,192,6587,1,0,0:0:0:0:
329,192,6764,1,0,0:0:0:0:
182,192,6940,1,0,0:0:0:0:
402,192,7117,1,0,0:0:0:0:
256,192,7293,1,0,0:0:0:0:
475,192,7470,1,0,0:0:0:0:
329,192,7470,1,0,0:0:0:0:
256,192,7646,1,0,0:0:0:0:
402,192,7823,1,0,0:0:0:0:
182,192,7999,1,0,0:0:0:0:
329,192,8176,1,0,0:0:0:0:
109,192,8352,1,0,0:0:0:0:
256,192,8529,1,0,0:0:0:0:
36,192,8705,1,0,0:0:0:0:
256,192,8882,1,0,0:0:0:0:
475,192,8882,1,0,0:0:0:0:
402,192,9058,1,0,0:0:0:0:
182,192,9234,1,0,0:0:0:0:
329,192,9411,1,0,0:0:0:0:
109,192,9587,1,0,0:0:0:0:
256,192,9764,1,0,0:0:0:0:
36,192,9940,1,0,0:0:0:0:
182,192,10117,1,0,0:0:0:0:
256,192,10293,1,0,0:0:0:0:
36,192,10293,1,0,0:0:0:0:
109,192,10470,1,0,0:0:0:0:
329,192,10646,1,0,0:0:0:0:
182,192,10823,1,0,0:0:0:0:
402,192,10999,1,0,0:0:0:0:
256,192,11176,1,0,0:0:0:0:
475,192,11352,1,0,0:0:0:0:
329,192,11529,1,0,0:0:0:0:
182,192,11705,1,0,0:0:0:0:
36,192,11705,1,0,0:0:0:0:
36,192,11882,1,0,0:0:0:0:
329,192,12058,1,0,0:0:0:0:
475,192,12058,1,0,0:0:0:0:
475,192,12234,1,0,0:0:0:0:
256,192,12411,1,0,0:0:0:0:
109,192,12411,1,0,0:0:0:0:
402,192,12411,1,0,0:0:0:0:
182,192,12587,1,0,0:0:0:0:
256,192,12764,1,0,0:0:0:0:
329,192,12940,1,0,0:0:0:0:
36,192,13117,1,0,0:0:0:0:
475,192,13117,1,0,0:0:0:0:
256,192,13117,1,0,0:0:0:0:
182,192,13293,1,0,0:0:0:0:
329,192,13470,1,0,0:0:0:0:
475,192,13646,1,0,0:0:0:0:
329,192,13823,1,0,0:0:0:0:
475,192,13823,1,0,0:0:0:0:
182,192,13999,1,0,0:0:0:0:
36,192,14176,1,0,0:0:0:0:
182,192,14352,1,0,0:0:0:0:
109,192,14529,1,4,0:0:0:0:
256,192,14529,1,0,0:0:0:0:
402,192,14529,1,4,0:0:0:0:
329,192,14705,1,0,0:0:0:0:
256,192,14882,1,0,0:0:0:0:
36,192,15058,1,0,0:0:0:0:
109,192,15234,1,0,0:0:0:0:
182,192,15411,1,0,0:0:0:0:
475,192,15587,1,0,0:0:0:0:
402,192,15764,1,0,0:0:0:0:
329,192,15940,1,0,0:0:0:0:
256,192,15940,1,0,0:0:0:0:
36,192,16117,1,0,0:0:0:0:
109,192,16293,1,0,0:0:0:0:
182,192,16470,1,0,0:0:0:0:
256,192,16646,1,0,0:0:0:0:
329,192,16823,1,0,0:0:0:0:
402,192,16999,1,0,0:0:0:0:
475,192,17176,1,0,0:0:0:0:
402,192,17352,1,0,0:0:0:0:
329,192,17352,1,0,0:0:0:0:
256,192,17529,1,0,0:0:0:0:
182,192,17705,1,0,0:0:0:0:
36,192,17882,1,0,0:0:0:0:
182,192,18058,1,0,0:0:0:0:
256,192,18234,1,0,0:0:0:0:
329,192,18411,1,0,0:0:0:0:
475,192,18587,1,0,0:0:0:0:
329,192,18764,1,0,0:0:0:0:
475,192,18764,1,0,0:0:0:0:
402,192,18940,1,0,0:0:0:0:
182,192,19117,1,0,0:0:0:0:
36,192,19117,1,0,0:0:0:0:
109,192,19293,1,0,0:0:0:0:
329,192,19470,1,0,0:0:0:0:
475,192,19470,1,0,0:0:0:0:
402,192,19646,1,0,0:0:0:0:
36,192,19823,1,0,0:0:0:0:
182,192,19823,1,0,0:0:0:0:
109,192,19999,1,0,0:0:0:0:
256,192,20176,1,4,0:0:0:0:
475,192,20176,1,0,0:0:0:0:
402,192,20352,1,8,0:0:0:0:
109,192,20529,1,0,0:0:0:0:
182,192,20529,1,0,0:0:0:0:
402,192,20705,1,8,0:0:0:0:
109,192,20882,1,0,0:0:0:0:
36,192,20882,1,0,0:0:0:0:
402,192,21058,1,8,0:0:0:0:
109,192,21234,1,0,0:0:0:0:
182,192,21234,1,0,0:0:0:0:
402,192,21411,1,8,0:0:0:0:
109,192,21587,1,0,0:0:0:0:
329,192,21764,1,0,0:0:0:0:
402,192,21764,1,8,0:0:0:0:
109,192,21940,1,0,0:0:0:0:
402,192,22117,1,8,0:0:0:0:
475,192,22117,1,0,0:0:0:0:
109,192,22293,1,0,0:0:0:0:
329,192,22470,1,0,0:0:0:0:
402,192,22470,1,8,0:0:0:0:
109,192,22646,1,0,0:0:0:0:
475,192,22823,1,8,0:0:0:0:
256,192,22999,1,0,0:0:0:0:
475,192,22999,1,0,0:0:0:0:
36,192,22999,128,0,24411:0:0:0:0:
329,192,23176,1,8,0:0:0:0:
402,192,23352,1,0,0:0:0:0:
475,192,23529,1,0,0:0:0:0:
182,192,23705,1,0,0:0:0:0:
256,192,23882,1,0,0:0:0:0:
329,192,24058,1,0,0:0:0:0:
402,192,24234,1,8,0:0:0:0:
475,192,24411,1,0,0:0:0:0:
36,192,24587,1,8,0:0:0:0:
182,192,24764,1,0,0:0:0:0:
329,192,24940,1,8,0:0:0:0:
475,192,25117,1,0,0:0:0:0:
402,192,25293,1,8,0:0:0:0:
329,192,25470,1,0,0:0:0:0:
256,192,25646,1,8,0:0:0:0:
36,192,25823,1,0,0:0:0:0:
475,192,25823,1,0,0:0:0:0:
256,192,25823,1,0,0:0:0:0:
256,192,26176,1,0,0:0:0:0:
256,192,26440,1,0,0:0:0:0:
402,192,26617,1,2,0:0:0:0:
109,192,26617,1,0,0:0:0:0:
329,192,26705,1,2,0:0:0:0:
182,192,26705,1,0,0:0:0:0:
256,192,26882,1,0,0:0:0:0:
475,192,26882,1,0,0:0:0:0:
36,192,26882,1,0,0:0:0:0:
475,192,27234,1,4,0:0:0:0:
329,192,27234,1,0,0:0:0:0:
402,192,27234,1,0,0:0:0:0:
182,192,27323,1,0,0:0:0:0:
36,192,27411,1,0,0:0:0:0:
256,192,27587,1,0,0:0:0:0:
402,192,27587,1,0,0:0:0:0:
182,192,27676,1,0,0:0:0:0:
36,192,27764,1,0,0:0:0:0:
329,192,27940,1,0,0:0:0:0:
475,192,27940,1,0,0:0:0:0:
182,192,28029,1,0,0:0:0:0:
36,192,28117,1,0,0:0:0:0:
256,192,28293,1,0,0:0:0:0:
402,192,28293,1,0,0:0:0:0:
182,192,28382,1,0,0:0:0:0:
109,192,28470,1,0,0:0:0:0:
36,192,28646,1,0,0:0:0:0:
256,192,28646,1,0,0:0:0:0:
329,192,28734,1,0,0:0:0:0:
475,192,28823,1,0,0:0:0:0:
36,192,28999,1,0,0:0:0:0:
182,192,28999,1,0,0:0:0:0:
329,192,29087,1,0,0:0:0:0:
475,192,29176,1,0,0:0:0:0:
256,192,29352,1,0,0:0:0:0:
109,192,29352,1,0,0:0:0:0:
329,192,29440,1,0,0:0:0:0:
475,192,29529,1,0,0:0:0:0:
36,192,29705,1,0,0:0:0:0:
182,192,29705,1,0,0:0:0:0:
329,192,29793,1,0,0:0:0:0:
475,192,29882,1,0,0:0:0:0:
329,192,30058,1,0,0:0:0:0:
256,192,30058,1,0,0:0:0:0:
109,192,30146,1,0,0:0:0:0:
36,192,30234,1,0,0:0:0:0:
329,192,30411,1,0,0:0:0:0:
402,192,30411,1,0,0:0:0:0:
182,192,30499,1,0,0:0:0:0:
109,192,30587,1,0,0:0:0:0:
402,192,30764,1,0,0:0:0:0:
475,192,30764,1,0,0:0:0:0:
256,192,30852,1,0,0:0:0:0:
182,192,30940,1,0,0:0:0:0:
329,192,31117,1,0,0:0:0:0:
402,192,31117,1,0,0:0:0:0:
182,192,31205,1,0,0:0:0:0:
109,192,31293,1,0,0:0:0:0:
475,192,31470,1,0,0:0:0:0:
329,192,31470,1,0,0:0:0:0:
256,192,31646,1,0,0:0:0:0:
402,192,31646,1,0,0:0:0:0:
329,192,31823,1,0,0:0:0:0:
182,192,31823,1,0,0:0:0:0:
109,192,31999,1,0,0:0:0:0:
256,192,31999,1,0,0:0:0:0:
36,192,32176,1,0,0:0:0:0:
182,192,32176,1,0,0:0:0:0:
109,192,32352,1,0,0:0:0:0:
256,192,32352,1,0,0:0:0:0:
182,192,32529,1,0,0:0:0:0:
329,192,32529,1,0,0:0:0:0:
256,192,32705,1,0,0:0:0:0:
402,192,32705,1,0,0:0:0:0:
329,192,32882,1,0,0:0:0:0:
475,192,32882,1,0,0:0:0:0:
109,192,32970,1,0,0:0:0:0:
329,192,33058,1,0,0:0:0:0:
182,192,33234,1,0,0:0:0:0:
36,192,33234,1,0,0:0:0:0:
402,192,33323,1,0,0:0:0:0:
182,192,33411,1,0,0:0:0:0:
329,192,33587,1,0,0:0:0:0:
475,192,33587,1,0,0:0:0:0:
109,192,33676,1,0,0:0:0:0:
329,192,33764,1,0,0:0:0:0:
36,192,33940,1,0,0:0:0:0:
182,192,33940,1,0,0:0:0:0:
402,192,34029,1,0,0:0:0:0:
182,192,34117,1,0,0:0:0:0:
329,192,34293,1,0,0:0:0:0:
36,192,34293,1,0,0:0:0:0:
109,192,34293,1,0,0:0:0:0:
402,192,34382,1,0,0:0:0:0:
475,192,34470,1,0,0:0:0:0:
109,192,34646,1,0,0:0:0:0:
182,192,34646,1,0,0:0:0:0:
329,192,34734,1,0,0:0:0:0:
402,192,34823,1,0,0:0:0:0:
182,192,34999,1,0,0:0:0:0:
256,192,34999,1,0,0:0:0:0:
402,192,35087,1,0,0:0:0:0:
475,192,35176,1,0,0:0:0:0:
36,192,35352,1,0,0:0:0:0:
109,192,35352,1,0,0:0:0:0:
256,192,35440,1,0,0:0:0:0:
329,192,35529,1,0,0:0:0:0:
182,192,35705,1,0,0:0:0:0:
256,192,35705,1,0,0:0:0:0:
329,192,35793,1,0,0:0:0:0:
109,192,35882,1,0,0:0:0:0:
402,192,35970,1,0,0:0:0:0:
182,192,36058,1,0,0:0:0:0:
329,192,36146,1,0,0:0:0:0:
109,192,36234,1,0,0:0:0:0:
402,192,36323,1,0,0:0:0:0:
36,192,36411,1,0,0:0:0:0:
182,192,36411,1,0,0:0:0:0:
109,192,36499,1,0,0:0:0:0:
256,192,36587,1,0,0:0:0:0:
402,192,36676,1,0,0:0:0:0:
475,192,36764,1,0,0:0:0:0:
329,192,36764,1,0,0:0:0:0:
256,192,36852,1,0,0:0:0:0:
329,192,36940,1,0,0:0:0:0:
182,192,36940,1,0,0:0:0:0:
402,192,37029,1,0,0:0:0:0:
109,192,37029,1,0,0:0:0:0:
36,192,37117,128,0,37293:0:0:0:0:
475,192,37117,1,0,0:0:0:0:
109,192,37293,128,0,37470:0:0:0:0:
182,192,37470,128,0,37646:0:0:0:0:
329,192,37470,1,0,0:0:0:0:
256,192,37646,128,0,37823:0:0:0:0:
475,192,37823,128,0,37999:0:0:0:0:
182,192,37823,1,0,0:0:0:0:
402,192,37999,128,0,38176:0:0:0:0:
329,192,38176,128,0,38352:0:0:0:0:
36,192,38176,1,0,0:0:0:0:
256,192,38352,128,0,38529:0:0:0:0:
36,192,38529,128,4,39940:0:0:0:0:
475,192,38529,1,0,0:0:0:0:
182,192,38529,1,0,0:0:0:0:
475,192,38705,1,0,0:0:0:0:
329,192,38882,1,0,0:0:0:0:
182,192,39058,1,0,0:0:0:0:
329,192,39234,1,0,0:0:0:0:
475,192,39411,1,0,0:0:0:0:
329,192,39587,1,0,0:0:0:0:
182,192,39764,1,0,0:0:0:0:
329,192,39940,1,0,0:0:0:0:
182,192,39940,1,0,0:0:0:0:
475,192,39940,128,0,41352:0:0:0:0:
402,192,40117,1,0,0:0:0:0:
329,192,40293,1,0,0:0:0:0:
256,192,40470,1,0,0:0:0:0:
182,192,40646,1,0,0:0:0:0:
109,192,40823,1,0,0:0:0:0:
182,192,40999,1,0,0:0:0:0:
256,192,41176,1,0,0:0:0:0:
329,192,41352,1,0,0:0:0:0:
182,192,41352,1,0,0:0:0:0:
256,192,41529,1,0,0:0:0:0:
36,192,41705,1,0,0:0:0:0:
182,192,41705,1,0,0:0:0:0:
256,192,41882,1,0,0:0:0:0:
329,192,42058,1,0,0:0:0:0:
475,192,42058,1,0,0:0:0:0:
329,192,42234,1,0,0:0:0:0:
36,192,42234,1,0,0:0:0:0:
402,192,42411,1,0,0:0:0:0:
109,192,42411,1,0,0:0:0:0:
475,192,42587,1,0,0:0:0:0:
182,192,42587,1,0,0:0:0:0:
402,192,42764,1,0,0:0:0:0:
109,192,42764,1,0,0:0:0:0:
256,192,42764,1,0,0:0:0:0:
256,192,42940,1,0,0:0:0:0:
36,192,43117,1,0,0:0:0:0:
182,192,43117,1,0,0:0:0:0:
256,192,43293,1,0,0:0:0:0:
475,192,43470,1,0,0:0:0:0:
329,192,43470,1,0,0:0:0:0:
182,192,43646,1,0,0:0:0:0:
475,192,43646,1,0,0:0:0:0:
109,192,43823,1,0,0:0:0:0:
402,192,43823,1,0,0:0:0:0:
36,192,43999,1,0,0:0:0:0:
329,192,43999,1,0,0:0:0:0:
256,192,44176,1,0,0:0:0:0:
36,192,44176,128,0,44529:0:0:0:0:
329,192,44352,1,0,0:0:0:0:
182,192,44529,128,0,44882:0:0:0:0:
402,192,44529,1,0,0:0:0:0:
475,192,44705,1,0,0:0:0:0:
36,192,44882,1,0,0:0:0:0:
329,192,44882,128,0,45234:0:0:0:0:
109,192,45058,1,0,0:0:0:0:
256,192,45234,1,0,0:0:0:0:
182,192,45234,128,0,45587:0:0:0:0:
402,192,45411,1,0,0:0:0:0:
256,192,45587,1,0,0:0:0:0:
329,192,45587,128,0,45940:0:0:0:0:
182,192,45764,1,0,0:0:0:0:
182,192,45940,128,0,46293:0:0:0:0:
109,192,45940,1,0,0:0:0:0:
36,192,46117,1,0,0:0:0:0:
475,192,46293,1,0,0:0:0:0:
329,192,46293,128,0,46646:0:0:0:0:
256,192,46470,1,0,0:0:0:0:
475,192,46646,128,0,46999:0:0:0:0:
182,192,46646,1,0,0:0:0:0:
109,192,46823,1,0,0:0:0:0:
36,192,46999,1,0,0:0:0:0:
256,192,46999,1,0,0:0:0:0:
256,192,47176,1,0,0:0:0:0:
475,192,47176,1,0,0:0:0:0:
182,192,47352,1,0,0:0:0:0:
329,192,47529,1,0,0:0:0:0:
475,192,47529,1,0,0:0:0:0:
109,192,47705,1,0,0:0:0:0:
402,192,47882,1,0,0:0:0:0:
475,192,47882,1,0,0:0:0:0:
36,192,48058,1,0,0:0:0:0:
256,192,48058,1,0,0:0:0:0:
109,192,48411,1,0,0:0:0:0:
402,192,48411,1,0,0:0:0:0:
182,192,48499,1,0,0:0:0:0:
256,192,48587,1,0,0:0:0:0:
329,192,48676,1,0,0:0:0:0:
402,192,48764,1,0,0:0:0:0:
256,192,48940,1,0,0:0:0:0:
475,192,49117,1,0,0:0:0:0:
36,192,49117,128,0,49823:0:0:0:0:
402,192,49205,1,0,0:0:0:0:
329,192,49293,1,0,0:0:0:0:
256,192,49382,1,0,0:0:0:0:
182,192,49470,1,0,0:0:0:0:
402,192,49558,1,0,0:0:0:0:
182,192,49646,1,0,0:0:0:0:
402,192,49734,1,0,0:0:0:0:
182,192,49823,1,0,0:0:0:0:
256,192,49823,1,4,0:0:0:0:
109,192,50176,1,0,0:0:0:0:
256,192,50176,1,10,0:0:0:0:
402,192,50176,1,0,0:0:0:0:
182,192,50440,1,2,0:0:0:0:
329,192,50529,1,2,0:0:0:0:
109,192,50705,1,0,0:0:0:0:
256,192,50705,1,0,0:0:0:0:
256,192,50882,1,0,0:0:0:0:
402,192,50882,1,0,0:0:0:0:
256,192,51058,1,0,0:0:0:0:
109,192,51058,1,0,0:0:0:0:
36,192,51234,128,4,51940:0:0:0:0:
182,192,51234,1,0,0:0:0:0:
256,192,51234,1,0,0:0:0:0:
475,192,51234,1,0,0:0:0:0:
329,192,51587,1,0,0:0:0:0:
182,192,51940,128,0,52646:0:0:0:0:
475,192,51940,1,0,0:0:0:0:
329,192,52293,1,0,0:0:0:0:
329,192,52646,128,0,53352:0:0:0:0:
475,192,52646,1,0,0:0:0:0:
256,192,52999,1,0,0:0:0:0:
475,192,53352,128,0,54058:0:0:0:0:
109,192,53352,1,0,0:0:0:0:
256,192,53705,1,0,0:0:0:0:
402,192,54058,1,0,0:0:0:0:
329,192,54058,128,0,54764:0:0:0:0:
182,192,54411,1,0,0:0:0:0:
182,192,54764,128,0,55470:0:0:0:0:
36,192,54764,1,0,0:0:0:0:
329,192,55117,1,0,0:0:0:0:
36,192,55470,128,0,56176:0:0:0:0:
475,192,55470,1,0,0:0:0:0:
329,192,55823,1,0,0:0:0:0:
182,192,56176,128,0,56882:0:0:0:0:
109,192,56176,1,0,0:0:0:0:
36,192,56529,1,0,0:0:0:0:
402,192,56529,1,0,0:0:0:0:
402,192,56705,1,0,0:0:0:0:
475,192,56882,128,4,57587:0:0:0:0:
402,192,56882,1,0,0:0:0:0:
36,192,57058,1,0,0:0:0:0:
182,192,57146,1,0,0:0:0:0:
329,192,57234,1,0,0:0:0:0:
402,192,57587,128,0,58293:0:0:0:0:
36,192,57764,1,0,0:0:0:0:
182,192,57852,1,0,0:0:0:0:
329,192,57940,1,0,0:0:0:0:
329,192,58293,128,0,58999:0:0:0:0:
36,192,58470,1,0,0:0:0:0:
109,192,58558,1,0,0:0:0:0:
182,192,58646,1,0,0:0:0:0:
402,192,58999,128,0,59705:0:0:0:0:
36,192,59176,1,0,0:0:0:0:
109,192,59264,1,0,0:0:0:0:
182,192,59352,1,0,0:0:0:0:
256,192,59529,1,0,0:0:0:0:
475,192,59705,128,0,60411:0:0:0:0:
329,192,59705,1,0,0:0:0:0:
182,192,59882,1,0,0:0:0:0:
109,192,59970,1,0,0:0:0:0:
36,192,60058,1,0,0:0:0:0:
402,192,60411,128,0,61117:0:0:0:0:
256,192,60411,1,0,0:0:0:0:
182,192,60587,1,0,0:0:0:0:
109,192,60676,1,0,0:0:0:0:
36,192,60764,1,0,0:0:0:0:
256,192,60940,1,0,0:0:0:0:
329,192,61117,128,0,61823:0:0:0:0:
36,192,61117,1,0,0:0:0:0:
182,192,61293,1,0,0:0:0:0:
109,192,61382,1,0,0:0:0:0:
36,192,61470,1,0,0:0:0:0:
182,192,61646,1,0,0:0:0:0:
36,192,61823,128,0,62529:0:0:0:0:
182,192,61823,1,0,0:0:0:0:
329,192,61999,1,0,0:0:0:0:
402,192,62087,1,0,0:0:0:0:
475,192,62176,1,0,0:0:0:0:
475,192,62352,1,0,0:0:0:0:
182,192,62529,1,4,0:0:0:0:
329,192,62529,1,4,0:0:0:0:
475,192,62529,1,0,0:0:0:0:
36,192,62705,1,0,0:0:0:0:
182,192,62882,1,0,0:0:0:0:
329,192,63058,1,0,0:0:0:0:
475,192,63058,1,0,0:0:0:0:
256,192,63411,1,0,0:0:0:0:
182,192,63764,1,0,0:0:0:0:
256,192,63940,1,0,0:0:0:0:
36,192,64117,1,0,0:0:0:0:
256,192,64117,128,0,64999:0:0:0:0:
36,192,64470,1,0,0:0:0:0:
402,192,64470,128,0,64999:0:0:0:0:
36,192,64823,1,0,0:0:0:0:
475,192,64823,128,0,64999:0:0:0:0:
402,192,65352,1,0,0:0:0:0:
109,192,65352,1,0,0:0:0:0:
475,192,65529,1,0,0:0:0:0:
329,192,65705,1,0,0:0:0:0:
182,192,65882,1,0,0:0:0:0:
36,192,65882,1,0,0:0:0:0:
256,192,66234,1,0,0:0:0:0:
329,192,66587,1,0,0:0:0:0:
256,192,66764,1,0,0:0:0:0:
256,192,66940,128,0,67823:0:0:0:0:
475,192,66940,1,0,0:0:0:0:
109,192,67293,128,0,67823:0:0:0:0:
475,192,67293,1,0,0:0:0:0:
36,192,67646,128,0,67823:0:0:0:0:
475,192,67646,1,0,0:0:0:0:
182,192,67999,1,0,0:0:0:0:
36,192,67999,1,0,0:0:0:0:
402,192,68087,1,0,0:0:0:0:
36,192,68176,1,0,0:0:0:0:
256,192,68352,1,0,0:0:0:0:
256,192,68529,1,0,0:0:0:0:
36,192,68705,1,0,0:0:0:0:
475,192,68705,1,0,0:0:0:0:
256,192,68705,1,0,0:0:0:0:
256,192,69058,1,0,0:0:0:0:
475,192,69058,1,0,0:0:0:0:
182,192,69234,1,0,0:0:0:0:
329,192,69234,1,0,0:0:0:0:
36,192,69411,1,0,0:0:0:0:
256,192,69411,1,0,0:0:0:0:
182,192,69587,1,0,0:0:0:0:
329,192,69587,1,0,0:0:0:0:
256,192,69764,1,0,0:0:0:0:
475,192,69764,1,0,0:0:0:0:
182,192,69940,1,0,0:0:0:0:
329,192,69940,1,0,0:0:0:0:
36,192,70117,1,0,0:0:0:0:
475,192,70117,128,0,70999:0:0:0:0:
329,192,70293,1,0,0:0:0:0:
36,192,70470,1,0,0:0:0:0:
402,192,70470,128,0,70999:0:0:0:0:
329,192,70646,1,0,0:0:0:0:
36,192,70823,1,0,0:0:0:0:
256,192,70999,1,0,0:0:0:0:
182,192,70999,1,0,0:0:0:0:
329,192,70999,1,0,0:0:0:0:
36,192,71176,1,0,0:0:0:0:
109,192,71176,1,0,0:0:0:0:
402,192,71352,1,0,0:0:0:0:
475,192,71352,1,0,0:0:0:0:
329,192,71352,1,0,0:0:0:0:
109,192,71529,1,0,0:0:0:0:
182,192,71529,1,0,0:0:0:0:
329,192,71705,1,0,0:0:0:0:
402,192,71705,1,0,0:0:0:0:
256,192,71705,1,0,0:0:0:0:
109,192,71882,1,0,0:0:0:0:
36,192,71882,1,0,0:0:0:0:
402,192,72058,1,0,0:0:0:0:
475,192,72058,1,0,0:0:0:0:
109,192,72234,1,0,0:0:0:0:
182,192,72234,1,0,0:0:0:0:
256,192,72411,1,4,0:0:0:0:
475,192,72411,1,0,0:0:0:0:
182,192,72499,1,0,0:0:0:0:
109,192,72587,1,0,0:0:0:0:
36,192,72676,1,0,0:0:0:0:
329,192,72764,1,0,0:0:0:0:
475,192,72764,1,0,0:0:0:0:
256,192,72852,1,0,0:0:0:0:
182,192,72940,1,0,0:0:0:0:
109,192,73029,1,0,0:0:0:0:
402,192,73117,1,0,0:0:0:0:
475,192,73117,1,0,0:0:0:0:
329,192,73205,1,0,0:0:0:0:
256,192,73293,1,0,0:0:0:0:
182,192,73382,1,0,0:0:0:0:
475,192,73470,1,0,0:0:0:0:
402,192,73470,1,0,0:0:0:0:
329,192,73558,1,0,0:0:0:0:
256,192,73646,1,0,0:0:0:0:
182,192,73734,1,0,0:0:0:0:
36,192,73823,1,0,0:0:0:0:
109,192,73823,1,0,0:0:0:0:
475,192,73823,1,0,0:0:0:0:
256,192,74087,1,0,0:0:0:0:
109,192,74087,1,2,0:0:0:0:
329,192,74176,1,2,0:0:0:0:
256,192,74352,1,0,0:0:0:0:
402,192,74352,1,2,0:0:0:0:
256,192,74529,1,0,0:0:0:0:
109,192,74529,1,2,0:0:0:0:
256,192,74705,1,0,0:0:0:0:
402,192,74705,1,2,0:0:0:0:
36,192,74882,1,0,0:0:0:0:
182,192,74882,1,0,0:0:0:0:
475,192,75058,1,0,0:0:0:0:
329,192,75058,1,0,0:0:0:0:
256,192,75234,1,0,0:0:0:0:
109,192,75234,1,2,0:0:0:0:
329,192,75323,1,2,0:0:0:0:
256,192,75499,1,0,0:0:0:0:
109,192,75499,1,2,0:0:0:0:
329,192,75587,1,2,0:0:0:0:
36,192,75764,1,0,0:0:0:0:
329,192,75764,1,2,0:0:0:0:
402,192,75852,1,2,0:0:0:0:
475,192,75940,1,2,0:0:0:0:
182,192,75940,1,0,0:0:0:0:
256,192,76646,1,4,0:0:0:0:
402,192,76646,1,2,0:0:0:0:
182,192,76734,1,2,0:0:0:0:
109,192,76911,1,0,0:0:0:0:
256,192,76911,1,0,0:0:0:0:
329,192,76999,1,2,0:0:0:0:
256,192,77176,1,2,0:0:0:0:
402,192,77352,1,0,0:0:0:0:
182,192,77352,1,2,0:0:0:0:
256,192,77529,1,2,0:0:0:0:
109,192,77705,1,0,0:0:0:0:
329,192,77705,1,2,0:0:0:0:
256,192,77882,1,2,0:0:0:0:
109,192,78058,1,0,0:0:0:0:
182,192,78058,1,2,0:0:0:0:
402,192,78146,1,2,0:0:0:0:
109,192,78323,1,2,0:0:0:0:
182,192,78323,1,0,0:0:0:0:
402,192,78411,1,2,0:0:0:0:
36,192,78587,1,0,0:0:0:0:
329,192,78587,1,2,0:0:0:0:
402,192,78676,1,2,0:0:0:0:
182,192,78764,1,0,0:0:0:0:
475,192,78764,1,2,0:0:0:0:
256,192,79117,1,0,0:0:0:0:
256,192,79293,1,0,0:0:0:0:
109,192,79470,1,4,0:0:0:0:
402,192,79470,1,0,0:0:0:0:
329,192,79646,1,2,0:0:0:0:
182,192,79734,1,2,0:0:0:0:
36,192,79999,1,0,0:0:0:0:
475,192,79999,1,2,0:0:0:0:
402,192,80087,1,2,0:0:0:0:
109,192,80087,1,2,0:0:0:0:
329,192,80176,1,2,0:0:0:0:
182,192,80176,1,0,0:0:0:0:
256,192,80352,1,0,0:0:0:0:
256,192,80529,1,0,0:0:0:0:
256,192,80705,1,0,0:0:0:0:
475,192,80882,1,2,0:0:0:0:
182,192,80882,1,0,0:0:0:0:
36,192,80970,1,0,0:0:0:0:
329,192,80970,1,2,0:0:0:0:
182,192,81146,1,0,0:0:0:0:
475,192,81146,1,2,0:0:0:0:
36,192,81234,1,2,0:0:0:0:
329,192,81234,1,2,0:0:0:0:
182,192,81411,1,0,0:0:0:0:
475,192,81411,1,2,0:0:0:0:
36,192,81499,1,0,0:0:0:0:
329,192,81499,1,2,0:0:0:0:
182,192,81587,1,0,0:0:0:0:
475,192,81587,1,2,0:0:0:0:
256,192,82117,1,0,0:0:0:0:
402,192,82117,1,0,0:0:0:0:
109,192,82117,1,0,0:0:0:0:
256,192,82293,1,4,0:0:0:0:
36,192,82293,1,0,0:0:0:0:
475,192,82293,1,0,0:0:0:0:
109,192,82470,1,0,0:0:0:0:
329,192,82646,1,0,0:0:0:0:
475,192,82646,1,0,0:0:0:0:
402,192,82823,1,0,0:0:0:0:
182,192,82999,1,0,0:0:0:0:
36,192,82999,1,0,0:0:0:0:
256,192,83176,1,0,0:0:0:0:
329,192,83264,1,0,0:0:0:0:
402,192,83352,1,0,0:0:0:0:
256,192,83440,1,0,0:0:0:0:
329,192,83529,1,0,0:0:0:0:
402,192,83617,1,0,0:0:0:0:
475,192,83705,1,0,0:0:0:0:
36,192,83705,128,0,84764:0:0:0:0:
475,192,83970,1,2,0:0:0:0:
402,192,84058,1,2,0:0:0:0:
475,192,84234,1,2,0:0:0:0:
402,192,84323,1,2,0:0:0:0:
182,192,84411,1,0,0:0:0:0:
329,192,84587,1,0,0:0:0:0:
182,192,84764,1,0,0:0:0:0:
109,192,84940,1,0,0:0:0:0:
402,192,84940,1,0,0:0:0:0:
36,192,85117,1,0,0:0:0:0:
182,192,85117,1,4,0:0:0:0:
329,192,85117,1,0,0:0:0:0:
475,192,85117,1,0,0:0:0:0:
329,192,85293,1,0,0:0:0:0:
475,192,85470,1,0,0:0:0:0:
329,192,85646,1,0,0:0:0:0:
182,192,85823,1,0,0:0:0:0:
36,192,85999,1,0,0:0:0:0:
182,192,86176,1,0,0:0:0:0:
329,192,86352,1,0,0:0:0:0:
475,192,86529,1,0,0:0:0:0:
329,192,86529,1,0,0:0:0:0:
182,192,86705,1,0,0:0:0:0:
36,192,86882,1,0,0:0:0:0:
182,192,87058,1,0,0:0:0:0:
329,192,87234,1,0,0:0:0:0:
475,192,87234,1,0,0:0:0:0:
402,192,87411,1,0,0:0:0:0:
329,192,87587,1,0,0:0:0:0:
256,192,87764,1,0,0:0:0:0:
182,192,87940,1,0,0:0:0:0:
36,192,87940,1,0,0:0:0:0:
475,192,88117,1,0,0:0:0:0:
329,192,88293,1,0,0:0:0:0:
402,192,88470,1,0,0:0:0:0:
256,192,88646,1,0,0:0:0:0:
329,192,88823,1,0,0:0:0:0:
182,192,88999,1,0,0:0:0:0:
256,192,89176,1,0,0:0:0:0:
109,192,89352,1,0,0:0:0:0:
36,192,89352,1,0,0:0:0:0:
256,192,89529,1,0,0:0:0:0:
182,192,89705,1,0,0:0:0:0:
329,192,89882,1,0,0:0:0:0:
36,192,89882,1,0,0:0:0:0:
256,192,90058,1,0,0:0:0:0:
402,192,90234,1,0,0:0:0:0:
36,192,90234,1,0,0:0:0:0:
329,192,90411,1,0,0:0:0:0:
475,192,90587,1,0,0:0:0:0:
36,192,90587,1,0,0:0:0:0:
36,192,90764,1,0,0:0:0:0:
182,192,90764,1,0,0:0:0:0:
329,192,90940,1,0,0:0:0:0:
475,192,91117,1,0,0:0:0:0:
329,192,91293,1,0,0:0:0:0:
36,192,91293,1,0,0:0:0:0:
182,192,91470,1,0,0:0:0:0:
36,192,91470,1,0,0:0:0:0:
329,192,91646,1,0,0:0:0:0:
182,192,91823,1,0,0:0:0:0:
329,192,91999,1,0,0:0:0:0:
475,192,91999,1,0,0:0:0:0:
475,192,92176,1,0,0:0:0:0:
329,192,92176,1,0,0:0:0:0:
329,192,92352,1,0,0:0:0:0:
182,192,92529,1,0,0:0:0:0:
36,192,92705,1,0,0:0:0:0:
402,192,92882,1,0,0:0:0:0:
36,192,92882,1,0,0:0:0:0:
256,192,93058,1,0,0:0:0:0:
109,192,93234,1,0,0:0:0:0:
329,192,93411,1,0,0:0:0:0:
256,192,93587,1,0,0:0:0:0:
109,192,93587,1,0,0:0:0:0:
402,192,93587,1,0,0:0:0:0:
36,192,93764,1,0,0:0:0:0:
182,192,93764,1,0,0:0:0:0:
109,192,93940,1,0,0:0:0:0:
182,192,94117,1,0,0:0:0:0:
329,192,94117,1,0,0:0:0:0:
256,192,94293,1,0,0:0:0:0:
329,192,94470,1,0,0:0:0:0:
475,192,94470,1,0,0:0:0:0:
256,192,94646,1,0,0:0:0:0:
329,192,94823,1,0,0:0:0:0:
182,192,94823,1,0,0:0:0:0:
256,192,94999,1,0,0:0:0:0:
109,192,94999,1,0,0:0:0:0:
402,192,94999,1,0,0:0:0:0:
475,192,95176,1,0,0:0:0:0:
329,192,95176,1,0,0:0:0:0:
256,192,95352,1,0,0:0:0:0:
402,192,95352,1,0,0:0:0:0:
182,192,95529,1,0,0:0:0:0:
329,192,95529,1,0,0:0:0:0:
109,192,95705,1,0,0:0:0:0:
256,192,95705,1,0,0:0:0:0:
182,192,95882,1,0,0:0:0:0:
329,192,95882,1,0,0:0:0:0:
256,192,96058,1,0,0:0:0:0:
402,192,96058,1,0,0:0:0:0:
329,192,96234,1,0,0:0:0:0:
475,192,96234,1,0,0:0:0:0:
329,192,96411,1,0,0:0:0:0:
182,192,96411,1,4,0:0:0:0:
36,192,96587,1,0,0:0:0:0:
182,192,96587,1,0,0:0:0:0:
36,192,96764,1,0,0:0:0:0:
182,192,96764,1,0,0:0:0:0:
36,192,97117,128,0,97823:0:0:0:0:
329,192,97117,1,0,0:0:0:0:
109,192,97382,128,0,97823:0:0:0:0:
402,192,97382,1,0,0:0:0:0:
182,192,97646,128,0,97823:0:0:0:0:
475,192,97646,1,0,0:0:0:0:
475,192,97823,1,0,0:0:0:0:
256,192,97823,1,0,0:0:0:0:
475,192,97999,1,0,0:0:0:0:
475,192,98176,1,0,0:0:0:0:
475,192,98529,128,0,99234:0:0:0:0:
182,192,98529,1,0,0:0:0:0:
402,192,98793,128,0,99234:0:0:0:0:
109,192,98793,1,0,0:0:0:0:
329,192,99058,128,0,99234:0:0:0:0:
36,192,99058,1,0,0:0:0:0:
36,192,99234,1,0,0:0:0:0:
182,192,99234,1,0,0:0:0:0:
36,192,99411,1,0,0:0:0:0:
36,192,99587,1,0,0:0:0:0:
182,192,99940,128,0,100646:0:0:0:0:
475,192,99940,1,0,0:0:0:0:
109,192,100205,128,0,100646:0:0:0:0:
402,192,100205,1,0,0:0:0:0:
36,192,100470,128,0,100646:0:0:0:0:
329,192,100470,1,0,0:0:0:0:
475,192,100646,1,0,0:0:0:0:
475,192,100823,1,0,0:0:0:0:
475,192,100999,1,0,0:0:0:0:
329,192,101352,128,0,102058:0:0:0:0:
256,192,101352,1,0,0:0:0:0:
402,192,101617,128,0,102058:0:0:0:0:
182,192,101617,1,0,0:0:0:0:
475,192,101882,128,0,102058:0:0:0:0:
109,192,101882,1,0,0:0:0:0:
36,192,102058,1,0,0:0:0:0:
256,192,102058,1,4,0:0:0:0:
36,192,102234,1,0,0:0:0:0:
36,192,102411,1,0,0:0:0:0:
182,192,102411,1,0,0:0:0:0:
182,192,102587,1,0,0:0:0:0:
36,192,102587,1,0,0:0:0:0:
256,192,102764,1,0,0:0:0:0:
109,192,102764,1,0,0:0:0:0:
329,192,102940,1,0,0:0:0:0:
182,192,102940,1,0,0:0:0:0:
256,192,103117,1,0,0:0:0:0:
402,192,103117,1,0,0:0:0:0:
329,192,103293,1,0,0:0:0:0:
475,192,103293,1,0,0:0:0:0:
109,192,103470,1,0,0:0:0:0:
256,192,103470,1,0,0:0:0:0:
402,192,103470,1,0,0:0:0:0:
329,192,103646,1,0,0:0:0:0:
475,192,103646,1,0,0:0:0:0:
329,192,103823,1,0,0:0:0:0:
475,192,103823,1,0,0:0:0:0:
402,192,103999,1,0,0:0:0:0:
256,192,103999,1,0,0:0:0:0:
329,192,104176,1,0,0:0:0:0:
182,192,104176,1,0,0:0:0:0:
256,192,104352,1,0,0:0:0:0:
109,192,104352,1,0,0:0:0:0:
182,192,104529,1,0,0:0:0:0:
36,192,104529,1,0,0:0:0:0:
109,192,104705,1,0,0:0:0:0:
256,192,104705,1,0,0:0:0:0:
109,192,104882,1,0,0:0:0:0:
256,192,104882,1,0,0:0:0:0:
402,192,104882,1,0,0:0:0:0:
182,192,105058,1,0,0:0:0:0:
329,192,105058,1,0,0:0:0:0:
36,192,105234,1,0,0:0:0:0:
182,192,105234,1,0,0:0:0:0:
182,192,105411,1,0,0:0:0:0:
329,192,105411,1,0,0:0:0:0:
329,192,105587,1,0,0:0:0:0:
475,192,105587,1,0,0:0:0:0:
329,192,105764,1,0,0:0:0:0:
182,192,105764,1,0,0:0:0:0:
182,192,105940,1,0,0:0:0:0:
36,192,105940,1,0,0:0:0:0:
182,192,106117,1,0,0:0:0:0:
329,192,106117,1,0,0:0:0:0:
329,192,106293,1,0,0:0:0:0:
475,192,106293,1,0,0:0:0:0:
36,192,106470,1,0,0:0:0:0:
109,192,106470,1,0,0:0:0:0:
256,192,106646,1,0,0:0:0:0:
329,192,106823,1,0,0:0:0:0:
475,192,106823,1,0,0:0:0:0:
256,192,106999,1,0,0:0:0:0:
182,192,107176,1,0,0:0:0:0:
36,192,107176,1,0,0:0:0:0:
329,192,107352,1,0,0:0:0:0:
475,192,107352,1,0,0:0:0:0:
256,192,107529,1,0,0:0:0:0:
36,192,107529,1,0,0:0:0:0:
402,192,107705,1,4,0:0:0:0:
475,192,107705,1,4,0:0:0:0:
109,192,107705,1,0,0:0:0:0:
36,192,107705,1,0,0:0:0:0:
182,192,107793,1,0,0:0:0:0:
329,192,107882,1,0,0:0:0:0:
36,192,107970,1,0,0:0:0:0:
182,192,108058,1,0,0:0:0:0:
475,192,108146,1,0,0:0:0:0:
329,192,108234,1,0,0:0:0:0:
36,192,108323,1,0,0:0:0:0:
182,192,108411,1,0,0:0:0:0:
475,192,108499,1,0,0:0:0:0:
329,192,108587,1,0,0:0:0:0:
36,192,108676,1,0,0:0:0:0:
182,192,108764,1,0,0:0:0:0:
402,192,108852,1,0,0:0:0:0:
256,192,108940,1,0,0:0:0:0:
109,192,109029,1,0,0:0:0:0:
475,192,109117,1,0,0:0:0:0:
402,192,109205,1,0,0:0:0:0:
329,192,109293,1,8,0:0:0:0:
109,192,109382,1,0,0:0:0:0:
182,192,109470,1,0,0:0:0:0:
475,192,109558,1,0,0:0:0:0:
402,192,109646,1,0,0:0:0:0:
36,192,109734,1,0,0:0:0:0:
109,192,109823,1,0,0:0:0:0:
402,192,109911,1,0,0:0:0:0:
329,192,109999,1,0,0:0:0:0:
109,192,110087,1,0,0:0:0:0:
182,192,110176,1,0,0:0:0:0:
475,192,110264,1,0,0:0:0:0:
402,192,110352,1,0,0:0:0:0:
36,192,110440,1,0,0:0:0:0:
109,192,110529,1,0,0:0:0:0:
475,192,110617,1,0,0:0:0:0:
182,192,110705,1,8,0:0:0:0:
329,192,110793,1,0,0:0:0:0:
36,192,110882,1,0,0:0:0:0:
475,192,110970,1,8,0:0:0:0:
182,192,111058,1,0,0:0:0:0:
329,192,111146,1,0,0:0:0:0:
109,192,111234,1,8,0:0:0:0:
475,192,111323,1,0,0:0:0:0:
182,192,111411,1,0,0:0:0:0:
329,192,111499,1,8,0:0:0:0:
36,192,111587,1,0,0:0:0:0:
475,192,111676,1,0,0:0:0:0:
402,192,111764,1,8,0:0:0:0:
329,192,111852,1,0,0:0:0:0:
256,192,111940,1,0,0:0:0:0:
36,192,112029,1,0,0:0:0:0:
329,192,112117,1,8,0:0:0:0:
182,192,112205,1,0,0:0:0:0:
475,192,112293,1,0,0:0:0:0:
36,192,112382,1,8,0:0:0:0:
329,192,112470,1,0,0:0:0:0:
182,192,112558,1,0,0:0:0:0:
475,192,112646,1,8,0:0:0:0:
36,192,112734,1,0,0:0:0:0:
329,192,112823,1,0,0:0:0:0:
182,192,112911,1,8,0:0:0:0:
402,192,112999,1,0,0:0:0:0:
36,192,113087,1,0,0:0:0:0:
182,192,113176,1,8,0:0:0:0:
329,192,113264,1,0,0:0:0:0:
475,192,113352,1,0,0:0:0:0:
182,192,113440,1,0,0:0:0:0:
36,192,113529,1,8,0:0:0:0:
329,192,113617,1,0,0:0:0:0:
475,192,113705,1,0,0:0:0:0:
182,192,113793,1,8,0:0:0:0:
36,192,113882,1,0,0:0:0:0:
329,192,113970,1,0,0:0:0:0:
475,192,114058,1,8,0:0:0:0:
182,192,114146,1,0,0:0:0:0:
36,192,114234,1,0,0:0:0:0:
329,192,114323,1,8,0:0:0:0:
475,192,114411,1,0,0:0:0:0:
182,192,114499,1,0,0:0:0:0:
36,192,114587,1,8,0:0:0:0:
329,192,114676,1,0,0:0:0:0:
475,192,114764,1,0,0:0:0:0:
182,192,114764,1,0,0:0:0:0:
109,192,114852,1,0,0:0:0:0:
329,192,114940,1,8,0:0:0:0:
402,192,115029,1,0,0:0:0:0:
109,192,115117,1,0,0:0:0:0:
36,192,115205,1,8,0:0:0:0:
402,192,115293,1,0,0:0:0:0:
475,192,115382,1,0,0:0:0:0:
182,192,115470,1,8,0:0:0:0:
109,192,115558,1,0,0:0:0:0:
329,192,115646,1,0,0:0:0:0:
402,192,115734,1,8,0:0:0:0:
109,192,115823,1,0,0:0:0:0:
36,192,115911,1,0,0:0:0:0:
402,192,115999,1,8,0:0:0:0:
475,192,116087,1,0,0:0:0:0:
182,192,116176,1,0,0:0:0:0:
329,192,116264,1,0,0:0:0:0:
36,192,116352,1,0,0:0:0:0:
402,192,116440,1,0,0:0:0:0:
182,192,116529,1,0,0:0:0:0:
475,192,116617,1,8,0:0:0:0:
36,192,116705,1,0,0:0:0:0:
256,192,116793,1,0,0:0:0:0:
329,192,116882,1,8,0:0:0:0:
182,192,116970,1,0,0:0:0:0:
475,192,117058,1,0,0:0:0:0:
109,192,117146,1,8,0:0:0:0:
329,192,117234,1,0,0:0:0:0:
36,192,117323,1,0,0:0:0:0:
475,192,117411,1,0,0:0:0:0:
256,192,117499,1,0,0:0:0:0:
109,192,117587,1,0,0:0:0:0:
256,192,117676,1,0,0:0:0:0:
402,192,117764,1,8,0:0:0:0:
256,192,117852,1,0,0:0:0:0:
109,192,117940,1,0,0:0:0:0:
256,192,118029,1,8,0:0:0:0:
402,192,118117,1,0,0:0:0:0:
256,192,118205,1,0,0:0:0:0:
109,192,118293,1,8,0:0:0:0:
36,192,118293,1,0,0:0:0:0:
256,192,118382,1,0,0:0:0:0:
402,192,118470,1,0,0:0:0:0:
475,192,118470,1,0,0:0:0:0:
256,192,118558,1,8,0:0:0:0:
182,192,118646,1,0,0:0:0:0:
109,192,118646,1,0,0:0:0:0:
256,192,118734,1,0,0:0:0:0:
329,192,118823,1,8,0:0:0:0:
402,192,118823,1,0,0:0:0:0:
475,192,118999,1,0,0:0:0:0:
36,192,118999,128,0,119352:0:0:0:0:
475,192,119176,1,0,0:0:0:0:
475,192,119352,1,0,0:0:0:0:
329,192,119352,1,0,0:0:0:0:
109,192,119352,128,0,119705:0:0:0:0:
475,192,119705,1,0,0:0:0:0:
402,192,119793,1,0,0:0:0:0:
329,192,119882,1,0,0:0:0:0:
256,192,119970,1,0,0:0:0:0:
182,192,120058,1,0,0:0:0:0:
36,192,120058,1,0,0:0:0:0:
256,192,120234,1,8,0:0:0:0:
256,192,120411,1,0,0:0:0:0:
475,192,120411,128,0,120764:0:0:0:0:
109,192,120411,1,0,0:0:0:0:
402,192,120411,1,4,0:0:0:0:
329,192,120587,1,0,0:0:0:0:
329,192,120764,128,0,121117:0:0:0:0:
182,192,120764,1,0,0:0:0:0:
36,192,120940,1,0,0:0:0:0:
182,192,121117,128,0,121470:0:0:0:0:
256,192,121117,1,0,0:0:0:0:
329,192,121293,1,0,0:0:0:0:
36,192,121470,128,0,121823:0:0:0:0:
256,192,121470,1,0,0:0:0:0:
475,192,121646,1,0,0:0:0:0:
475,192,121823,128,0,122176:0:0:0:0:
256,192,121823,1,0,0:0:0:0:
182,192,121999,1,0,0:0:0:0:
329,192,122176,128,0,122529:0:0:0:0:
36,192,122176,1,0,0:0:0:0:
182,192,122352,1,0,0:0:0:0:
182,192,122529,128,0,122882:0:0:0:0:
402,192,122529,1,0,0:0:0:0:
475,192,122705,1,0,0:0:0:0:
36,192,122882,128,0,123234:0:0:0:0:
402,192,122882,1,0,0:0:0:0:
256,192,123058,1,0,0:0:0:0:
402,192,123234,128,0,123587:0:0:0:0:
182,192,123234,1,0,0:0:0:0:
109,192,123411,1,0,0:0:0:0:
256,192,123587,128,0,123940:0:0:0:0:
36,192,123587,1,0,0:0:0:0:
475,192,123764,1,0,0:0:0:0:
109,192,123940,128,0,124293:0:0:0:0:
329,192,123940,1,0,0:0:0:0:
182,192,124117,1,0,0:0:0:0:
36,192,124293,1,0,0:0:0:0:
256,192,124293,128,0,124646:0:0:0:0:
475,192,124470,1,0,0:0:0:0:
36,192,124646,128,0,124999:0:0:0:0:
402,192,124646,1,0,0:0:0:0:
329,192,124823,1,0,0:0:0:0:
475,192,124999,128,0,125352:0:0:0:0:
256,192,124999,1,0,0:0:0:0:
182,192,125176,1,0,0:0:0:0:
109,192,125352,1,0,0:0:0:0:
182,192,125352,128,0,125705:0:0:0:0:
36,192,125529,1,0,0:0:0:0:
329,192,125705,128,0,126058:0:0:0:0:
402,192,125705,1,0,0:0:0:0:
109,192,125882,1,0,0:0:0:0:
475,192,126058,128,0,126411:0:0:0:0:
256,192,126058,1,0,0:0:0:0:
182,192,126234,1,0,0:0:0:0:
36,192,126411,128,0,126764:0:0:0:0:
109,192,126411,1,0,0:0:0:0:
182,192,126587,1,0,0:0:0:0:
329,192,126764,128,0,127117:0:0:0:0:
256,192,126764,1,0,0:0:0:0:
402,192,126940,1,0,0:0:0:0:
182,192,127117,128,0,127470:0:0:0:0:
475,192,127117,1,0,0:0:0:0:
256,192,127293,1,0,0:0:0:0:
402,192,127470,128,0,127823:0:0:0:0:
329,192,127470,1,0,0:0:0:0:
256,192,127646,1,0,0:0:0:0:
109,192,127823,128,0,128176:0:0:0:0:
36,192,127823,1,0,0:0:0:0:
256,192,127999,1,0,0:0:0:0:
402,192,128176,128,0,128529:0:0:0:0:
475,192,128176,1,0,0:0:0:0:
256,192,128352,1,0,0:0:0:0:
109,192,128529,128,0,128882:0:0:0:0:
182,192,128529,1,0,0:0:0:0:
256,192,128705,1,0,0:0:0:0:
475,192,128882,128,0,129234:0:0:0:0:
329,192,128882,1,0,0:0:0:0:
109,192,129058,1,0,0:0:0:0:
36,192,129234,128,0,129587:0:0:0:0:
182,192,129234,1,0,0:0:0:0:
256,192,129411,1,0,0:0:0:0:
182,192,129587,128,0,129940:0:0:0:0:
329,192,129587,1,0,0:0:0:0:
402,192,129764,1,0,0:0:0:0:
256,192,129940,128,0,130293:0:0:0:0:
475,192,129940,1,0,0:0:0:0:
329,192,129940,1,0,0:0:0:0:
36,192,129940,1,0,0:0:0:0:
182,192,130117,1,0,0:0:0:0:
329,192,130293,1,0,0:0:0:0:
36,192,130293,1,4,0:0:0:0:
475,192,130293,1,4,0:0:0:0:
182,192,130470,1,0,0:0:0:0:
329,192,130646,1,0,0:0:0:0:
475,192,130823,1,0,0:0:0:0:
329,192,130999,1,0,0:0:0:0:
182,192,131176,1,0,0:0:0:0:
36,192,131352,1,0,0:0:0:0:
182,192,131529,1,0,0:0:0:0:
329,192,131705,1,0,0:0:0:0:
475,192,131705,1,0,0:0:0:0:
182,192,131886,1,0,0:0:0:0:
36,192,132068,1,0,0:0:0:0:
182,192,132250,1,0,0:0:0:0:
329,192,132432,1,0,0:0:0:0:
475,192,132614,1,0,0:0:0:0:
329,192,132795,1,0,0:0:0:0:
182,192,132977,1,0,0:0:0:0:
36,192,133159,1,0,0:0:0:0:
109,192,133159,1,0,0:0:0:0:
256,192,133346,1,0,0:0:0:0:
402,192,133534,1,0,0:0:0:0:
182,192,133721,1,0,0:0:0:0:
329,192,133909,1,0,0:0:0:0:
109,192,134096,1,0,0:0:0:0:
256,192,134284,1,0,0:0:0:0:
36,192,134471,1,0,0:0:0:0:
182,192,134659,1,0,0:0:0:0:
256,192,134659,1,0,0:0:0:0:
329,192,134852,1,0,0:0:0:0:
475,192,135046,1,0,0:0:0:0:
329,192,135239,1,0,0:0:0:0:
182,192,135239,1,0,0:0:0:0:
36,192,135433,1,0,0:0:0:0:
182,192,135626,1,0,0:0:0:0:
329,192,135820,1,0,0:0:0:0:
475,192,136013,1,0,0:0:0:0:
329,192,136207,1,0,0:0:0:0:
182,192,136207,1,0,0:0:0:0:
36,192,136407,1,0,0:0:0:0:
109,192,136607,1,0,0:0:0:0:
256,192,136807,1,0,0:0:0:0:
402,192,137007,1,0,0:0:0:0:
256,192,137207,1,0,0:0:0:0:
109,192,137407,1,0,0:0:0:0:
256,192,137607,1,0,0:0:0:0:
402,192,137807,1,0,0:0:0:0:
329,192,138013,1,0,0:0:0:0:
182,192,138220,1,0,0:0:0:0:
36,192,138427,1,0,0:0:0:0:
109,192,138634,1,0,0:0:0:0:
182,192,138841,1,0,0:0:0:0:
256,192,139048,1,0,0:0:0:0:
329,192,139255,1,0,0:0:0:0:
36,192,139462,1,0,0:0:0:0:
182,192,139517,1,2,0:0:0:0:
329,192,139573,1,2,0:0:0:0:
475,192,139573,128,2,144795:0:0:0:0:
329,192,140350,128,0,144795:0:0:0:0:
182,192,141239,128,0,144795:0:0:0:0:
