osu file format v13

[General]
AudioFilename: Formation.mp3
AudioLeadIn: 0
PreviewTime: 68294
Countdown: 0
SampleSet: Normal
StackLeniency: 0.4
Mode: 0
LetterboxInBreaks: 1
EpilepsyWarning: 1
WidescreenStoryboard: 1

[Editor]
Bookmarks: 1036,11358,21681,32003,34745,57970,68294,76035,77003,86196,96519,107003,117325,130228,141841,149582,150550,162486,171518,177970,185711,193453,194421,196034,203613
DistanceSpacing: 1
BeatDivisor: 4
GridSize: 8
TimelineZoom: 1.3

[Metadata]
Title:Kuukan Formation
TitleUnicode:空閒⇔Formation
Artist:Yairi
ArtistUnicode:Yairi
Creator:NiceWolf4
Version:Hard
Source:
Tags:vocaloid space v2 v3 Shadren SQUARE02 Mimori Suzuko やいり 三森すずこ Akiakane Megpoid Gumi
BeatmapID:315438
BeatmapSetID:123524

[Difficulty]
HPDrainRate:6
CircleSize:4
OverallDifficulty:6
ApproachRate:8
SliderMultiplier:1.6
SliderTickRate:1

[Events]
//Background and Video events
0,0,"image_560407121615504978700.jpg",0,0
//Break Periods
2,21879,31252
2,96718,106252
2,171879,175930
//Storyboard Layer 0 (Background)
//Storyboard Layer 1 (Fail)
//Storyboard Layer 2 (Pass)
//Storyboard Layer 3 (Foreground)
//Storyboard Sound Samples
//Background Colour Transformations
3,100,163,162,255

[TimingPoints]
9261,322.58064516129,4,2,0,5,1,0
11358,-100,4,1,1,70,0,0
34745,-100,4,1,1,50,0,0
45067,-100,4,1,1,60,0,0
68294,-100,4,1,1,80,0,1
83616,-100,4,1,1,80,0,1
86196,-100,4,1,1,70,0,0
107003,-133.333333333333,4,2,0,50,0,0
117325,-100,4,1,1,70,0,0
141841,-100,4,1,1,80,0,1
159582,-66.6666666666667,4,1,1,80,0,1
159905,-100,4,1,1,75,0,0
160147,-100,4,2,0,60,0,0
162486,-100,4,1,1,70,0,0
185713,-100,4,1,1,80,0,1
193454,-100,4,1,1,80,0,0
196034,-100,4,1,1,80,0,1
201033,-100,4,1,1,80,0,1
203455,-100,4,1,1,80,0,0
203616,-100,4,1,1,75,0,1
203777,-100,4,1,1,75,0,0

[Colours]
Combo1 : 243,222,197
Combo2 : 128,128,128
Combo3 : 192,179,154
Combo4 : 158,189,197

[HitObjects]
152,64,11357,6,0,L|152:224,1,160,4|0,0:0|0:0,0:0:0:0:
152,224,11841,1,8,0:0:0:0:
232,224,12002,2,0,L|232:136,1,80,0|8,0:0|0:0,0:0:0:0:
312,144,12325,2,0,L|312:232,1,80,0|8,0:0|0:0,0:0:0:0:
392,224,12648,2,0,L|392:136,1,80,0|8,0:0|0:0,0:0:0:0:
416,72,12970,2,0,L|496:72,2,80,0|8|0,0:0|0:0|0:0,0:0:0:0:
336,72,13454,1,8,0:0:0:0:
336,72,13615,1,0,0:0:0:0:
256,208,13938,6,0,L|256:368,1,160,4|0,0:0|0:0,0:0:0:0:
256,368,14422,1,8,0:0:0:0:
184,344,14583,2,0,L|80:344,1,80,0|8,0:0|0:0,0:0:0:0:
72,272,14906,2,0,L|160:272,1,80,0|8,0:0|0:0,0:0:0:0:
128,192,15228,2,0,L|32:192,1,80,0|8,0:0|0:0,0:0:0:0:
80,120,15551,2,0,L|-8:120,2,80,0|8|0,0:0|0:0|0:0,0:0:0:0:
160,120,16035,2,0,L|208:120,4,40,8|0|0|0|0,0:0|0:0|0:0|0:0|0:0,0:0:0:0:
160,40,16519,6,0,B|256:40|256:40|328:112,1,160,4|0,0:0|0:0,0:0:0:0:
301,85,17002,1,8,0:0:0:0:
232,120,17164,2,0,P|232:176|296:216,1,80,0|8,0:0|0:0,0:0:0:0:
320,176,17486,2,0,P|320:232|256:272,1,80,0|8,0:0|0:0,0:0:0:0:
232,272,17809,2,0,P|232:328|296:368,1,80,0|8,0:0|0:0,0:0:0:0:
328,344,18131,2,0,L|424:344,2,80,0|8|0,0:0|0:0|0:0,0:0:0:0:
336,264,18615,1,8,0:0:0:0:
336,264,18777,1,0,0:0:0:0:
272,112,19099,6,0,B|336:56|336:56|440:56,1,160,4|0,0:0|0:0,0:0:0:0:
410,56,19583,1,8,0:0:0:0:
376,128,19744,2,0,P|344:168|288:176,1,80,0|8,0:0|0:0,0:0:0:0:
240,192,20067,2,0,P|204:208|182:241,1,80,0|8,0:0|0:0,0:0:0:0:
256,272,20390,2,0,B|312:336|312:336|416:336,1,160
424,264,20873,2,0,P|448:216|216:96,1,400,8|4,0:0|0:0,0:0:0:0:
448,296,32002,6,0,P|376:264|312:336,1,160
256,256,32486,2,0,P|194:301|125:269,1,160
184,208,32970,2,0,P|144:152|152:112,1,80
224,136,33293,1,0,0:0:0:0:
224,136,33454,1,8,0:0:0:0:
272,72,33615,2,0,L|328:152,1,80
272,200,33938,2,8,L|216:288,1,80
312,280,34260,2,8,L|368:368,1,80
416,192,34744,6,0,L|232:192,1,160,8|0,0:0|0:0,0:0:0:0:
208,128,35228,1,0,0:0:0:0:
176,200,35390,2,0,L|112:256,1,80,8|0,0:0|0:0,0:0:0:0:
48,296,35712,2,0,P|88:328|144:328,1,80,0|0,0:0|0:0,0:0:0:0:
240,232,36196,2,0,P|192:224|168:184,1,80,0|0,0:0|0:0,0:0:0:0:
56,200,36680,6,0,B|56:112|56:112|112:48,1,160,8|0,0:0|0:0,0:0:0:0:
144,128,37164,1,0,0:0:0:0:
224,136,37325,2,0,L|312:48,2,120,0|0|0,0:0|0:0|0:0,0:0:0:0:
256,208,37970,1,0,0:0:0:0:
400,256,38293,6,0,L|400:344,1,80,0|0,0:0|0:0,0:0:0:0:
112,128,38777,2,0,L|112:40,1,80,0|0,0:0|0:0,0:0:0:0:
272,64,39260,6,0,P|216:96|200:136,1,80,8|0,0:0|0:0,0:0:0:0:
224,184,39583,2,0,P|280:152|296:112,1,80,0|0,0:0|0:0,0:0:0:0:
352,184,39906,6,0,L|352:312,2,120,8|0|0,0:0|0:0|0:0,0:0:0:0:
352,104,40551,1,4,0:0:0:0:
160,200,40873,2,0,L|160:72,2,120,0|0|0,0:0|0:0|0:0,0:0:0:0:
160,280,41519,1,0,0:0:0:0:
200,128,41841,6,0,L|376:128,1,160,8|0,0:0|0:0,0:0:0:0:
424,80,42325,1,0,0:0:0:0:
440,160,42486,2,0,B|505:174|529:214|505:278,1,160,8|0,0:0|0:0,0:0:0:0:
432,240,42970,1,0,0:0:0:0:
384,304,43131,2,0,P|344:264|352:208,1,80,8|0,0:0|0:0,0:0:0:0:
256,240,43454,6,0,L|256:320,1,80,0|0,0:0|0:0,0:0:0:0:
256,144,43938,2,0,L|256:64,1,80,0|0,0:0|0:0,0:0:0:0:
168,200,44422,6,0,P|141:229|104:243,1,80,8|0,0:0|0:0,0:0:0:0:
88,168,44744,2,0,P|32:200|16:240,1,80,0|0,0:0|0:0,0:0:0:0:
40,288,45067,5,0,0:0:0:0:
40,288,45228,2,0,L|104:344,1,80,0|8,0:0|0:0,0:0:0:0:
152,280,45551,2,0,L|232:256,1,80
304,288,45873,1,0,0:0:0:0:
304,288,46035,1,8,0:0:0:0:
288,208,46196,2,0,L|208:144,1,80
224,80,46519,1,0,0:0:0:0:
224,80,46680,1,8,0:0:0:0:
152,120,46841,6,0,L|72:120,1,80
96,200,47164,2,0,L|176:200,1,80,0|8,0:0|0:0,0:0:0:0:
200,280,47486,2,0,L|120:280,1,80
144,360,47809,2,0,L|240:360,1,80,0|8,0:0|0:0,0:0:0:0:
296,328,48131,6,0,L|376:272,1,80
392,208,48454,1,0,0:0:0:0:
392,208,48615,1,8,0:0:0:0:
376,128,48777,2,0,L|464:128,1,80
424,56,49099,2,0,L|328:56,1,80,0|8,0:0|0:0,0:0:0:0:
288,120,49422,6,0,P|224:144|208:208,1,80,0|8,0:0|0:0,0:0:0:0:
280,200,49744,1,0,0:0:0:0:
280,200,49906,1,0,0:0:0:0:
232,264,50067,1,0,0:0:0:0:
232,264,50228,2,0,L|112:264,2,120,4|0|0,0:0|0:0|0:0,0:0:0:0:
232,184,50873,5,0,0:0:0:0:
232,184,51035,1,0,0:0:0:0:
232,184,51196,2,0,P|280:200|360:176,2,120,8|0|0,0:0|0:0|0:0,0:0:0:0:
288,120,51841,1,8,0:0:0:0:
288,120,52002,1,0,0:0:0:0:
280,40,52164,6,0,B|336:32|360:88|360:88|448:104,2,160,0|8|0,0:0|0:0|0:0,0:0:0:0:
288,120,52970,1,0,0:0:0:0:
288,120,53131,1,8,0:0:0:0:
288,200,53293,2,0,P|336:240|336:288,1,80
264,272,53615,1,0,0:0:0:0:
216,336,53777,2,0,B|160:280|192:240|192:240|120:200,2,160,8|0|8,0:0|0:0|0:0,0:0:0:0:
376,328,54744,6,0,L|480:328,1,80
456,248,55067,2,0,L|376:248,1,80,8|0,0:0|0:0,0:0:0:0:
416,176,55390,2,0,B|416:96|416:96|344:40,1,160,4|0,0:0|0:0,0:0:0:0:
336,128,55873,6,0,L|256:128,1,80,0|8,0:0|0:0,0:0:0:0:
128,224,56357,2,0,L|208:224,1,80
256,192,56680,12,0,57970,0:0:0:0:
80,192,58293,6,0,P|112:152|160:144,1,80,8|0,0:0|0:0,0:0:0:0:
192,208,58615,2,0,P|213:240|250:256,1,80
288,184,58938,2,0,P|320:144|368:136,1,80,8|0,0:0|0:0,0:0:0:0:
400,200,59260,2,0,P|421:232|458:248,1,80
408,312,59583,6,0,P|376:328|328:328,1,80,8|0,0:0|0:0,0:0:0:0:
256,344,59906,2,0,P|223:320|199:288,1,80
176,216,60228,2,0,P|216:192|231:159,1,80,8|0,0:0|0:0,0:0:0:0:
288,112,60551,6,0,P|255:88|231:56,1,80
152,96,60873,2,0,P|128:128|128:200,1,80,8|0,0:0|0:0,0:0:0:0:
200,168,61196,2,0,P|192:206|168:238,1,80
120,304,61519,2,0,P|144:344|216:360,1,80,8|0,0:0|0:0,0:0:0:0:
256,344,61841,5,4,0:0:0:0:
104,192,62164,1,4,0:0:0:0:
256,40,62486,1,4,0:0:0:0:
408,192,62809,1,4,0:0:0:0:
368,264,62970,6,0,L|288:264,1,80
312,184,63293,2,0,P|280:136|232:128,1,80,0|8,0:0|0:0,0:0:0:0:
184,144,63615,2,0,P|216:192|264:200,1,80
168,248,63938,2,0,P|201:267|218:303,1,80,0|8,0:0|0:0,0:0:0:0:
280,360,64260,6,0,P|312:312|360:304,1,80
400,344,64583,2,0,P|448:296|440:232,1,80,0|8,0:0|0:0,0:0:0:0:
392,232,64906,2,0,P|352:200|344:136,1,80
280,224,65228,2,0,P|262:188|229:166,1,80,0|8,0:0|0:0,0:0:0:0:
200,240,65551,6,0,P|182:275|149:297,1,80
120,224,65873,2,0,P|80:192|72:128,1,80,0|8,0:0|0:0,0:0:0:0:
72,88,66196,2,0,L|152:88,1,80
224,56,66519,2,0,L|224:136,2,80,0|8|0,0:0|0:0|0:0,0:0:0:0:
296,88,67002,6,0,B|368:152|368:152|368:256,1,160
296,192,67486,1,0,0:0:0:0:
216,192,67648,1,4,0:0:0:0:
128,336,68293,6,0,B|104:272|56:304|56:304|48:256,1,120,4|0,0:0|0:0,0:0:0:0:
48,160,68777,1,0,0:0:0:0:
120,128,68938,2,0,P|80:88|24:88,1,80,8|0,0:0|0:0,0:0:0:0:
112,24,69260,2,0,L|192:24,1,80,8|0,0:0|0:0,0:0:0:0:
272,32,69583,6,0,B|296:64|296:64|264:96|280:176,1,120
392,96,70067,1,0,0:0:0:0:
392,96,70228,1,8,0:0:0:0:
360,168,70390,2,0,L|320:248,1,80,0|8,0:0|0:0,0:0:0:0:
392,288,70712,1,0,0:0:0:0:
320,320,70873,6,0,B|248:304|240:224,2,120
264,376,71519,2,0,P|176:344|130:290,1,160,8|0,0:0|0:0,0:0:0:0:
56,328,72002,1,0,0:0:0:0:
72,248,72164,6,0,B|67:201|35:185|35:185|67:153,2,120
136,192,72809,2,0,L|216:192,2,80,8|0|0,0:0|0:0|0:0,0:0:0:0:
208,48,73454,6,0,B|144:64|144:64|176:144|132:111,2,120
240,120,74099,2,0,L|320:120,1,80,8|0,0:0|0:0,0:0:0:0:
400,120,74422,1,8,0:0:0:0:
400,120,74583,1,0,0:0:0:0:
416,192,74744,6,0,B|436:228|472:208|472:208|448:288,1,120
368,344,75228,1,0,0:0:0:0:
368,344,75390,1,8,0:0:0:0:
336,272,75551,2,0,L|296:192,1,80,0|8,0:0|0:0,0:0:0:0:
176,88,76035,6,0,P|120:80|48:104,2,120
336,296,77002,2,0,P|392:304|464:280,2,120
360,136,77809,6,0,L|360:56,1,80,0|8,0:0|0:0,0:0:0:0:
288,32,78131,2,0,L|288:112,1,80,0|8,0:0|0:0,0:0:0:0:
152,24,78615,6,0,P|112:92|99:171,1,160,4|8,0:0|0:0,0:0:0:0:
24,208,79099,2,0,P|16:272|32:312,1,80
96,256,79422,1,0,0:0:0:0:
96,256,79583,1,8,0:0:0:0:
96,256,79744,1,0,0:0:0:0:
168,288,79906,6,0,P|230:239|308:228,1,160,0|8,0:0|0:0,0:0:0:0:
384,192,80390,2,0,L|384:112,1,80
304,96,80712,1,0,0:0:0:0:
304,96,80873,1,8,0:0:0:0:
304,96,81035,1,0,0:0:0:0:
240,40,81196,6,0,P|191:102|166:178,1,160,0|8,0:0|0:0,0:0:0:0:
240,208,81680,2,0,P|272:176|328:176,1,80
376,136,82002,2,0,P|385:174|369:210,1,80,0|8,0:0|0:0,0:0:0:0:
320,272,82325,1,0,0:0:0:0:
320,272,82486,1,0,0:0:0:0:
320,272,82648,1,0,0:0:0:0:
256,320,82809,2,0,L|200:256,1,80,8|0,0:0|0:0,0:0:0:0:
152,200,83131,1,0,0:0:0:0:
152,200,83293,1,0,0:0:0:0:
256,88,83615,5,4,0:0:0:0:
256,248,83938,2,0,L|256:344,1,80,0|8,0:0|0:0,0:0:0:0:
408,224,84422,6,0,L|408:144,1,80
328,128,84744,1,8,0:0:0:0:
376,64,84906,2,0,P|312:48|248:112,1,160
184,56,85390,1,8,0:0:0:0:
112,88,85551,2,0,L|112:168,1,80
112,168,85873,1,0,0:0:0:0:
256,280,86196,37,4,0:0:0:0:
264,80,86680,5,8,0:0:0:0:
264,80,86841,2,0,L|264:168,1,80,0|8,0:0|0:0,0:0:0:0:
192,200,87164,2,0,L|192:112,1,80,0|8,0:0|0:0,0:0:0:0:
120,80,87486,2,0,L|120:168,1,80,0|8,0:0|0:0,0:0:0:0:
120,240,87809,2,0,L|48:204,2,80,0|8|0,0:0|0:0|0:0,0:0:0:0:
192,280,88293,1,8,0:0:0:0:
192,280,88454,1,0,0:0:0:0:
344,328,88777,6,0,L|344:168,1,160,4|0,0:0|0:0,0:0:0:0:
344,168,89260,1,8,0:0:0:0:
416,152,89422,2,0,L|496:152,1,80,0|8,0:0|0:0,0:0:0:0:
464,80,89744,2,0,L|384:80,1,80,0|8,0:0|0:0,0:0:0:0:
320,32,90067,2,0,L|240:32,1,80,0|8,0:0|0:0,0:0:0:0:
264,104,90390,2,0,L|176:104,2,80,0|8|0,0:0|0:0|0:0,0:0:0:0:
232,176,90873,2,0,L|280:176,4,40,8|0|0|0|0,0:0|0:0|0:0|0:0|0:0,0:0:0:0:
232,256,91357,6,0,B|136:256|136:256|64:328,1,160,4|0,0:0|0:0,0:0:0:0:
91,301,91841,1,8,0:0:0:0:
64,224,92002,2,0,P|64:168|128:128,1,80,0|8,0:0|0:0,0:0:0:0:
152,160,92325,2,0,P|152:104|88:64,1,80,0|8,0:0|0:0,0:0:0:0:
200,32,92648,2,0,P|272:56|304:112,1,80,0|8,0:0|0:0,0:0:0:0:
240,128,92970,2,0,L|304:192,2,80,0|8|0,0:0|0:0|0:0,0:0:0:0:
320,104,93454,1,8,0:0:0:0:
320,104,93615,1,0,0:0:0:0:
448,208,93938,6,0,B|373:208|373:208|309:264,1,160,4|0,0:0|0:0,0:0:0:0:
309,264,94422,1,8,0:0:0:0:
232,272,94583,2,0,P|200:232|144:224,1,80,0|8,0:0|0:0,0:0:0:0:
120,280,94906,2,0,P|84:264|62:231,1,80,0|8,0:0|0:0,0:0:0:0:
80,152,95228,2,0,B|136:88|136:88|240:88,1,160
288,112,95712,2,0,P|264:160|496:280,1,400,8|4,0:0|0:0,0:0:0:0:
322,67,107002,22,0,P|378:89|424:127,1,120.000004577637
400,200,107486,2,0,P|432:248|424:272,2,60.0000022888184
344,256,107970,2,0,P|312:304|248:352,1,120.000004577637,2|0,0:0|0:0,0:0:0:0:
256,256,108454,1,0,0:0:0:0:
256,256,108615,1,2,0:0:0:0:
256,256,108777,1,0,0:0:0:0:
184,304,108938,2,0,P|128:264|120:200,1,120.000004577637,0|2,0:0|0:0,0:0:0:0:
208,152,109583,6,0,P|256:83|312:88,1,120.000004577637,0|2,0:0|0:0,0:0:0:0:
288,152,110067,2,0,B|300:171|348:195|396:195,1,120.000004577637
400,120,110551,1,2,0:0:0:0:
400,120,110712,1,0,0:0:0:0:
400,120,110873,2,0,P|368:112|328:88,2,60.0000022888184,0|0|2,0:0|0:0|0:0,0:0:0:0:
256,64,111519,2,0,P|184:48|128:80,1,120.000004577637,0|2,0:0|0:0,0:0:0:0:
208,144,112164,38,0,B|224:232|200:264|160:320|104:352,1,240.000009155274
304,256,113131,2,0,B|288:168|312:136|352:80|408:48,1,240.000009155274,2|2,0:0|0:0,0:0:0:0:
256,72,114099,37,0,0:0:0:0:
256,192,114422,1,2,0:0:0:0:
256,320,114744,1,0,0:0:0:0:
256,192,114906,12,0,116357,0:0:0:0:
424,120,116680,5,2,0:0:0:0:
424,120,116841,1,0,0:0:0:0:
424,208,117002,1,2,0:0:0:0:
424,208,117164,1,0,0:0:0:0:
472,288,117325,5,0,0:0:0:0:
472,288,117486,2,0,L|408:344,1,80,0|8,0:0|0:0,0:0:0:0:
360,280,117809,2,0,L|280:256,1,80
208,288,118131,1,0,0:0:0:0:
208,288,118293,1,8,0:0:0:0:
224,208,118454,2,0,L|304:144,1,80
288,80,118777,1,0,0:0:0:0:
288,80,118938,1,8,0:0:0:0:
360,120,119099,6,0,L|440:120,1,80
416,200,119422,2,0,L|336:200,1,80,0|8,0:0|0:0,0:0:0:0:
312,280,119744,2,0,L|392:280,1,80
368,360,120067,2,0,L|272:360,1,80,0|8,0:0|0:0,0:0:0:0:
216,328,120389,6,0,L|136:272,1,80
120,208,120712,1,0,0:0:0:0:
120,208,120873,1,8,0:0:0:0:
136,128,121035,2,0,L|48:128,1,80
80,48,121357,2,0,L|176:48,1,80,0|8,0:0|0:0,0:0:0:0:
216,104,121680,6,0,P|280:128|296:152,1,80,0|8,0:0|0:0,0:0:0:0:
232,192,122002,1,0,0:0:0:0:
232,192,122164,1,0,0:0:0:0:
280,264,122325,1,0,0:0:0:0:
280,264,122486,2,0,L|400:264,2,120,4|0|0,0:0|0:0|0:0,0:0:0:0:
280,184,123131,5,8,0:0:0:0:
280,184,123293,1,0,0:0:0:0:
280,184,123454,2,0,P|224:200|160:168,2,120
232,120,124099,1,0,0:0:0:0:
232,120,124260,1,0,0:0:0:0:
232,40,124422,6,0,B|160:40|152:96|152:96|64:104,2,160,8|8|0,0:0|0:0|0:0,0:0:0:0:
232,120,125228,1,0,0:0:0:0:
232,120,125390,1,8,0:0:0:0:
224,200,125551,2,0,P|176:240|176:288,1,80
248,272,125873,1,0,0:0:0:0:
296,336,126035,2,0,B|352:280|320:240|320:240|392:200,2,160,8|0|8,0:0|0:0|0:0,0:0:0:0:
136,328,127002,6,0,L|32:328,1,80,8|0,0:0|0:0,0:0:0:0:
56,248,127325,2,0,L|136:248,1,80,8|0,0:0|0:0,0:0:0:0:
96,176,127648,2,0,B|96:96|96:96|168:40,1,160,4|0,0:0|0:0,0:0:0:0:
176,128,128131,6,0,L|256:128,1,80,0|8,0:0|0:0,0:0:0:0:
384,224,128615,2,0,L|304:224,1,80
256,192,128938,12,8,130228,0:0:0:0:
432,192,130551,6,0,P|400:232|352:240,1,80
320,176,130873,2,0,P|299:144|262:128,1,80,8|0,0:0|0:0,0:0:0:0:
224,200,131196,2,0,P|192:240|144:248,1,80
112,184,131519,2,0,P|91:152|54:136,1,80,8|0,0:0|0:0,0:0:0:0:
112,80,131841,6,0,P|136:48|168:24,1,80
248,24,132164,2,0,P|281:48|305:80,1,80,8|0,0:0|0:0,0:0:0:0:
320,160,132486,2,0,P|288:176|265:217,1,80
232,288,132809,6,0,P|265:312|289:344,1,80,8|0,0:0|0:0,0:0:0:0:
352,296,133131,2,0,P|376:264|376:192,1,80
304,216,133454,2,0,P|312:178|336:146,1,80,8|0,0:0|0:0,0:0:0:0:
392,88,133777,2,0,P|368:48|296:32,1,80
256,40,134099,5,4,0:0:0:0:
408,192,134422,1,4,0:0:0:0:
256,344,134744,1,4,0:0:0:0:
104,192,135067,1,4,0:0:0:0:
144,120,135228,6,0,L|224:120,1,80
200,200,135551,2,0,P|232:248|280:256,1,80,0|8,0:0|0:0,0:0:0:0:
328,240,135873,2,0,P|296:192|248:184,1,80
344,136,136196,2,0,P|311:117|294:81,1,80,0|8,0:0|0:0,0:0:0:0:
232,24,136519,6,0,P|200:72|152:80,1,80
112,40,136841,2,0,P|64:88|72:152,1,80,0|8,0:0|0:0,0:0:0:0:
120,152,137164,2,0,P|160:184|168:248,1,80
232,160,137486,2,0,P|250:196|283:218,1,80,0|8,0:0|0:0,0:0:0:0:
312,144,137809,6,0,P|330:109|363:87,1,80
392,160,138131,2,0,P|432:192|440:256,1,80,0|8,0:0|0:0,0:0:0:0:
440,296,138454,2,0,L|360:296,1,80
288,328,138777,2,0,L|288:248,2,80,0|8|0,0:0|0:0|0:0,0:0:0:0:
216,296,139260,6,0,B|144:232|144:232|144:128,1,160
216,192,139744,1,0,0:0:0:0:
296,192,139906,1,4,0:0:0:0:
400,72,140228,6,0,P|416:136|400:176,1,80
472,208,140551,2,0,P|424:232|376:224,1,80,8|0,0:0|0:0,0:0:0:0:
416,312,140873,2,0,P|376:314|342:335,1,80
264,304,141196,1,8,0:0:0:0:
264,304,141357,1,0,0:0:0:0:
264,304,141519,1,12,0:0:0:0:
384,336,141841,6,0,B|408:272|456:304|456:304|464:256,1,120,4|0,0:0|0:0,0:0:0:0:
464,160,142325,1,0,0:0:0:0:
392,128,142486,2,0,P|432:88|488:88,1,80,8|0,0:0|0:0,0:0:0:0:
400,24,142809,2,0,L|320:24,1,80,8|0,0:0|0:0,0:0:0:0:
240,32,143131,6,0,B|216:64|216:64|248:96|232:176,1,120
120,96,143615,1,0,0:0:0:0:
120,96,143777,1,8,0:0:0:0:
152,168,143938,2,0,L|192:248,1,80,0|8,0:0|0:0,0:0:0:0:
120,288,144260,1,0,0:0:0:0:
192,320,144422,6,0,B|264:304|272:224,2,120
248,376,145067,2,0,P|336:344|382:290,1,160,8|0,0:0|0:0,0:0:0:0:
456,328,145551,1,0,0:0:0:0:
440,248,145712,6,0,B|445:201|477:185|477:185|445:153,2,120
376,192,146357,2,0,L|296:192,2,80,8|0|0,0:0|0:0|0:0,0:0:0:0:
304,48,147002,6,0,B|368:64|368:64|336:144|380:111,2,120
272,120,147648,2,0,L|192:120,1,80,8|0,0:0|0:0,0:0:0:0:
112,120,147970,1,8,0:0:0:0:
112,120,148131,1,0,0:0:0:0:
96,192,148293,6,0,B|76:228|40:208|40:208|64:288,1,120
144,344,148777,1,0,0:0:0:0:
144,344,148938,1,8,0:0:0:0:
176,272,149099,2,0,L|216:192,1,80,0|8,0:0|0:0,0:0:0:0:
336,88,149583,6,0,P|392:80|464:104,2,120
176,296,150551,2,0,P|120:304|48:280,2,120
152,136,151357,6,0,L|152:56,1,80,0|8,0:0|0:0,0:0:0:0:
224,32,151680,2,0,L|224:112,1,80,0|8,0:0|0:0,0:0:0:0:
360,24,152164,6,0,P|400:92|408:208,1,160,4|8,0:0|0:0,0:0:0:0:
488,208,152648,2,0,P|496:272|480:312,1,80
416,256,152970,1,0,0:0:0:0:
416,256,153131,1,8,0:0:0:0:
416,256,153293,1,0,0:0:0:0:
344,288,153454,6,0,P|282:239|204:228,1,160,0|8,0:0|0:0,0:0:0:0:
128,192,153938,2,0,L|128:112,1,80
208,96,154260,1,0,0:0:0:0:
208,96,154422,1,8,0:0:0:0:
208,96,154583,1,0,0:0:0:0:
272,40,154744,6,0,P|321:102|346:178,1,160,0|8,0:0|0:0,0:0:0:0:
272,208,155228,2,0,P|240:176|184:168,1,80
136,136,155551,2,0,P|127:174|143:210,1,80,0|8,0:0|0:0,0:0:0:0:
192,272,155873,1,0,0:0:0:0:
192,272,156035,1,0,0:0:0:0:
192,272,156196,1,0,0:0:0:0:
256,320,156357,2,0,L|312:256,1,80,8|0,0:0|0:0,0:0:0:0:
360,200,156680,1,0,0:0:0:0:
360,200,156841,1,0,0:0:0:0:
256,88,157164,5,4,0:0:0:0:
256,248,157486,2,0,L|256:344,1,80,0|8,0:0|0:0,0:0:0:0:
104,224,157970,6,0,L|104:144,1,80
184,128,158293,1,8,0:0:0:0:
136,64,158454,2,0,P|200:48|264:112,1,160
328,56,158938,1,8,0:0:0:0:
400,88,159099,2,0,L|400:168,1,80
400,168,159422,1,0,0:0:0:0:
256,192,159583,12,0,162164,0:0:0:0:
256,56,162486,21,4,0:0:0:0:
256,56,162728,1,0,0:0:0:0:
256,56,162970,1,0,0:0:0:0:
336,56,163131,2,0,B|328:96|304:112|304:112|352:176,1,120,8|0,0:0|0:0,0:0:0:0:
272,256,163615,5,0,0:0:0:0:
272,256,163777,2,0,P|256:200|208:144,1,120,0|0,0:0|0:0,0:0:0:0:
160,256,164260,1,0,0:0:0:0:
160,256,164422,2,0,P|120:200|120:120,1,120,8|0,0:0|0:0,0:0:0:0:
168,40,164906,37,0,0:0:0:0:
168,40,165067,2,0,B|209:53|209:53|201:93|241:117,1,120
344,48,165551,2,0,L|344:128,1,80,0|8,0:0|0:0,0:0:0:0:
344,128,165954,1,0,0:0:0:0:
448,264,166196,6,0,L|368:264,1,80,0|8,0:0|0:0,0:0:0:0:
304,336,166519,2,0,L|216:336,2,80
264,248,167002,2,0,L|264:168,4,80,8|0|0|0|0,0:0|0:0|0:0|0:0|0:0,0:0:0:0:
136,280,167890,37,0,0:0:0:0:
136,280,168131,2,0,P|96:232|96:184,1,80
192,152,168535,5,0,0:0:0:0:
192,152,168777,2,0,P|232:200|232:248,1,80,0|8,0:0|0:0,0:0:0:0:
136,280,169180,37,0,0:0:0:0:
136,280,169422,2,0,P|96:232|96:184,1,80
192,152,169825,5,8,0:0:0:0:
192,152,170067,2,0,P|232:200|232:248,1,80,0|8,0:0|0:0,0:0:0:0:
152,224,170390,2,0,P|96:192|80:152,2,80
216,272,170873,37,8,0:0:0:0:
328,320,171115,1,0,0:0:0:0:
432,264,171357,2,0,P|360:208|352:128,1,160
256,192,176680,12,0,177648,0:0:0:0:
144,264,177970,6,0,L|224:264,1,80
200,184,178293,2,0,P|232:136|280:128,1,80,8|0,0:0|0:0,0:0:0:0:
328,144,178615,2,0,P|296:192|248:200,1,80
344,248,178938,2,0,P|311:267|294:303,1,80,8|0,0:0|0:0,0:0:0:0:
232,360,179260,6,0,P|200:312|152:304,1,80
112,344,179583,2,0,P|64:296|72:232,1,80,8|0,0:0|0:0,0:0:0:0:
120,232,179906,2,0,P|160:200|168:136,1,80
232,224,180228,2,0,P|250:188|283:166,1,80,8|0,0:0|0:0,0:0:0:0:
312,240,180551,6,0,P|330:275|363:297,1,80
392,224,180873,2,0,P|432:192|440:128,1,80,8|0,0:0|0:0,0:0:0:0:
440,88,181196,2,0,L|360:88,1,80
288,56,181519,2,0,L|288:136,2,80,8|0|8,0:0|0:0|0:0,0:0:0:0:
176,104,182083,6,0,B|104:168|104:168|88:224,1,120
176,216,182486,2,0,P|192:248|184:280,5,40,0|0|0|0|0|0,0:0|0:0|0:0|0:0|0:0|0:0,0:0:0:0:
224,280,182970,2,0,P|264:296|312:280,1,80
344,224,183293,2,0,P|304:208|256:224,1,80
232,144,183615,2,0,P|192:142|158:121,1,80
96,72,183938,1,0,0:0:0:0:
72,152,184099,1,8,0:0:0:0:
88,232,184260,1,0,0:0:0:0:
256,192,184422,12,0,185390,0:0:0:0:
64,192,185712,5,4,0:0:0:0:
448,192,187002,1,4,0:0:0:0:
256,48,188293,5,4,0:0:0:0:
256,192,188938,1,4,0:0:0:0:
256,336,189583,1,4,0:0:0:0:
160,208,189906,6,0,P|184:256|176:304,1,80
104,264,190228,2,0,P|80:216|88:168,1,80
136,136,190551,1,4,0:0:0:0:
272,48,190873,6,0,L|184:48,1,80,8|0,0:0|0:0,0:0:0:0:
232,120,191196,2,0,L|312:120,1,80
280,192,191519,2,0,L|200:192,1,80
240,264,191841,2,0,L|320:264,1,80
360,336,192164,6,0,L|280:336,1,80,8|0,0:0|0:0,0:0:0:0:
312,264,192486,2,0,L|400:264,1,80
360,192,192809,2,0,L|272:192,1,80
312,120,193131,2,0,L|400:120,1,80,0|4,0:0|0:0,0:0:0:0:
296,344,196035,6,0,P|336:276|349:197,1,160,4|8,0:0|0:0,0:0:0:0:
432,200,196519,2,0,P|440:136|424:96,1,80
360,120,196841,1,0,0:0:0:0:
360,120,197002,1,8,0:0:0:0:
360,120,197164,1,0,0:0:0:0:
296,72,197325,6,0,P|234:121|156:132,1,160,0|8,0:0|0:0,0:0:0:0:
80,160,197809,2,0,L|80:240,1,80
160,224,198131,1,0,0:0:0:0:
160,224,198293,1,8,0:0:0:0:
160,224,198454,1,0,0:0:0:0:
200,296,198615,6,0,P|249:234|274:158,1,160,0|8,0:0|0:0,0:0:0:0:
232,88,199099,2,0,P|208:120|152:144,1,80
96,168,199422,2,0,P|87:130|103:94,1,80,0|8,0:0|0:0,0:0:0:0:
168,40,199744,1,0,0:0:0:0:
168,40,199906,1,0,0:0:0:0:
168,40,200067,1,0,0:0:0:0:
248,16,200228,2,0,P|280:24|304:80,1,80,8|0,0:0|0:0,0:0:0:0:
344,136,200551,1,0,0:0:0:0:
344,136,200712,1,0,0:0:0:0:
256,272,201035,5,4,0:0:0:0:
256,112,201357,2,0,L|256:8,1,80,0|8,0:0|0:0,0:0:0:0:
104,160,201841,22,0,L|104:240,1,80
184,256,202164,1,8,0:0:0:0:
136,320,202325,2,0,P|200:336|264:272,1,160
328,328,202809,1,8,0:0:0:0:
400,296,202970,2,0,L|400:216,1,80
400,216,203293,1,0,0:0:0:0:
256,192,203615,37,4,0:0:0:0:
