osu file format v13

[General]
AudioFilename: S.mp3
AudioLeadIn: 0
PreviewTime: 22252
Countdown: 1
SampleSet: Normal
StackLeniency: 0.6
Mode: 0
LetterboxInBreaks: 1
WidescreenStoryboard: 0

[Editor]
DistanceSpacing: 1.4
BeatDivisor: 4
GridSize: 4
TimelineZoom: 1.5

[Metadata]
Title:Mission (Japanese version)
TitleUnicode:Mission (Japanese version)
Artist:Yaichi
ArtistUnicode:Yaichi
Creator:tewbs
Version:Insane
Source:SeeU
Tags:SeeU vocaloid
BeatmapID:387155
BeatmapSetID:158266

[Difficulty]
HPDrainRate:7
CircleSize:4
OverallDifficulty:8
ApproachRate:9
SliderMultiplier:2.2
SliderTickRate:1

[Events]
//Background and Video events
0,0,"BG.jpg",0,0
//Break Periods
2,125587,128031
//Storyboard Layer 0 (Background)
//Storyboard Layer 1 (Fail)
//Storyboard Layer 2 (Pass)
//Storyboard Layer 3 (Foreground)
//Storyboard Sound Samples
//Background Colour Transformations
3,100,163,162,255

[TimingPoints]
1496,324.324324324324,4,1,0,100,1,0
22252,-100,4,1,0,80,0,1
31495,-100,4,3,0,75,0,1
32144,-100,4,1,0,80,0,1
41874,-100,4,3,0,75,0,1
42523,-100,4,1,0,80,0,1
42685,-100,4,1,0,80,0,0
43009,-166.666666666667,4,2,0,80,0,0
43495,-100,4,2,0,80,0,0
52252,-100,4,3,0,75,0,0
52820,-100,4,2,0,80,0,0
53387,-142.857142857143,4,2,0,80,0,0
53712,-100,4,2,0,80,0,0
62631,-100,4,3,0,75,0,0
63441,-100,4,2,0,80,0,0
63766,-100,4,2,0,80,0,0
73009,-100,4,3,0,75,0,0
74144,-100,4,2,0,80,0,0
81928,-100,4,3,0,75,0,0
85577,-100,4,2,0,80,0,0
87117,-76.9230769230769,4,1,0,80,0,0
88252,-100,4,1,0,80,0,0
97495,-76.9230769230769,4,1,0,80,0,0
98631,-100,4,1,0,80,0,0
107874,-100,4,1,0,80,0,1
117117,-100,4,3,0,75,0,1
117685,-100,4,1,0,80,0,1
125468,-100,4,1,0,80,0,0
128631,-133.333333333333,4,2,0,70,0,0
129279,-100,4,2,0,70,0,0
133171,-133.333333333333,4,2,0,70,0,0
133820,-100,4,2,0,70,0,0
137712,-133.333333333333,4,2,0,70,0,0
137874,-100,4,3,0,80,0,0
139009,-133.333333333333,4,1,0,85,0,0
139495,-100,4,1,0,85,0,0

[Colours]
Combo1 : 0,236,0
Combo2 : 244,244,0
Combo3 : 18,124,255
Combo4 : 242,24,57

[HitObjects]
472,240,22252,5,4,0:0:0:0:
260,64,22577,1,8,0:0:0:0:
40,240,22901,1,2,0:0:0:0:
144,156,23063,1,0,0:0:0:0:
42,242,23225,1,8,0:0:0:0:
137,334,23387,2,0,B|196:360|240:320,1,110,0|2,0:0|0:0,0:0:0:0:
336,228,23712,1,0,0:0:0:0:
350,37,23874,6,0,P|252:83|205:180,1,220,8|2,0:0|0:0,0:0:0:0:
244,320,24360,1,0,0:0:0:0:
364,240,24523,2,0,L|452:164,1,110,8|0,0:0|0:0,0:0:0:0:
94,52,24847,1,2,0:0:0:0:
439,318,25171,1,8,0:0:0:0:
227,160,25495,1,2,0:0:0:0:
439,318,25658,1,0,0:0:0:0:
330,243,25820,1,8,0:0:0:0:
227,160,25982,2,0,B|175:185|175:185|161:289,2,110,0|2|0,0:0|0:0|0:0,0:0:0:0:
344,100,26468,2,0,B|395:74|395:74|405:-30,2,110,8|0|2,0:0|0:0|0:0,0:0:0:0:
226,76,26955,2,0,P|152:57|123:25,1,110,0|8,0:0|0:0,0:0:0:0:
232,256,27441,5,0,0:0:0:0:
56,104,27604,1,0,0:0:0:0:
180,280,27766,1,0,0:0:0:0:
108,80,27929,1,0,0:0:0:0:
272,212,28090,1,0,0:0:0:0:
159,53,28252,2,0,L|207:154,1,110,8|8,0:0|0:0,0:0:0:0:
180,280,28577,5,0,0:0:0:0:
110,80,28740,1,0,0:0:0:0:
273,212,28902,1,0,0:0:0:0:
56,104,29064,1,0,0:0:0:0:
233,256,29225,1,0,0:0:0:0:
159,53,29387,1,0,0:0:0:0:
232,256,29550,2,0,L|121:193,1,110,8|8,0:0|0:0,0:0:0:0:
449,321,30036,5,2,0:0:0:0:
63,63,30360,1,8,0:0:0:0:
448,63,30685,1,2,0:0:0:0:
57,326,31009,1,8,0:0:0:0:
256,192,31333,1,2,0:0:0:0:
356,108,31495,5,0,0:0:0:0:
356,108,31658,1,8,0:0:0:0:
356,108,31820,1,0,0:0:0:0:
356,108,31982,1,0,0:0:0:0:
356,108,32144,2,0,P|340:196|320:216,1,110,0|8,0:0|0:0,0:0:0:0:
51,67,32631,5,4,0:0:0:0:
461,317,32955,1,8,0:0:0:0:
247,161,33279,2,0,L|342:96,1,110,2|0,0:0|0:0,0:0:0:0:
470,88,33604,2,0,L|357:173,1,110,8|0,0:0|0:0,0:0:0:0:
230,281,33928,1,2,0:0:0:0:
357,313,34090,6,0,P|359:258|333:211,1,110,0|8,0:0|0:0,0:0:0:0:
172,98,34414,2,0,P|172:153|201:199,1,110,0|2,0:0|0:0,0:0:0:0:
295,291,34739,1,8,0:0:0:0:
112,215,34901,1,8,0:0:0:0:
474,193,35225,5,2,0:0:0:0:
34,192,35550,1,8,0:0:0:0:
452,57,35874,2,0,B|393:58|393:58|340:135,1,110,2|0,0:0|0:0,0:0:0:0:
314,222,36198,2,0,B|290:269|290:269|231:274,1,110,8|0,0:0|0:0,0:0:0:0:
107,230,36523,1,2,0:0:0:0:
52,110,36685,2,0,B|88:43|132:33|133:33,1,110,0|8,0:0|0:0,0:0:0:0:
130,166,37009,2,0,B|166:99|210:89|211:89,1,110,0|2,0:0|0:0,0:0:0:0:
207,222,37333,1,0,0:0:0:0:
312,142,37495,1,8,0:0:0:0:
220,344,37820,5,2,0:0:0:0:
378,297,37982,1,0,0:0:0:0:
397,133,38144,1,8,0:0:0:0:
379,296,38306,1,0,0:0:0:0:
220,344,38468,1,2,0:0:0:0:
72,256,38631,2,0,P|40:210|40:156,1,110,0|8,0:0|0:0,0:0:0:0:
168,88,38955,5,0,0:0:0:0:
312,16,39117,1,2,0:0:0:0:
312,160,39279,1,0,0:0:0:0:
216,16,39441,1,8,0:0:0:0:
356,84,39604,1,0,0:0:0:0:
208,160,39766,1,2,0:0:0:0:
100,228,39928,2,0,P|62:266|53:320,1,110,0|8,0:0|0:0,0:3:0:0:
446,59,40414,5,2,0:0:0:0:
56,266,40739,5,8,0:0:0:0:
481,157,41063,5,2,0:0:0:0:
41,165,41387,5,8,0:0:0:0:
470,264,41712,5,2,0:0:0:0:
340,237,41874,6,0,B|288:224|288:224|247:182,3,110,0|8|0|0,0:0|0:0|0:0|0:0,0:0:0:0:
149,64,42523,1,8,0:0:0:0:
149,64,42685,1,12,0:0:0:0:
372,180,43009,6,0,P|344:284|252:316,1,197.99999395752
267,316,43658,1,0,0:0:0:0:
124,284,43820,1,0,0:0:0:0:
72,156,43982,2,0,P|92:96|132:64,1,110
264,24,44306,1,0,0:0:0:0:
424,128,44468,5,0,0:0:0:0:
352,300,44631,2,0,P|289:307|240:288,1,110
240,92,44955,2,0,P|184:96|124:128,1,110
24,204,45279,1,0,0:0:0:0:
100,324,45441,1,0,0:0:0:0:
252,340,45604,2,0,P|349:295|393:194,1,220
364,36,46090,5,0,0:0:0:0:
184,32,46252,2,0,P|129:47|92:84,1,110
80,236,46577,2,0,P|127:227|184:192,1,110
288,100,46901,5,0,0:0:0:0:
440,48,47063,1,0,0:0:0:0:
492,232,47225,1,0,0:0:0:0:
296,320,47387,1,0,0:0:0:0:
92,272,47550,2,0,P|62:225|57:172,1,110
76,32,47874,6,0,P|136:14|184:20,1,110
328,68,48198,2,0,P|420:132|472:232,1,220
388,352,48685,2,0,P|336:356|280:336,1,110
156,272,49009,1,0,0:0:0:0:
72,128,49171,5,0,0:0:0:0:
253,46,49333,1,0,0:0:0:0:
364,211,49495,1,0,0:0:0:0:
196,106,49658,1,0,0:0:0:0:
380,36,49820,1,0,0:0:0:0:
485,200,49982,1,0,0:0:0:0:
340,332,50144,2,0,P|240:364|136:320,1,220
61,60,50793,5,0,0:0:0:0:
451,323,51117,5,0,0:0:0:0:
256,59,51441,5,0,0:0:0:0:
59,325,51766,5,0,0:0:0:0:
452,59,52090,5,0,0:0:0:0:
424,192,52252,2,0,B|404:242|334:251,3,110
196,276,52901,1,8,0:0:0:0:
56,292,53063,1,8,0:0:0:0:
145,77,53387,6,0,P|209:38|288:40,1,153.999995300293
232,120,53874,1,0,0:0:0:0:
400,64,54036,1,0,0:0:0:0:
232,120,54198,1,0,0:0:0:0:
86,202,54360,6,0,P|54:262|83:314,1,110
191,253,54685,2,0,P|240:224|292:232,1,110
361,339,55009,2,0,P|315:365|252:351,1,110
208,134,55333,2,0,P|152:124|92:144,1,110
24,312,55658,2,0,P|73:351|122:356,1,110
252,352,55982,1,0,0:0:0:0:
384,324,56144,5,0,0:0:0:0:
312,208,56306,1,0,0:0:0:0:
430,149,56468,1,0,0:0:0:0:
472,37,56631,2,0,P|421:25|364:35,1,110
225,72,56955,5,0,0:0:0:0:
39,139,57117,1,0,0:0:0:0:
224,206,57279,1,0,0:0:0:0:
40,278,57441,1,0,0:0:0:0:
225,206,57604,1,0,0:0:0:0:
39,139,57766,1,0,0:0:0:0:
225,72,57928,2,0,P|306:50|362:63,1,110
488,72,58252,1,0,0:0:0:0:
423,198,58414,2,0,L|365:294,1,110
361,293,58739,5,0,0:0:0:0:
355,295,58901,1,0,0:0:0:0:
212,319,59063,1,0,0:0:0:0:
80,256,59225,2,0,L|19:144,1,110
208,192,59550,2,0,L|260:96,1,110
84,132,59874,2,0,L|36:32,1,110
36,32,60198,5,0,0:0:0:0:
48,36,60360,1,0,0:0:0:0:
60,40,60523,1,0,0:0:0:0:
188,92,60685,1,0,0:0:0:0:
320,160,60847,1,0,0:0:0:0:
452,96,61009,1,0,0:0:0:0:
432,232,61171,6,0,P|382:255|327:258,1,110
212,200,61495,2,0,P|252:165|305:147,1,110
400,56,61820,2,0,P|352:25|298:17,1,110
168,24,62144,2,0,P|112:38|66:70,2,110
301,50,62631,1,0,0:0:0:0:
411,121,62793,1,0,0:0:0:0:
469,239,62955,1,0,0:0:0:0:
384,340,63117,5,0,0:0:0:0:
33,316,63441,1,0,0:0:0:0:
236,28,63766,2,0,P|396:83|423:234,1,330
344,328,64414,1,0,0:0:0:0:
212,320,64577,2,0,P|159:306|120:268,1,110
88,140,64901,5,0,0:0:0:0:
176,40,65063,1,0,0:0:0:0:
308,28,65225,2,0,P|404:80|448:192,1,220
316,160,65712,2,0,P|320:228|368:280,1,110
468,304,66036,1,0,0:0:0:0:
352,364,66198,1,0,0:0:0:0:
176,340,66360,6,0,B|53:280|49:162,1,220
80,44,66847,2,0,P|125:20|184:20,1,110
296,88,67171,2,0,P|241:87|192:112,1,110
80,184,67495,2,0,P|134:183|183:208,1,110
320,320,67820,6,0,P|442:302|467:223,1,220
400,108,68306,1,0,0:0:0:0:
284,44,68468,1,0,0:0:0:0:
152,24,68631,2,0,P|81:58|58:111,1,110
76,260,68955,2,0,P|192:232|248:152,1,220
377,133,69441,2,0,P|437:208|436:241,1,110
380,336,69766,5,0,0:0:0:0:
248,340,69928,2,0,P|193:344|145:317,1,110
44,176,70252,2,0,P|32:76|140:40,1,220
298,83,70739,2,0,P|338:114|382:275,1,220
291,364,71225,2,0,P|275:311|282:257,1,110
457,237,71550,2,0,P|449:129|375:50,1,220
263,119,72036,1,0,0:0:0:0:
177,20,72198,6,0,P|111:101|105:213,1,220
182,320,72685,2,0,P|250:330|290:314,1,110
395,240,73009,1,0,0:0:0:0:
488,148,73171,1,0,0:0:0:0:
395,240,73333,1,0,0:0:0:0:
420,112,73495,1,0,0:0:0:0:
395,240,73658,1,0,0:0:0:0:
344,120,73820,1,0,0:0:0:0:
230,52,73982,1,0,0:0:0:0:
100,25,74144,6,0,P|45:118|86:215,1,220
160,324,74631,2,0,P|248:294|270:246,1,110
324,172,74955,2,0,P|377:194|412:246,1,110
407,234,75279,5,0,0:0:0:0:
372,355,75441,1,0,0:0:0:0:
233,317,75604,2,0,P|154:245|150:136,1,220
264,44,76090,2,0,P|357:70|395:103,1,110
452,180,76414,2,0,P|468:254|439:310,1,110
344,352,76739,2,0,P|265:233|188:197,1,220
136,316,77225,5,0,0:0:0:0:
196,201,77387,1,0,0:0:0:0:
72,152,77550,2,0,B|114:94|158:86,1,110
282,44,77874,1,0,0:0:0:0:
411,68,78036,1,0,0:0:0:0:
482,178,78198,6,0,P|453:264|323:258,1,220
178,133,78685,2,0,P|135:193|138:241,1,110
194,343,79009,2,0,P|247:362|295:342,1,110
387,248,79333,1,0,0:0:0:0:
458,125,79495,2,0,P|485:81|484:19,2,110
342,199,79982,1,0,0:0:0:0:
213,226,80144,1,0,0:0:0:0:
103,152,80306,6,0,P|155:104|229:100,1,110
324,94,80631,1,0,0:0:0:0:
427,176,80793,2,0,P|481:229|506:285,2,110
297,149,81279,1,0,0:0:0:0:
173,195,81441,1,0,0:0:0:0:
136,322,81604,2,0,P|189:302|227:264,1,110
297,149,81928,1,4,0:0:0:0:
472,344,82577,5,0,0:0:0:0:
273,35,83225,1,0,0:0:0:0:
192,344,83874,1,0,0:0:0:0:
112,36,84523,1,0,0:0:0:0:
340,168,84847,5,0,0:0:0:0:
435,315,85009,1,0,0:0:0:0:
123,169,85333,1,0,0:0:0:0:
202,325,85495,2,0,L|218:354,12,27.5
19,148,86306,5,0,0:0:0:0:
95,247,86468,1,0,0:0:0:0:
201,324,86630,1,0,0:0:0:0:
332,309,86793,1,0,0:0:0:0:
446,243,86955,1,0,0:0:0:0:
423,87,87117,6,0,P|359:56|287:59,1,142.99999345398
50,162,87441,2,0,P|108:197|183:197,1,142.99999345398
438,174,87766,2,0,P|380:145|303:138,1,142.99999345398
65,254,88090,2,0,P|125:285|201:287,1,142.99999345398
344,240,88414,1,0,0:0:0:0:
401,106,88577,6,0,P|374:61|322:38,1,110
192,40,88901,1,0,0:0:0:0:
58,117,89063,1,0,0:0:0:0:
81,268,89225,1,0,0:0:0:0:
213,345,89387,1,0,0:0:0:0:
356,286,89550,1,0,0:0:0:0:
484,121,89712,6,0,L|447:229,1,110
358,339,90036,1,0,0:0:0:0:
291,229,90198,1,0,0:0:0:0:
133,286,90360,2,0,B|123:230|123:230|153:180,1,110
231,81,90685,1,0,0:0:0:0:
400,40,90847,2,0,L|332:128,1,110
241,218,91171,5,0,0:0:0:0:
133,286,91333,1,0,0:0:0:0:
36,216,91495,1,0,0:0:0:0:
119,48,91658,2,0,P|230:28|333:64,1,220
481,149,92144,2,0,P|445:205|367:226,1,110
272,191,92468,1,0,0:0:0:0:
152,248,92631,1,0,0:0:0:0:
239,342,92793,1,0,0:0:0:0:
448,298,92955,6,0,P|494:203|445:109,1,220
279,50,93441,2,0,P|225:50|178:78,1,110
88,174,93766,2,0,L|15:276,2,110
171,71,94252,1,0,0:0:0:0:
198,199,94414,1,0,0:0:0:0:
306,123,94577,1,0,0:0:0:0:
321,253,94739,1,0,0:0:0:0:
432,181,94901,2,0,P|426:290|304:324,1,220
203,330,95387,5,0,0:0:0:0:
88,262,95550,1,0,0:0:0:0:
24,146,95712,1,0,0:0:0:0:
55,17,95874,2,0,P|139:58|152:83,1,110
94,190,96198,2,0,P|175:228|230:215,1,110
325,217,96523,1,0,0:0:0:0:
439,150,96685,5,0,0:0:0:0:
383,30,96847,1,0,0:0:0:0:
251,22,97009,1,0,0:0:0:0:
120,43,97171,1,0,0:0:0:0:
29,138,97333,1,0,0:0:0:0:
118,304,97495,6,0,P|182:336|265:326,1,142.99999345398
492,237,97820,2,0,P|430:195|350:189,1,142.99999345398
106,204,98144,2,0,P|168:242|250:238,1,142.99999345398
469,136,98468,2,0,P|416:87|336:67,1,142.99999345398
215,44,98793,1,0,0:0:0:0:
84,43,98955,6,0,P|46:78|52:132,1,110
122,243,99279,1,0,0:0:0:0:
226,323,99441,1,0,0:0:0:0:
358,324,99604,1,0,0:0:0:0:
456,235,99766,1,0,0:0:0:0:
468,103,99928,6,0,P|437:56|375:43,1,110
248,58,100252,1,0,0:0:0:0:
399,185,100414,1,0,0:0:0:0:
165,295,100577,1,0,0:0:0:0:
439,367,100739,1,0,0:0:0:0:
48,312,101063,5,0,0:0:0:0:
440,260,101387,5,0,0:0:0:0:
48,208,101712,5,0,0:0:0:0:
440,152,102036,5,0,0:0:0:0:
48,104,102360,5,0,0:0:0:0:
440,48,102685,5,0,0:0:0:0:
308,54,102847,2,0,P|255:73|224:121,1,110
185,241,103171,1,0,0:0:0:0:
271,340,103333,2,0,P|353:322|378:290,1,110
402,170,103658,2,0,P|360:227|310:237,1,110
185,241,103982,1,0,0:0:0:0:
93,146,104144,6,0,L|20:61,2,110
185,241,104631,1,0,0:0:0:0:
271,340,104793,1,0,0:0:0:0:
404,340,104955,1,0,0:0:0:0:
488,239,105117,1,0,0:0:0:0:
468,108,105279,6,0,P|412:52|328:32,1,165
264,36,105604,2,0,P|207:48|156:82,1,110
52,148,105928,2,0,P|16:220|56:288,1,165
108,324,106252,2,0,P|152:348|216:348,1,110
348,320,106577,2,0,P|416:276|428:196,1,165
416,132,106901,1,0,0:0:0:0:
287,159,107063,2,0,P|163:196|87:153,1,220
21,45,107550,2,0,P|100:29|183:49,1,165
208,59,107874,5,6,0:0:0:0:
452,160,108198,1,8,0:0:0:0:
222,292,108523,1,2,0:0:0:0:
452,160,108685,1,0,0:0:0:0:
339,229,108847,1,8,0:0:0:0:
222,292,109009,6,0,P|168:285|131:247,1,110,0|2,0:0|0:0,0:0:0:0:
121,113,109333,1,0,0:0:0:0:
218,24,109495,2,0,P|321:39|394:122,1,220,8|2,0:0|0:0,0:0:0:0:
432,252,109982,1,0,0:0:0:0:
351,359,110144,2,0,L|309:254,1,110,8|0,0:0|0:0,0:0:0:0:
253,71,110468,5,2,0:0:0:0:
72,264,110793,1,8,0:0:0:0:
253,72,111117,1,2,0:0:0:0:
347,163,111279,1,0,0:0:0:0:
438,257,111441,2,0,P|408:291|348:307,1,110,8|0,0:0|0:0,0:0:0:0:
217,264,111766,2,0,P|253:215|314:204,1,110,2|0,0:0|0:0,0:0:0:0:
406,127,112090,2,0,P|376:76|316:63,1,110,8|0,0:0|0:0,0:0:0:0:
200,64,112414,1,2,0:0:0:0:
88,132,112577,2,0,P|91:186|129:228,1,110,0|8,0:0|0:0,0:0:0:0:
459,340,113063,5,2,0:0:0:0:
405,173,113225,1,0,0:0:0:0:
262,70,113387,1,8,0:0:0:0:
316,237,113549,1,0,0:0:0:0:
172,340,113712,1,2,0:0:0:0:
118,173,113874,2,0,P|130:111|166:80,1,110,0|8,0:0|0:0,0:0:0:0:
338,60,114198,5,0,0:0:0:0:
461,184,114360,1,2,0:0:0:0:
284,173,114523,1,0,0:0:0:0:
408,48,114685,1,8,0:0:0:0:
401,223,114847,1,0,0:0:0:0:
275,99,115009,1,2,0:0:0:0:
159,35,115171,2,0,P|105:49|69:98,1,110,0|8,0:0|0:0,0:0:0:0:
256,344,115658,5,2,0:0:0:0:
472,192,115982,1,8,0:0:0:0:
256,40,116306,1,2,0:0:0:0:
40,192,116631,1,8,0:0:0:0:
256,344,116955,1,2,0:0:0:0:
391,117,117117,6,0,P|343:93|296:118,3,110,0|8|0|2,0:0|0:0|0:0|0:0,0:0:0:0:
267,246,117766,1,0,0:0:0:0:
152,181,117928,1,8,0:0:0:0:
456,55,118252,5,6,0:0:0:0:
207,214,118577,1,8,0:0:0:0:
455,303,118901,6,0,P|441:248|401:214,1,110,2|0,0:0|0:0,0:0:0:0:
289,145,119225,2,0,P|289:204|324:242,1,110,8|0,0:0|0:0,0:0:0:0:
456,193,119550,1,2,0:0:0:0:
376,87,119712,2,0,P|329:58|273:59,1,110,0|8,0:0|0:0,0:0:0:0:
153,109,120036,2,0,P|110:151|93:203,1,110,0|2,0:0|0:0,0:0:0:0:
90,329,120360,1,0,0:0:0:0:
186,237,120523,1,8,0:0:0:0:
460,48,120847,5,2,0:0:0:0:
256,216,121171,1,8,0:0:0:0:
52,48,121495,1,2,0:0:0:0:
156,132,121658,1,0,0:0:0:0:
256,216,121820,1,8,0:0:0:0:
378,263,121982,6,0,P|427:237|441:184,1,110,0|2,0:0|0:0,0:0:0:0:
388,63,122306,1,0,0:0:0:0:
259,28,122468,2,0,P|160:79|120:176,1,220,8|2,0:0|0:0,0:0:0:0:
156,304,122955,1,0,0:0:0:0:
276,360,123117,2,0,P|326:348|372:312,1,110,8|0,0:0|0:0,0:0:0:0:
460,216,123441,5,2,0:0:0:0:
400,52,123604,1,0,0:0:0:0:
340,216,123766,1,8,0:0:0:0:
488,120,123928,1,0,0:0:0:0:
312,120,124090,1,2,0:0:0:0:
177,138,124252,2,0,P|122:170|82:216,1,110,0|8,0:0|0:0,0:0:0:0:
116,344,124577,5,0,0:0:0:0:
248,200,124739,1,2,0:0:0:0:
396,288,124901,1,0,0:0:0:0:
248,128,125063,1,8,0:0:0:0:
72,200,125225,1,0,0:0:0:0:
248,60,125387,1,2,0:0:0:0:
424,56,128631,6,0,P|252:72|144:180,1,330
240,360,129604,6,0,P|292:361|352:316,1,110
388,256,129928,1,0,0:0:0:0:
400,168,130090,1,0,0:0:0:0:
348,96,130252,1,0,0:0:0:0:
208,52,130414,6,0,P|168:92|152:152,1,110
176,336,130901,1,0,0:0:0:0:
292,156,131225,1,0,0:0:0:0:
424,244,132198,5,0,0:0:0:0:
376,172,132360,1,0,0:0:0:0:
296,132,132523,1,0,0:0:0:0:
120,144,132685,6,0,P|136:196|188:240,1,110
284,288,133009,1,0,0:0:0:0:
372,328,133171,2,0,P|276:332|196:300,2,165.000006294251,0|0|0,0:0|0:0|0:0,0:0:0:0:
488,88,134793,5,0,0:0:0:0:
424,148,134955,1,0,0:0:0:0:
356,204,135117,2,0,P|292:220|244:200,1,110
176,108,135441,2,0,P|232:92|284:104,1,110
281,102,135766,1,0,0:0:0:0:
464,336,136414,5,0,0:0:0:0:
280,144,136739,1,0,0:0:0:0:
80,336,137063,1,0,0:0:0:0:
172,116,137387,1,0,0:0:0:0:
472,32,137712,1,0,0:0:0:0:
368,112,137874,5,0,0:0:0:0:
335,136,138036,1,0,0:0:0:0:
294,162,138198,1,0,0:0:0:0:
254,188,138360,1,0,0:0:0:0:
213,214,138523,1,0,0:0:0:0:
173,240,138685,1,0,0:0:0:0:
140,260,138847,1,0,0:0:0:0:
104,248,139009,6,0,P|71:166|102:88,1,165.000006294251,4|0,0:0|0:0,0:0:0:0:
94,96,139495,1,0,0:0:0:0:
94,96,139658,1,0,0:0:0:0:
139,311,139820,6,0,P|204:350|253:348,1,110
386,303,140144,1,0,0:0:0:0:
460,177,140306,1,0,0:0:0:0:
368,48,140468,1,0,0:0:0:0:
241,150,140631,1,0,0:0:0:0:
128,48,140793,1,0,0:0:0:0:
52,239,140955,2,0,P|56:296|89:337,1,110
274,354,141279,2,0,P|347:314|364:282,1,110
361,117,141604,2,0,P|291:50|173:51,1,220,0|0,0:0|0:0,0:0:0:0:
61,142,142090,5,0,0:0:0:0:
163,242,142252,2,0,L|247:316,1,110
245,314,142577,1,0,0:0:0:0:
256,163,142739,1,0,0:0:0:0:
256,31,142901,1,0,0:0:0:0:
128,122,143063,1,0,0:0:0:0:
256,31,143225,1,0,0:0:0:0:
387,122,143387,1,0,0:0:0:0:
472,252,143550,6,0,P|451:303|382:326,1,110
266,267,143874,1,0,0:0:0:0:
135,338,144036,2,0,P|78:313|52:257,2,110,0|0|0,0:0|0:0|0:0,0:0:0:0:
241,339,144523,1,0,0:0:0:0:
366,325,144685,1,0,0:0:0:0:
339,177,144847,6,0,P|354:122|390:85,1,110
188,19,145171,2,0,P|134:36|110:83,1,110
293,245,145495,2,0,P|277:190|241:153,1,110
