osu file format v13

[General]
AudioFilename: Reason.mp3
AudioLeadIn: 1500
PreviewTime: 16113
Countdown: 0
SampleSet: Soft
StackLeniency: 0.7
Mode: 0
LetterboxInBreaks: 0
WidescreenStoryboard: 0

[Editor]
DistanceSpacing: 1
BeatDivisor: 4
GridSize: 4
TimelineZoom: 2.4

[Metadata]
Title:REASON
TitleUnicode:REASON
Artist:YUZU
ArtistUnicode:ゆず
Creator:Trust
Version:Normal
Source:HUNTER×HUNTER
Tags:hxh ハンター×ハンター 2011 nippon animation 日本アニメーション gon freecss killua zoldyck biscuit krueger greed island ending emmy chewin tv size HUNTERxHUNTER
BeatmapID:403332
BeatmapSetID:163012

[Difficulty]
HPDrainRate:4
CircleSize:3.8
OverallDifficulty:4
ApproachRate:5
SliderMultiplier:1.4
SliderTickRate:1

[Events]
//Background and Video events
0,0,"bg.jpg",0,0
Video,16120,"REASON.avi"
//Break Periods
//Storyboard Layer 0 (Background)
//Storyboard Layer 1 (Fail)
//Storyboard Layer 2 (Pass)
//Storyboard Layer 3 (Foreground)
//Storyboard Sound Samples
//Background Colour Transformations
3,100,163,162,255

[TimingPoints]
690,483.870967741935,4,2,1,65,1,0
1173,-100,4,2,1,45,0,0
1415,-100,4,2,1,65,0,0
5044,-100,4,2,1,45,0,0
5286,-100,4,2,1,65,0,0
8915,-100,4,2,1,45,0,0
9157,-100,4,2,1,65,0,0
16173,-100,4,2,0,80,0,0
38673,-100,4,2,1,80,0,0
39399,-100,4,2,0,80,0,0
68431,-100,4,2,0,90,0,1
81738,-100,4,2,0,90,0,0
81980,-100,4,2,0,90,0,1
82101,-100,4,2,0,90,0,0
82948,-100,4,2,0,90,0,1
83069,-100,4,2,0,90,0,0
84399,-100,4,2,0,45,0,0
84883,-100,4,2,0,30,0,0
85367,-100,4,2,0,15,0,0
85609,-100,4,2,0,5,0,0

[Colours]
Combo1 : 247,241,200
Combo2 : 251,140,134
Combo3 : 183,238,149

[HitObjects]
16,200,690,6,0,P|80:172|140:216,1,140,2|8,0:0|0:0,0:0:0:0:
164,272,1415,2,0,L|304:300,1,140,2|0,0:0|0:0,0:0:0:0:
372,312,2141,1,2,0:0:0:0:
452,196,2625,2,0,P|480:108|408:-12,2,210,2|2|0,0:0|0:0|0:0,0:0:0:0:
340,112,4560,6,0,P|268:88|200:132,1,140,2|8,0:0|0:0,0:0:0:0:
172,172,5286,2,0,P|156:156|184:48,1,140,2|0,0:0|0:0,0:0:0:0:
240,20,6012,1,0,0:0:0:0:
312,140,6496,2,0,P|392:160|480:76,2,210,2|2|0,0:0|0:0|0:0,0:0:0:0:
240,20,8431,6,0,P|156:40|120:88,1,140,2|8,0:0|0:0,0:0:0:0:
151,148,9157,2,0,P|165:214|147:281,1,140,2|0,0:0|0:0,0:0:0:0:
100,336,9883,1,0,0:0:0:0:
31,211,10367,2,0,P|21:110|84:29,2,210,2|2|2,0:0|0:0|0:0,0:0:0:0:
148,288,12302,6,0,B|208:324|208:324|284:280|348:332,2,210,2|2|2,0:0|0:0|0:0,0:0:0:0:
32,212,14238,2,0,P|8:112|156:92,1,280,2|0,0:0|0:0,0:0:0:0:
180,348,16173,6,0,P|89:339|28:291,1,140,4|8,0:0|0:0,0:0:0:0:
76,176,17141,2,0,P|167:185|228:233,1,140,0|8,0:0|0:0,0:0:0:0:
256,264,17867,1,0,0:0:0:0:
305,210,18109,2,0,P|366:177|436:176,1,140,2|10,0:0|0:0,0:0:0:0:
462,313,19077,2,0,P|401:346|332:348,1,140,0|10,0:0|0:0,0:0:0:0:
268,312,19802,1,0,0:0:0:0:
232,248,20044,6,0,P|176:204|96:200,2,140,4|8|0,0:0|0:0|0:0,0:0:0:0:
124,336,21496,1,8,0:0:0:0:
44,224,21980,2,0,P|58:148|139:133,2,140,2|8|6,0:0|0:0|0:0,0:0:0:0:
124,336,23431,1,8,0:0:0:0:
196,216,23915,6,0,P|260:188|340:204,1,140,4|8,0:0|0:0,0:0:0:0:
440,280,24883,2,0,P|468:216|452:136,1,140,0|10,0:0|0:0,0:0:0:0:
416,88,25609,1,2,0:0:0:0:
352,124,25851,2,0,B|280:136|280:136|196:100,2,140,2|10|2,0:0|0:0|0:0,0:0:0:0:
416,160,27060,2,0,L|488:200,2,70,0|8|0,0:0|0:0|0:0,0:0:0:0:
353,199,27786,6,0,L|189:227,1,140,4|8,0:0|0:0,0:0:0:0:
120,120,28754,2,0,L|284:92,1,140,0|8,0:0|0:0,0:0:0:0:
330,80,29480,1,2,0:0:0:0:
392,120,29722,2,0,P|481:81|495:52,2,105,2|2|2,0:0|0:0|0:0,0:0:0:0:
330,80,30689,1,4,0:0:0:0:
280,212,31173,1,8,0:0:0:0:
184,108,31657,6,0,P|144:172|148:256,2,140,2|2|0,0:0|0:0|0:0,0:0:0:0:
256,92,32867,2,0,L|348:76,2,70,2|2|8,0:0|0:0|0:0,0:0:0:0:
235,163,33593,2,0,P|251:233|325:266,2,140,4|0|0,0:0|0:0|0:0,0:0:0:0:
256,92,34802,2,0,P|252:40|240:16,2,70,2|2|0,0:0|0:0|0:0,0:0:0:0:
183,108,35528,6,0,P|115:112|62:157,1,140,4|0,0:0|0:0,0:0:0:0:
52,229,36254,1,2,0:0:0:0:
63,300,36496,2,0,P|115:344|184:349,1,140,0|0,0:0|0:0,0:0:0:0:
251,318,37222,1,2,0:0:0:0:
316,288,37464,2,0,P|367:295|404:340,2,105,4|2|2,0:0|0:0|0:0,0:0:0:0:
177,311,38673,2,0,L|83:335,2,70
251,318,39399,6,0,P|328:326|393:272,1,140,6|8,0:0|0:0,0:0:0:0:
420,160,40367,2,0,P|343:152|278:206,1,140,2|8,0:0|0:0,0:0:0:0:
252,244,41093,1,0,0:0:0:0:
184,220,41335,2,0,P|144:176|152:80,2,140,4|8|2,0:0|0:0|0:0,0:0:0:0:
324,240,42786,1,8,0:0:0:0:
420,136,43270,6,0,P|421:67|378:14,1,140,6|8,0:0|0:0,0:0:0:0:
284,120,44238,2,0,P|212:136|140:104,1,140,2|8,0:0|0:0,0:0:0:0:
92,72,44964,1,0,0:0:0:0:
84,144,45206,2,0,L|63:300,1,140,6|8,0:0|0:0,0:0:0:0:
195,230,46173,2,0,L|216:74,1,140,2|8,0:0|0:0,0:0:0:0:
223,19,46899,1,0,0:0:0:0:
282,62,47141,6,0,P|359:70|412:10,2,140,4|8|0,0:0|0:0|1:0,0:0:0:0:
149,12,48593,1,8,0:0:0:0:
136,151,49077,2,0,P|87:201|10:196,2,140,4|8|8,0:0|0:0|0:0,0:0:0:0:
184,96,50286,2,0,P|208:148|204:176,2,70,2|8|2,0:0|0:0|0:0,0:0:0:0:
185,287,52948,6,0,B|256:264|256:312|328:288,1,140,2|8,0:0|0:0,0:0:0:0:
450,217,53915,2,0,P|468:283|449:352,1,140,2|8,0:0|0:0,0:0:0:0:
322,290,54883,2,0,P|304:222|322:155,1,140,2|8,0:0|0:0,0:0:0:0:
448,93,55851,2,0,P|403:40|337:22,1,140,2|8,0:0|0:0,0:0:0:0:
275,62,56577,1,0,0:0:0:0:
251,132,56819,6,0,P|210:163|122:162,1,140,2|8,0:0|0:0,0:0:0:0:
20,74,57786,2,0,L|59:208,1,140,2|8,0:0|0:0,0:0:0:0:
127,237,58512,1,2,0:0:0:0:
194,208,58754,2,0,P|261:189|328:207,2,140,2|8|2,0:0|0:0|0:0,0:0:0:0:
68,264,60206,1,8,0:0:0:0:
37,194,60448,1,0,0:0:0:0:
68,124,60689,6,0,B|116:100|172:120|172:120|216:92,1,140,2|8,0:0|0:0,0:0:0:0:
260,60,61415,2,0,P|300:52|336:64,2,70,0|2|0,0:0|0:0|0:0,0:0:0:0:
200,102,62141,1,8,0:0:0:0:
302,197,62625,5,4,0:0:0:0:
435,149,63109,1,4,0:0:0:0:
328,59,63593,1,4,0:0:0:0:
302,197,64077,1,4,0:0:0:0:
200,102,64560,6,0,P|146:86|88:168,1,140,2|0,0:0|0:0,0:0:0:0:
80,276,65528,2,0,P|24:264|4:244,2,70,2|2|2,0:0|0:0|0:0,0:0:0:0:
150,256,66254,1,2,0:0:0:0:
258,273,68431,6,0,P|172:243|122:291,1,140,4|8,0:0|0:0,0:0:0:0:
125,338,69157,1,0,0:0:0:0:
195,317,69399,2,0,L|213:171,1,140,2|8,0:0|0:0,0:0:0:0:
344,128,70367,2,0,L|326:274,1,140,4|8,0:0|0:0,0:0:0:0:
256,288,71093,1,2,0:0:0:0:
200,240,71335,2,0,P|172:197|88:168,1,140,2|8,0:0|0:0,0:0:0:0:
32,296,72302,6,0,P|59:338|143:367,1,140,4|8,0:0|0:0,0:0:0:0:
211,346,73028,1,2,0:0:0:0:
256,288,73270,2,0,B|289:251|263:194|263:194|300:144,1,140,2|8,0:0|0:0,0:0:0:0:
336,108,73996,1,2,0:0:0:0:
400,144,74238,2,0,P|456:124|468:48,2,140,2|10|2,0:0|0:0|0:0,0:0:0:0:
284,68,75689,1,10,0:0:0:0:
144,76,76173,6,0,P|92:105|93:182,2,140,4|8|2,0:0|0:0|0:0,0:0:0:0:
256,160,77625,1,8,0:0:0:0:
256,300,78109,2,0,P|324:336|340:332,2,70,4|0|4,0:0|0:0|0:0,0:0:0:0:
256,160,79077,2,0,P|188:124|172:128,2,70,4|0|4,0:0|0:0|0:0,0:0:0:0:
313,204,79802,1,2,0:0:0:0:
371,160,80044,6,0,P|437:160|476:224,1,140,4|8,0:0|0:0,0:0:0:0:
447,283,80770,1,2,0:0:0:0:
404,224,81012,2,0,L|336:88,1,140,0|8,0:0|0:0,0:0:0:0:
212,44,81980,6,0,P|132:52|84:112,1,140,4|0,0:0|0:0,0:0:0:0:
68,160,82706,1,2,0:0:0:0:
92,228,82948,2,0,P|104:288|80:340,2,105,4|4|4,0:0|0:0|0:0,0:0:0:0:
256,192,83915,12,0,85851,0:0:0:0:
