osu file format v13

[General]
AudioFilename: 01 (TV size).mp3
AudioLeadIn: 3000
PreviewTime: 54090
Countdown: 0
SampleSet: Soft
StackLeniency: 0.7
Mode: 3
LetterboxInBreaks: 0
SpecialStyle: 0
WidescreenStoryboard: 1

[Editor]
DistanceSpacing: 0.9
BeatDivisor: 4
GridSize: 4
TimelineZoom: 1.9

[Metadata]
Title:Hyori Ittai
TitleUnicode:表裏一体
Artist:YUZU
ArtistUnicode:ゆず
Creator:ArcherLove
Version:Lv.4
Source:HUNTER X HUNTER
Tags:Neferpitou ending 5 Exusagi Miyamoto Usagi Ajeemaniz 2011 the last mission hxh ハンター×ハンター nippon animation 日本アニメーションchimera ant TV Size
BeatmapID:448354
BeatmapSetID:188056

[Difficulty]
HPDrainRate:7
CircleSize:7
OverallDifficulty:7
ApproachRate:5
SliderMultiplier:1.4
SliderTickRate:1

[Events]
//Background and Video events
0,0,"neferpitou.jpg",0,0
//Break Periods
//Storyboard Layer 0 (Background)
//Storyboard Layer 1 (Fail)
//Storyboard Layer 2 (Pass)
//Storyboard Layer 3 (Foreground)
//Storyboard Sound Samples

[TimingPoints]
290,400,4,2,1,50,1,0
290,-100,4,2,1,15,0,0
13090,-100,4,2,1,50,0,0
38690,-100,4,2,1,30,0,0
54676,375,4,2,1,50,1,0
55051,-100,4,2,1,50,0,1
66676,-100,4,2,1,50,0,0
67144,-100,4,2,1,50,0,1
78488,-100,4,2,1,50,0,0
83176,-100,4,2,1,50,0,1
83269,-100,4,2,1,50,0,0

[Colours]
Combo1 : 242,121,97
Combo2 : 255,213,128

[HitObjects]
109,192,290,5,0,0:0:0:0:
402,192,890,1,2,0:0:0:0:
36,192,1290,1,0,0:0:0:0:
182,192,1490,1,0,0:0:0:0:
329,192,1690,1,0,0:0:0:0:
402,192,1890,1,2,0:0:0:0:
109,192,2490,1,2,0:0:0:0:
402,192,3090,128,0,3490:0:0:0:0:
182,192,3490,1,2,0:0:0:0:
36,192,4090,1,2,0:0:0:0:
109,192,4490,1,0,0:0:0:0:
256,192,4690,1,0,0:0:0:0:
402,192,4890,1,0,0:0:0:0:
475,192,5090,1,2,0:0:0:0:
402,192,5690,1,2,0:0:0:0:
182,192,6290,1,0,0:0:0:0:
36,192,6690,128,2,7290:0:0:0:0:
475,192,7290,1,2,0:0:0:0:
329,192,7690,1,0,0:0:0:0:
182,192,7890,1,0,0:0:0:0:
402,192,8090,1,0,0:0:0:0:
109,192,8290,128,2,8890:0:0:0:0:
402,192,8890,128,2,9490:0:0:0:0:
109,192,9490,1,0,0:0:0:0:
475,192,9890,1,2,0:0:0:0:
182,192,10490,1,2,0:0:0:0:
402,192,11090,1,2,0:0:0:0:
109,192,11490,128,2,12090:0:0:0:0:
36,192,12090,128,0,12690:0:0:0:0:
256,192,12690,128,0,13090:0:0:0:0:
109,192,13090,1,4,0:0:0:0:
402,192,13490,1,0,1:0:0:0:
36,192,13890,1,0,0:0:0:0:
475,192,14290,1,0,1:0:0:0:
329,192,14690,1,0,0:0:0:0:
182,192,15090,1,0,1:0:0:0:
402,192,15490,1,0,0:0:0:0:
109,192,15890,1,0,1:0:0:0:
256,192,16290,1,0,0:0:0:0:
475,192,16690,1,0,1:0:0:0:
182,192,17090,1,0,0:0:0:0:
402,192,17490,1,0,1:0:0:0:
36,192,17890,1,0,0:0:0:0:
256,192,18290,1,0,1:0:0:0:
475,192,18690,1,0,0:0:0:0:
182,192,19090,1,0,1:0:0:0:
329,192,19290,1,2,0:0:0:0:
475,192,19490,1,0,0:0:0:0:
36,192,19890,1,0,1:0:0:0:
256,192,20290,1,0,0:0:0:0:
475,192,20690,1,0,1:0:0:0:
109,192,21090,1,0,0:0:0:0:
402,192,21490,1,0,1:0:0:0:
256,192,21890,1,0,0:0:0:0:
36,192,22290,1,0,1:0:0:0:
329,192,22690,1,0,0:0:0:0:
182,192,23090,1,0,1:0:0:0:
475,192,23490,1,0,0:0:0:0:
256,192,23890,1,0,1:0:0:0:
109,192,24290,1,0,0:0:0:0:
329,192,24690,1,0,1:0:0:0:
475,192,25090,1,0,0:0:0:0:
36,192,25490,1,0,1:0:0:0:
182,192,25690,1,0,1:0:0:0:
329,192,25890,1,4,0:0:0:0:
475,192,26290,1,0,1:0:0:0:
182,192,26690,1,0,0:0:0:0:
402,192,27090,1,0,1:0:0:0:
109,192,27490,1,0,0:0:0:0:
329,192,27890,1,0,1:0:0:0:
475,192,28290,1,0,0:0:0:0:
182,192,28690,1,0,1:0:0:0:
402,192,29090,1,0,0:0:0:0:
109,192,29290,1,0,1:0:0:0:
329,192,29490,1,0,1:0:0:0:
475,192,29690,128,4,30290:0:0:0:0:
182,192,30290,128,4,30690:0:0:0:0:
36,192,30690,1,0,0:0:0:0:
256,192,30890,1,8,3:0:0:0:
402,192,31090,1,0,1:0:0:0:
329,192,31290,1,0,1:0:0:0:
256,192,31490,1,0,1:0:0:0:
109,192,31890,1,0,1:0:0:0:
36,192,32290,1,4,1:0:0:0:
256,192,32690,1,0,1:0:0:0:
109,192,33090,1,0,0:0:0:0:
402,192,33490,1,0,1:0:0:0:
256,192,33890,1,0,0:0:0:0:
475,192,34290,1,0,1:0:0:0:
182,192,34690,1,0,0:0:0:0:
329,192,35090,1,0,1:0:0:0:
475,192,35490,1,0,0:0:0:0:
182,192,35890,1,0,1:0:0:0:
329,192,36290,1,0,0:0:0:0:
36,192,36690,1,0,1:0:0:0:
182,192,37090,1,0,0:0:0:0:
402,192,37490,1,0,1:0:0:0:
256,192,37890,1,0,0:0:0:0:
402,192,38290,1,0,1:0:0:0:
109,192,38690,128,0,39490:0:0:0:0:
402,192,39490,1,0,0:0:0:0:
402,192,39890,1,0,0:0:0:0:
182,192,40290,128,0,41090:0:0:0:0:
329,192,41090,1,0,0:0:0:0:
329,192,41490,1,0,0:0:0:0:
402,192,41890,128,0,42690:0:0:0:0:
182,192,42690,1,0,0:0:0:0:
182,192,43090,1,0,0:0:0:0:
329,192,43490,128,0,44290:0:0:0:0:
109,192,44290,1,0,0:0:0:0:
109,192,44690,1,0,0:0:0:0:
36,192,45090,128,0,45890:0:0:0:0:
402,192,45890,1,0,0:0:0:0:
402,192,46290,1,0,0:0:0:0:
475,192,46690,128,0,47490:0:0:0:0:
109,192,47490,1,0,0:0:0:0:
109,192,47890,1,0,0:0:0:0:
256,192,48290,128,0,49090:0:0:0:0:
109,192,49090,1,0,0:0:0:0:
402,192,49490,1,0,0:0:0:0:
256,192,49890,128,0,50690:0:0:0:0:
402,192,50690,1,0,0:0:0:0:
109,192,51090,1,0,0:0:0:0:
256,192,51490,128,0,53090:0:0:0:0:
402,192,53090,1,0,0:0:0:0:
182,192,55051,1,4,0:0:0:0:
329,192,55051,1,4,0:0:0:0:
109,192,55426,1,0,0:0:0:0:
256,192,55801,1,0,1:0:0:0:
402,192,56176,1,0,0:0:0:0:
475,192,56551,1,0,1:0:0:0:
256,192,56926,1,0,0:0:0:0:
109,192,57301,1,0,1:0:0:0:
36,192,57676,1,0,0:0:0:0:
256,192,58051,1,0,1:0:0:0:
402,192,58426,1,0,0:0:0:0:
182,192,58801,1,0,1:0:0:0:
475,192,59176,1,0,0:0:0:0:
256,192,59551,1,0,1:0:0:0:
36,192,59926,1,0,0:0:0:0:
329,192,60301,1,0,1:0:0:0:
475,192,60676,1,0,0:0:0:0:
329,192,61051,1,0,1:0:0:0:
402,192,61426,1,0,0:0:0:0:
109,192,61801,1,0,1:0:0:0:
256,192,62176,1,0,0:0:0:0:
475,192,62551,1,0,1:0:0:0:
256,192,62926,1,0,0:0:0:0:
109,192,63301,1,0,1:0:0:0:
402,192,63676,128,0,64426:0:0:0:0:
182,192,64051,1,0,1:0:0:0:
36,192,64426,1,0,0:0:0:0:
256,192,64801,1,0,1:0:0:0:
109,192,65176,1,0,0:0:0:0:
402,192,65551,128,0,65738:1:0:0:0:
182,192,65738,1,4,0:0:0:0:
329,192,66113,1,8,3:0:0:0:
475,192,66301,1,0,0:0:0:0:
182,192,66676,128,4,67051:0:0:0:0:
402,192,67051,1,4,0:0:0:0:
475,192,67051,1,4,0:0:0:0:
109,192,67426,1,0,0:0:0:0:
329,192,67801,1,0,1:0:0:0:
182,192,68176,1,0,0:0:0:0:
475,192,68551,1,0,1:0:0:0:
182,192,68926,1,0,0:0:0:0:
36,192,69301,1,0,1:0:0:0:
329,192,69676,1,0,0:0:0:0:
475,192,70051,1,0,1:0:0:0:
329,192,70426,1,0,0:0:0:0:
182,192,70801,1,0,1:0:0:0:
256,192,71176,128,0,71551:0:0:0:0:
402,192,71551,1,0,0:0:0:0:
329,192,71926,1,0,0:0:0:0:
182,192,72301,1,0,1:0:0:0:
109,192,72676,128,0,73051:0:0:0:0:
402,192,73051,1,0,1:0:0:0:
256,192,73426,1,0,0:0:0:0:
475,192,73801,1,0,1:0:0:0:
329,192,74176,128,0,74551:0:0:0:0:
182,192,74551,1,0,1:0:0:0:
109,192,74926,1,0,0:0:0:0:
36,192,75301,1,0,1:0:0:0:
256,192,75676,1,0,0:0:0:0:
475,192,76051,1,0,1:0:0:0:
109,192,76426,1,0,0:0:0:0:
402,192,76801,1,0,1:0:0:0:
475,192,77176,1,0,0:0:0:0:
256,192,77551,1,0,1:0:0:0:
109,192,77926,1,0,0:0:0:0:
256,192,78301,128,0,78676:0:0:0:0:
402,192,78676,1,0,0:0:0:0:
182,192,79051,128,0,80176:0:0:0:0:
329,192,79051,1,0,0:0:0:0:
329,192,80551,128,0,81676:0:0:0:0:
109,192,80551,1,0,0:0:0:0:
109,192,83176,1,4,0:0:0:0:
402,192,83176,1,4,0:0:0:0:
256,192,83551,1,0,1:0:0:0:
36,192,83926,1,0,0:0:0:0:
256,192,84301,1,0,1:0:0:0:
475,192,84676,1,0,0:0:0:0:
256,192,85051,1,0,1:0:0:0:
402,192,85426,1,0,0:0:0:0:
182,192,85801,1,0,1:0:0:0:
256,192,86176,1,0,0:0:0:0:
109,192,86551,1,0,1:0:0:0:
182,192,86926,1,0,0:0:0:0:
329,192,87301,1,0,1:0:0:0:
475,192,87676,128,0,89176:0:0:0:0:
182,192,88051,1,0,0:0:0:0:
109,192,88426,1,0,0:0:0:0:
182,192,88801,1,0,0:0:0:0:
182,192,89176,1,0,0:0:0:0:
109,192,89551,1,0,0:0:0:0:
329,192,89926,1,0,0:0:0:0:
182,192,90301,1,0,0:0:0:0:
475,192,90488,1,0,0:0:0:0:
