osu file format v14

[General]
AudioFilename: 06..mp3
AudioLeadIn: 2000
PreviewTime: 81482
Countdown: 0
SampleSet: Soft
StackLeniency: 0.7
Mode: 0
LetterboxInBreaks: 0
WidescreenStoryboard: 0

[Editor]
Bookmarks: 192,15676,33095,48579,64063,81482,96966,112450,120192,127934,143418,158902,176321,191805,207289,215031,224708,240192,255676,271160
DistanceSpacing: 0.9
BeatDivisor: 4
GridSize: 4
TimelineZoom: 1

[Metadata]
Title:Koiiro Canvas
TitleUnicode:恋色キャンバス
Artist:YURiCa
ArtistUnicode:ユリカ
Creator:neonat
Version:Collab Normal
Source:
Tags:Jeet Singh Koi Shoku Kyanbasu Hanatan leto tellertheworld Mira-san 花たん -Teina-
BeatmapID:429812
BeatmapSetID:178699

[Difficulty]
HPDrainRate:3
CircleSize:3
OverallDifficulty:3
ApproachRate:3
SliderMultiplier:1.4
SliderTickRate:1

[Events]
//Background and Video events
0,0,"2013-11-02-615549.jpg",0,0
//Break Periods
2,114343,118268
2,207488,213590
//Storyboard Layer 0 (Background)
//Storyboard Layer 1 (Fail)
//Storyboard Layer 2 (Pass)
//Storyboard Layer 3 (Foreground)
Sprite,Foreground,Centre,"SB/tellertheworld.png",320,240 M,0,0,,185,245 F,0,0,,0 S,0,0,,0.8100644 F,0,192,675,0,1 F,0,15191,15675,1,0 F,0,33095,33579,0,1 F,0,48095,48579,1,0 F,0,64062,64546,0,1 F,0,80998,81482,1,0 F,0,96966,97450,0,1 F,0,111966,112450,1,0 F,0,127933,128417,0,1 F,0,142933,143417,1,0 F,0,158901,159385,0,1 F,0,175837,176321,1,0 F,0,191804,192288,0,1 F,0,206804,207288,1,0 F,0,224708,225191,0,1 F,0,239708,240191,1,0 F,0,255675,256159,0,1 F,0,270675,271159,1,0
Sprite,Foreground,Centre,"SB/neonat.png",320,240 M,0,15675,,146,247 S,0,15675,,0.653161 F,0,15675,16159,0,1 F,0,32611,33095,1,0 F,0,48579,49062,0,1 F,0,49062,,1 F,0,63579,64062,1,0 F,0,81482,81966,0,1 F,0,96482,96966,1,0 F,0,120192,120675,0,1 F,0,127450,127933,1,0 F,0,143418,143901,0,1 F,0,158417,158901,1,0 F,0,176321,176804,0,1 F,0,191321,191804,1,0 F,0,215030,215514,0,1 F,0,224224,224708,1,0 F,0,240191,240675,0,1 F,0,255191,255675,1,0 F,0,271159,271643,0,1 F,0,288095,288579,1,0
//Storyboard Sound Samples

[TimingPoints]
192,483.870967741935,4,2,1,65,1,0
1158,-111.111111111111,4,2,1,65,0,0
15676,-100,4,2,1,65,0,0
81482,-100,4,2,1,65,0,1
112450,-100,4,2,1,65,0,0
176321,-100,4,2,1,65,0,1
207288,-100,4,2,1,65,0,0
224708,-100,4,2,1,65,0,1
255675,-100,4,2,1,65,0,0

[Colours]
Combo1 : 255,43,43
Combo2 : 199,209,206
Combo3 : 255,189,189
Combo4 : 154,185,241

[HitObjects]
176,264,193,6,2,B|128:264|128:264|76:272,2,70,0|8|8,0:0|0:0|0:0,0:0:0:0:
276,320,1159,2,0,B|328:296|340:220|340:220|364:172|364:172|368:140,1,188.999994232178
268,100,2370,2,0,B|239:65|239:65|212:44|203:12,2,94.499997116089
164,148,3580,1,0,0:0:0:0:
168,260,4062,6,0,B|180:292|180:292|184:332,2,62.9999980773926,0|8|8,0:0|0:0|0:0,0:0:0:0:
280,284,5030,2,0,B|316:288|316:288|356:300|356:300|392:300|392:300|424:292,1,125.999996154785
456,272,5757,1,0,0:0:0:0:
368,200,6241,1,0,0:0:0:0:
312,188,6483,2,0,B|260:192|216:180|216:180|168:188,1,125.999996154785
76,200,7451,1,8,0:0:0:0:
116,96,7933,6,0,B|128:64|128:64|136:20,2,62.9999980773926,0|8|8,0:0|0:0|0:0,0:0:0:0:
76,200,8901,1,0,0:0:0:0:
184,232,9386,2,0,L|252:244,1,62.9999980773926
328,320,10111,2,0,P|348:296|360:252,1,62.9999980773926
332,156,10837,1,0,0:0:0:0:
440,124,11321,1,0,0:0:0:0:
348,60,11804,6,0,P|316:44|284:12,1,62.9999980773926,0|8,0:0|0:0,0:0:0:0:
240,32,12288,2,0,B|208:64|196:128|212:176,1,125.999996154785,8|0,0:0|0:0,0:0:0:0:
232,200,13014,1,0,0:0:0:0:
272,240,13256,2,0,L|348:244,1,62.9999980773926
76,72,14709,5,0,0:0:0:0:
56,124,14951,1,8,0:0:0:0:
68,180,15191,2,0,B|92:212|124:220|148:244|156:288,1,125.999996154785,8|4,0:0|0:0,0:0:0:0:
256,344,16159,6,0,P|308:352|384:300,2,140,8|0|8,0:0|0:0|0:0,0:0:0:0:
220,292,17370,2,0,P|216:216|224:140,1,140
268,108,18096,2,0,B|336:96|352:120|416:100,2,140,8|0|8,0:0|0:0|0:0,0:0:0:0:
152,160,19546,6,0,P|100:168|60:152,1,70
20,152,20030,2,0,P|8:108|28:8,2,140,8|0|8,0:0|0:0|0:0,0:0:0:0:
60,200,21241,2,0,P|76:267|63:335,1,140
16,380,21967,1,8,0:0:0:0:
140,364,22451,2,0,P|192:356|296:368,1,140,0|2,0:0|0:0,0:0:0:0:
396,320,23417,6,0,L|472:284,2,70,4|0|8,0:0|0:0|0:0,0:0:0:0:
308,232,24386,2,0,P|260:184|256:88,1,140,0|8,0:0|0:0,0:0:0:0:
260,52,25112,2,0,P|196:79|129:65,1,140
68,56,25838,2,0,B|52:128|52:128|76:200,1,140,8|0,0:0|0:0,0:0:0:0:
116,308,26804,1,2,0:0:0:0:
176,292,27046,6,0,B|228:284|268:308|268:308|344:288,1,140,4|0,0:0|0:0,0:0:0:0:
372,276,27773,1,8,0:0:0:0:
428,244,28015,2,0,P|440:192|408:92,1,140,4|0,0:0|0:0,0:0:0:0:
372,68,28741,1,8,0:0:0:0:
256,192,28982,12,4,30918,0:0:0:0:
136,172,31886,5,8,0:0:0:0:
208,276,32370,1,0,0:0:0:0:
268,256,32611,2,0,B|316:244|348:256|348:256|392:208,1,140,0|4,0:0|0:0,0:0:0:0:
328,104,33579,5,8,0:0:0:0:
216,164,34062,2,0,P|148:196|124:280,1,140,0|8,0:0|0:0,0:0:0:0:
244,284,35030,2,0,P|284:340|352:360,1,140,0|8,0:0|0:0,0:0:0:0:
356,236,35998,1,0,0:0:0:0:
472,184,36482,1,8,0:0:0:0:
472,56,36966,5,0,0:0:0:0:
416,28,37208,1,0,0:0:0:0:
360,56,37450,2,0,B|292:68|292:68|248:56|208:72,1,140,8|0,0:0|0:0,0:0:0:0:
256,192,38417,1,8,0:0:0:0:
148,256,38901,2,0,B|80:212|80:136,1,140,0|8,0:0|0:0,0:0:0:0:
208,136,39869,1,0,0:0:0:0:
264,248,40353,6,0,B|288:288|288:288|340:316|340:316|364:356|364:356,2,140,8|0|8,0:0|0:0|0:0,0:0:0:0:
276,124,41804,1,0,0:0:0:0:
172,56,42288,2,0,P|100:48|40:80,1,140,8|0,0:0|0:0,0:0:0:0:
124,176,43256,2,0,L|116:264,1,70,8|0,0:0|0:0,0:0:0:0:
168,288,43740,2,0,B|204:292|204:292|248:296|280:308|280:308|304:296,1,140,0|8,0:0|0:0,0:0:0:0:
372,192,44708,5,0,0:0:0:0:
468,112,45191,2,0,P|492:181|480:257,1,140,8|0,0:0|0:0,0:0:0:0:
388,328,46159,2,0,P|368:260|376:176,1,140,8|0,0:0|0:0,0:0:0:0:
424,76,47127,1,8,0:0:0:0:
300,72,47611,2,0,P|232:100|192:176,1,140,0|8,0:0|0:0,0:0:0:0:
188,216,48337,1,0,0:0:0:0:
188,280,48579,6,0,P|148:336|84:361,1,140,0|8,0:0|0:0,0:0:0:0:
4,264,49546,1,0,0:0:0:0:
80,164,50030,2,0,P|116:96|96:28,1,140,8|0,0:0|0:0,0:0:0:0:
228,24,50998,2,0,P|272:40|372:16,1,140,8|0,0:0|0:0,0:0:0:0:
424,36,51724,1,0,0:0:0:0:
484,56,51966,2,0,P|504:108|496:200,1,140,8|0,0:0|0:0,0:0:0:0:
372,196,52933,6,0,P|316:188|224:196,2,140,8|0|8,0:0|0:0|0:0,0:0:0:0:
432,220,54143,2,0,P|455:272|420:356,1,140
368,360,54869,2,0,P|298:366|229:358,2,140,8|0|8,0:0|0:0|0:0,0:0:0:0:
488,316,56321,6,0,P|500:240|484:164,1,140,0|8,0:0|0:0,0:0:0:0:
440,140,57046,2,0,P|380:128|344:40,1,140
296,20,57772,2,0,B|240:0|204:32|152:16,2,140,8|0|8,0:0|0:0|0:0,0:0:0:0:
420,28,59224,2,0,L|488:8,2,70,0|0|8,0:0|0:0|0:0,0:0:0:0:
344,128,60191,6,0,P|320:192|352:272,1,140,0|8,0:0|0:0,0:0:0:0:
344,320,60917,1,0,0:0:0:0:
280,312,61159,2,0,P|204:288|124:324,1,140,0|8,0:0|0:0,0:0:0:0:
88,288,61885,1,0,0:0:0:0:
112,232,62127,2,0,P|136:176|108:96,1,140,0|8,0:0|0:0,0:0:0:0:
8,168,63095,2,0,P|-16:112|12:32,1,140,0|8,0:0|0:0,0:0:0:0:
64,20,63821,1,0,0:0:0:0:
124,32,64062,6,0,P|188:44|268:28,1,140,4|8,0:0|0:0,0:0:0:0:
388,44,65030,1,0,0:0:0:0:
308,144,65514,2,0,P|261:169|216:261,1,140,8|0,0:0|0:0,0:0:0:0:
216,308,66240,1,0,0:0:0:0:
164,344,66482,2,0,P|128:356|88:364,2,70,8|0|0,0:0|0:0|0:0,0:0:0:0:
132,220,67450,1,2,0:0:0:0:
176,104,67933,6,0,B|240:44|312:52,1,140,0|8,0:0|0:0,0:0:0:0:
412,108,68901,1,0,0:0:0:0:
412,164,69143,1,0,0:0:0:0:
444,212,69385,1,8,0:0:0:0:
344,272,69869,2,0,P|279:296|237:351,1,140,0|8,0:0|0:0,0:0:0:0:
188,236,70837,2,0,L|244:180,2,70,0|8|2,0:0|0:0|0:0,0:0:0:0:
128,260,71562,6,0,B|88:220|88:220|76:172|32:132,1,140
76,92,72288,2,0,B|132:68|132:68|192:68|228:40,1,140,8|0,0:0|0:0,0:0:0:0:
260,92,73014,2,0,P|268:136|320:220,1,140
404,124,73982,2,0,P|447:178|460:246,1,140
460,308,74708,2,0,L|460:392,2,70,0|0|2,0:0|0:0|0:0,0:0:0:0:
336,280,75675,6,0,P|280:244|244:180,1,140,0|8,0:0|0:0,0:0:0:0:
344,100,76643,1,0,0:0:0:0:
240,28,77127,1,8,0:0:0:0:
176,32,77369,2,0,P|75:77|76:236,1,280
200,240,78821,5,2,0:0:0:0:
256,208,79062,2,2,L|324:164,1,70
376,280,79788,1,2,0:0:0:0:
440,280,80030,2,2,L|536:280,1,70
224,148,81482,6,0,P|244:104|340:76,2,140,4|8|0,0:0|0:0|0:0,0:0:0:0:
168,260,82933,1,8,0:0:0:0:
224,292,83175,2,0,P|272:316|356:284,1,140
364,228,83901,2,0,P|426:201|490:226,1,140,8|0,0:0|0:0,0:0:0:0:
512,352,84869,1,2,0:0:0:0:
388,360,85353,6,0,B|336:368|296:344|232:368,1,140,0|8,0:0|0:0,0:0:0:0:
124,340,86321,2,0,L|52:356,2,70,0|0|8,0:0|0:0|0:0,0:0:0:0:
168,292,87046,2,0,P|192:240|156:144,1,140
140,108,87772,2,0,L|68:112|-20:108,2,140,8|0|2,0:0|0:0|0:0,0:0:0:0:
252,48,89224,5,0,0:0:0:0:
368,92,89708,2,0,P|428:92|500:40,2,140,8|0|8,0:0|0:0|0:0,0:0:0:0:
308,108,90917,2,0,P|284:144|312:260,1,140
328,288,91643,2,0,L|164:264,1,140,8|0,0:0|0:0,0:0:0:0:
88,192,92611,1,2,0:0:0:0:
52,140,92853,6,0,P|40:84|92:8,1,140
140,32,93579,2,0,P|192:48|276:32,2,140,8|0|8,0:0|0:0|0:0,0:0:0:0:
80,16,94788,2,0,L|0:140,1,140
16,196,95514,1,8,0:0:0:0:
76,308,95998,1,0,0:0:0:0:
156,212,96482,1,2,0:0:0:0:
276,168,96966,6,0,P|340:184|388:248,1,140,4|8,0:0|0:0,0:0:0:0:
272,296,97933,1,0,0:0:0:0:
148,308,98417,2,0,P|88:288|36:228,2,140,8|0|8,0:0|0:0|0:0,0:0:0:0:
232,212,99869,1,0,0:0:0:0:
272,92,100353,2,0,P|328:56|408:64,1,140,2|0,0:0|0:0,0:0:0:0:
428,180,101321,5,8,0:0:0:0:
308,224,101804,2,0,P|248:228|156:188,1,140,0|8,0:0|0:0,0:0:0:0:
112,192,102530,2,0,P|140:264|116:328,1,140
76,368,103256,1,8,0:0:0:0:
24,252,103740,2,0,L|24:168,1,70
56,128,104224,2,0,L|84:56,1,70,2|0,0:0|0:0,0:0:0:0:
140,44,104708,5,0,0:0:0:0:
256,88,105191,2,0,B|272:44|272:44|272:12,2,70,8|0|0,0:0|0:0|0:0,0:0:0:0:
184,192,106159,1,8,0:0:0:0:
200,252,106401,2,0,P|228:300|384:348,1,210,0|8,0:0|0:0,0:0:0:0:
492,356,107611,2,0,P|496:280|424:236,1,140,0|2,0:0|0:0,0:0:0:0:
392,224,108337,6,0,P|336:156|360:40,1,210,0|8,0:0|0:0,0:0:0:0:
248,108,109546,2,0,B|220:180|220:180|228:244,1,140,0|8,0:0|0:0,0:0:0:0:
172,272,110272,2,0,P|88:216|84:104,1,210,0|8,0:0|0:0,0:0:0:0:
188,52,111482,2,0,L|260:36,1,70
280,96,111966,2,0,L|368:112,1,70,2|0,0:0|0:0,0:0:0:0:
256,192,112450,12,0,114143,0:0:0:0:
144,252,119708,5,2,0:0:0:0:
256,192,120191,5,0,0:0:0:0:
380,224,120675,2,0,P|436:196|456:112,2,140,8|0|8,0:0|0:0|0:0,0:0:0:0:
344,172,121885,2,0,P|335:112|356:32,1,140
296,12,122611,2,0,P|240:36|152:8,1,140,8|0,0:0|0:0,0:0:0:0:
44,56,123579,1,2,0:0:0:0:
72,112,123821,6,0,P|92:160|72:252,1,140,4|0,0:0|0:0,0:0:0:0:
28,284,124546,1,8,0:0:0:0:
36,348,124788,2,0,P|84:372|172:348,1,140,4|0,0:0|0:0,0:0:0:0:
212,308,125514,1,8,0:0:0:0:
252,260,125756,2,0,B|304:232|380:280|380:280|448:216,1,210,4|8,0:0|0:0,0:0:0:0:
476,180,126724,1,8,0:0:0:0:
212,12,127933,5,4,0:0:0:0:
152,28,128176,2,0,B|106:37|106:37|86:49,1,70,0|8,0:0|0:0,0:0:0:0:
96,112,128660,2,0,B|77:122|77:122|29:126,1,70
20,252,129385,1,8,0:0:0:0:
144,252,129869,2,0,B|184:272|184:272|208:332|276:336,1,140,0|8,0:0|0:0,0:0:0:0:
380,324,130837,1,0,0:0:0:0:
436,296,131079,1,0,0:0:0:0:
460,236,131321,1,8,0:0:0:0:
356,168,131804,6,0,B|288:156|288:156|212:96,2,140,0|8|0,0:0|0:0|0:0,0:0:0:0:
448,80,133256,1,8,0:0:0:0:
496,196,133740,1,0,0:0:0:0:
480,256,133982,1,0,0:0:0:0:
436,300,134224,2,0,B|384:328|384:328|348:336|296:308,1,140,8|0,0:0|0:0,0:0:0:0:
236,208,135191,1,8,0:0:0:0:
160,308,135675,2,0,B|124:304|124:304|88:308,1,70
28,320,136159,6,0,P|8:252|36:172,1,140,8|0,0:0|0:0,0:0:0:0:
88,76,137127,1,8,0:0:0:0:
192,148,137611,2,0,P|244:128|308:60,1,140,0|8,0:0|0:0,0:0:0:0:
340,16,138337,2,0,P|387:67|450:94,1,140
508,124,139062,1,8,0:0:0:0:
432,228,139546,5,0,0:0:0:0:
332,152,140030,1,8,0:0:0:0:
268,260,140514,2,0,P|192:304|140:304,1,140,0|8,0:0|0:0,0:0:0:0:
88,268,141240,1,0,0:0:0:0:
60,212,141482,2,0,B|48:156|48:156|76:120|84:64,1,140,0|8,0:0|0:0,0:0:0:0:
200,44,142450,1,0,0:0:0:0:
268,144,142933,1,8,0:0:0:0:
384,92,143417,5,4,0:0:0:0:
480,176,143901,2,0,P|508:216|488:320,2,140,8|0|8,0:0|0:0|0:0,0:0:0:0:
356,204,145353,2,0,P|320:228|272:332,1,140,0|8,0:0|0:0,0:0:0:0:
148,312,146321,2,0,P|120:248|66:204,1,140,0|8,0:0|0:0,0:0:0:0:
20,88,147288,6,0,B|40:44|92:28|92:28|160:48,2,140,0|8|0,0:0|0:0|0:0,0:0:0:0:
140,132,148740,1,8,0:0:0:0:
196,104,148982,2,0,P|252:80|356:104,1,140
388,108,149708,2,0,L|440:248,1,140,8|0,0:0|0:0,0:0:0:0:
420,364,150675,1,8,0:0:0:0:
304,312,151159,6,0,P|224:296|152:324,1,140,0|8,0:0|0:0,0:0:0:0:
108,332,151885,2,0,P|64:264|88:188,1,140
124,172,152611,1,8,0:0:0:0:
236,224,153095,1,0,0:0:0:0:
348,164,153579,1,8,0:0:0:0:
268,64,154062,1,0,0:0:0:0:
204,64,154304,2,0,L|124:68,1,70,0|8,0:0|0:0,0:0:0:0:
16,20,155030,6,0,P|0:88|24:176,1,140,0|8,0:0|0:0,0:0:0:0:
116,229,155998,2,0,P|132:161|108:73,1,140,0|8,0:0|0:0,0:0:0:0:
32,184,156966,2,0,P|24:256|68:312,1,140,0|8,0:0|0:0,0:0:0:0:
188,292,157933,2,0,P|255:282|311:322,1,140,0|8,0:0|0:0,0:0:0:0:
436,324,158901,5,2,0:0:0:0:
344,236,159385,1,8,0:0:0:0:
372,180,159627,1,0,0:0:0:0:
424,148,159869,2,0,P|456:96|464:8,1,140,0|8,0:0|0:0,0:0:0:0:
348,48,160837,2,0,P|292:72|204:80,1,140,0|8,0:0|0:0,0:0:0:0:
88,64,161804,2,0,B|52:76|52:76|16:96,2,70,0|0|2,0:0|0:0|0:0,0:0:0:0:
112,188,162772,5,0,0:0:0:0:
236,168,163256,1,8,0:0:0:0:
316,264,163740,2,0,B|360:280|360:280|420:264|436:200,1,140,0|8,0:0|0:0,0:0:0:0:
440,160,164466,1,0,0:0:0:0:
412,104,164708,2,0,B|368:88|368:88|308:104|292:168,1,140,0|8,0:0|0:0,0:0:0:0:
380,240,165675,2,0,B|432:264|432:264|456:304|444:348,1,140,0|2,0:0|0:0,0:0:0:0:
320,328,166643,6,0,B|301:349|301:349|265:369,2,70,0|0|8,0:0|0:0|0:0,0:0:0:0:
280,208,167611,2,0,B|228:152|228:152|204:88,1,140,0|8,0:0|0:0,0:0:0:0:
144,100,168337,2,0,P|104:164|36:192,1,140
36,252,169062,1,8,0:0:0:0:
144,316,169546,1,0,0:0:0:0:
268,324,170030,1,8,0:0:0:0:
392,292,170514,6,0,B|428:256|428:256|444:208|436:160,1,140,0|8,0:0|0:0,0:0:0:0:
312,196,171482,2,0,P|284:172|268:144,1,70
204,144,171966,2,0,P|186:174|159:196,1,70,8|0,0:0|0:0,0:0:0:0:
100,216,172450,1,0,0:0:0:0:
52,332,172933,1,8,0:0:0:0:
8,212,173417,6,0,P|-8:156|4:68,1,140,0|2,0:0|0:0,0:0:0:0:
48,32,174143,1,2,0:0:0:0:
128,132,174627,2,0,P|164:152|200:156,2,70,2|2|2,0:0|0:0|0:0,0:0:0:0:
412,264,176321,5,4,0:0:0:0:
296,308,176804,2,0,P|292:232|324:176,1,140,8|0,0:0|0:0,0:0:0:0:
400,76,177772,1,8,0:0:0:0:
464,84,178014,2,0,P|494:146|469:230,1,140
440,260,178740,2,0,P|428:336|488:372,2,140,8|0|2,0:0|0:0|0:0,0:0:0:0:
380,148,180191,5,0,0:0:0:0:
260,108,180675,2,0,P|220:96|120:108,1,140,8|0,0:0|0:0,0:0:0:0:
72,220,181643,1,8,0:0:0:0:
116,264,181885,2,0,P|156:276|256:264,1,140
304,232,182611,2,0,P|372:218|440:233,1,140,8|0,0:0|0:0,0:0:0:0:
508,340,183579,1,2,0:0:0:0:
384,360,184062,5,0,0:0:0:0:
260,340,184546,2,0,P|200:324|104:344,1,140,8|0,0:0|0:0,0:0:0:0:
4,368,185514,1,8,0:0:0:0:
0,304,185756,2,0,P|-16:244|16:160,1,140
68,152,186482,2,0,P|90:86|74:19,2,140,8|0|2,0:0|0:0|0:0,0:0:0:0:
80,213,187691,6,0,P|150:230|223:194,1,140
272,184,188417,2,0,P|324:180|396:244,2,140,8|0|8,0:0|0:0|0:0,0:0:0:0:
212,160,189627,2,0,P|172:108|188:36,1,140
244,16,190353,1,8,0:0:0:0:
372,16,190837,1,0,0:0:0:0:
460,104,191321,1,2,0:0:0:0:
348,160,191804,5,4,0:0:0:0:
448,240,192288,2,0,B|456:284|456:284|448:336|396:364,1,140,8|0,0:0|0:0,0:0:0:0:
324,260,193256,1,8,0:0:0:0:
272,296,193498,2,0,B|208:340|208:340|140:300|68:316,1,210,0|8,0:0|0:0,0:0:0:0:
44,192,194708,2,0,B|88:164|88:164|104:144,1,70
160,164,195191,2,0,B|172:148|172:148|228:108,1,70,2|0,0:0|0:0,0:0:0:0:
276,104,195675,5,0,0:0:0:0:
380,172,196159,2,0,P|428:168|512:120,1,140,8|0,0:0|0:0,0:0:0:0:
512,188,196885,2,0,L|512:258,1,70,0|8,0:0|0:0,0:0:0:0:
500,320,197369,2,0,P|441:282|372:272,1,140
308,280,198095,1,8,0:0:0:0:
184,252,198579,2,0,B|144:228|144:228|100:220|60:172,1,140,0|2,0:0|0:0,0:0:0:0:
60,56,199546,5,0,0:0:0:0:
172,112,200030,1,8,0:0:0:0:
288,64,200514,2,0,B|320:80|320:80|352:136|420:140,1,140,0|8,0:0|0:0,0:0:0:0:
464,152,201240,1,0,0:0:0:0:
452,212,201482,2,0,B|444:252|444:252|448:312|404:340,1,140,0|8,0:0|0:0,0:0:0:0:
284,304,202450,2,0,P|208:320|144:300,1,140,0|2,0:0|0:0,0:0:0:0:
44,232,203417,5,0,0:0:0:0:
148,164,203901,2,0,P|176:112|168:28,1,140,8|0,0:0|0:0,0:0:0:0:
232,36,204627,2,0,P|268:40|308:36,1,70,0|8,0:0|0:0,0:0:0:0:
364,36,205111,2,0,P|364:104|400:168,1,140,0|8,0:0|0:0,0:0:0:0:
436,216,205837,1,8,0:0:0:0:
312,212,206321,2,0,L|224:188,1,70
228,256,206804,2,0,L|156:272,1,70,2|0,0:0|0:0,0:0:0:0:
100,292,207288,5,4,0:0:0:0:
256,192,215030,5,4,0:0:0:0:
376,232,215514,1,8,0:0:0:0:
468,144,215998,2,0,P|472:96|428:28,2,105
464,208,216966,2,0,P|456:280|472:356,1,140,0|8,0:0|0:0,0:0:0:0:
344,356,217933,2,0,P|288:344|204:352,1,140,0|12,0:0|0:0,0:0:0:0:
80,360,218901,5,4,0:0:0:0:
20,248,219385,1,8,0:0:0:0:
148,248,219869,1,0,0:0:0:0:
260,192,220353,1,12,0:0:0:0:
274,129,220595,6,0,P|261:82|166:37,1,140,2|2,0:0|0:0,0:0:0:0:
132,68,221321,2,0,P|72:88|-8:60,2,140,8|0|0,0:0|0:0|0:0,0:0:0:0:
186,38,222530,6,0,L|340:40,1,140,2|2,0:0|0:0,0:0:0:0:
380,72,223256,2,0,B|432:56|476:80|476:80|520:44,2,140,8|0|0,0:0|0:0|0:0,0:0:0:0:
300,168,224708,5,4,0:0:0:0:
424,172,225191,1,8,0:0:0:0:
348,272,225675,2,0,B|312:292|268:280|268:280|192:328,1,140,0|8,0:0|0:0,0:0:0:0:
160,296,226401,2,0,P|120:244|152:92,1,210,0|8,0:0|0:0,0:0:0:0:
254,61,227611,2,0,P|262:129|232:192,1,140,0|2,0:0|0:0,0:0:0:0:
140,108,228579,5,0,0:0:0:0:
100,228,229062,2,0,P|104:276|156:348,1,140,8|0,0:0|0:0,0:0:0:0:
268,292,230030,1,8,0:0:0:0:
320,328,230272,2,0,B|364:332|364:332|400:328|428:344|428:344|452:308|524:264,1,210,0|8,0:0|0:0,0:0:0:0:
468,156,231482,2,0,L|380:136,1,70
360,92,231966,2,0,L|264:116,1,70,2|0,0:0|0:0,0:0:0:0:
240,148,232450,6,0,P|168:180|104:172,1,140,0|8,0:0|0:0,0:0:0:0:
40,68,233417,1,0,0:0:0:0:
4,188,233901,2,0,B|16:256|16:256|64:312,1,140,8|0,0:0|0:0,0:0:0:0:
168,376,234869,1,8,0:0:0:0:
256,284,235353,2,0,P|320:260|392:268,1,140,0|2,0:0|0:0,0:0:0:0:
452,280,236079,1,0,0:0:0:0:
488,228,236321,6,0,P|504:168|472:80,1,140,0|8,0:0|0:0,0:0:0:0:
380,164,237288,2,0,B|344:180|344:180|300:184,1,70
256,152,237772,1,8,0:0:0:0:
192,156,238014,2,0,L|128:96,2,70
204,220,238740,2,0,P|212:272|164:356,1,140,8|0,0:0|0:0,0:0:0:0:
84,260,239708,2,0,P|80:192|120:124,1,140,2|4,0:0|0:0,0:0:0:0:
232,84,240675,6,0,B|288:56|332:84|332:84|372:44,2,140,8|0|8,0:0|0:0|0:0,0:0:0:0:
208,144,241885,2,0,P|192:208|212:288,1,140
264,308,242611,2,0,P|324:288|416:320,1,140,8|0,0:0|0:0,0:0:0:0:
496,224,243579,1,2,0:0:0:0:
440,112,244062,5,0,0:0:0:0:
320,76,244546,2,0,B|272:68|232:104|232:104|176:76,1,140,8|0,0:0|0:0,0:0:0:0:
68,56,245514,1,8,0:0:0:0:
36,112,245756,2,0,P|20:176|36:256,1,140
96,252,246482,2,0,P|164:232|240:256,2,140,8|0|2,0:0|0:0|0:0,0:0:0:0:
168,356,247933,6,0,P|236:368|312:352,1,140,0|8,0:0|0:0,0:0:0:0:
392,264,248901,2,0,P|416:212|384:124,1,140,0|8,0:0|0:0,0:0:0:0:
344,100,249627,2,0,L|204:112,1,140
140,120,250353,2,0,P|68:116|20:52,2,140,8|0|2,0:0|0:0|0:0,0:0:0:0:
196,144,251562,6,0,P|212:196|200:284,1,140
180,340,252288,2,0,L|348:300,2,140,8|0|8,0:0|0:0|0:0,0:0:0:0:
116,336,253498,2,0,P|56:316|36:232,1,140,0|8,0:0|0:0,0:0:0:0:
48,188,254224,1,8,0:0:0:0:
116,84,254708,2,0,L|100:16,2,70,0|0|2,0:0|0:0|0:0,0:0:0:0:
236,124,255675,5,4,0:0:0:0:
352,76,256159,1,8,0:0:0:0:
444,160,256643,2,0,P|456:240|416:288,1,140,0|8,0:0|0:0,0:0:0:0:
368,316,257369,1,0,0:0:0:0:
284,220,257853,2,0,B|252:204|252:204|212:208,1,70,0|8,0:0|0:0,0:0:0:0:
156,216,258337,1,0,0:0:0:0:
120,164,258579,2,0,P|148:112|128:20,1,140,0|2,0:0|0:0,0:0:0:0:
260,68,259546,6,0,L|328:32,2,70,0|0|8,0:0|0:0|0:0,0:0:0:0:
244,128,260272,1,0,0:0:0:0:
280,180,260514,2,0,B|288:224|288:224|292:280|252:308,1,140,0|8,0:0|0:0,0:0:0:0:
188,312,261240,2,0,B|168:236|168:236|100:184|116:116,1,210,0|8,0:0|0:0,0:0:0:0:
212,40,262450,1,0,0:0:0:0:
304,124,262933,1,2,0:0:0:0:
420,72,263417,6,0,L|488:36,2,70,0|0|8,0:0|0:0|0:0,0:0:0:0:
340,168,264385,2,0,P|276:168|212:88,1,140,0|8,0:0|0:0,0:0:0:0:
164,148,265111,2,0,P|160:192|84:268,1,140
116,324,265837,2,0,L|196:364,1,70,8|0,0:0|0:0,0:0:0:0:
236,328,266321,2,0,L|320:316,2,70,0|0|2,0:0|0:0|0:0,0:0:0:0:
192,284,267046,6,0,P|184:244|220:148,1,140
272,120,267772,1,8,0:0:0:0:
316,240,268256,1,0,0:0:0:0:
380,132,268740,2,0,P|456:116|504:56,1,140,8|0,0:0|0:0,0:0:0:0:
392,4,269708,1,2,0:0:0:0:
296,84,270191,2,0,L|232:120,1,70
216,60,270675,2,0,L|140:56,1,70,8|8,0:0|0:0,0:0:0:0:
84,44,271159,6,0,P|48:88|64:188,1,140,4|8,0:0|0:0,0:0:0:0:
160,232,272127,2,0,B|216:220|216:220|260:224|304:280,1,140,0|8,0:0|0:0,0:0:0:0:
316,316,272853,2,0,P|364:328|440:268,1,140
412,220,273579,2,0,L|392:48,1,140,8|0,0:0|0:0,0:0:0:0:
272,92,274546,2,0,L|188:60,1,70,2|0,0:0|0:0,0:0:0:0:
144,72,275030,6,0,P|92:80|28:24,2,140,0|8|0,0:0|0:0|0:0,0:0:0:0:
228,168,276482,1,8,0:0:0:0:
228,232,276724,2,0,P|196:284|103:293,1,140
64,280,277450,2,0,L|28:124,1,140,8|0,0:0|0:0,0:0:0:0:
52,84,278175,1,0,0:0:0:0:
100,44,278417,2,0,P|136:32|248:52,1,140,2|0,0:0|0:0,0:0:0:0:
268,168,279385,6,0,P|335:184|403:168,1,140,8|0,0:0|0:0,0:0:0:0:
508,100,280353,1,8,0:0:0:0:
512,164,280595,2,0,P|511:231|458:302,1,140
424,328,281321,2,0,B|364:368|364:368|276:368,1,140,8|0,0:0|0:0,0:0:0:0:
176,332,282288,1,2,0:0:0:0:
112,328,282530,6,0,P|52:308|40:224,1,140
88,204,283256,2,0,B|148:184|200:212|200:212|240:204,2,140,8|0|8,0:0|0:0|0:0,0:0:0:0:
32,176,284466,2,0,P|29:127|111:57,1,140,0|8,0:0|0:0,0:0:0:0:
144,36,285191,2,0,L|228:36,1,70,8|8,0:0|0:0,0:0:0:0:
248,88,285675,2,0,L|341:103,1,70,0|8,0:0|0:0,0:0:0:0:
352,48,286159,2,0,L|441:31,1,70,8|8,0:0|0:0,0:0:0:0:
476,68,286643,6,0,P|492:124|468:208,2,140
368,132,288095,2,0,L|276:160,1,70,0|2,0:0|0:0,0:0:0:0:
