osu file format v9

[General]
AudioFilename: You (TV_Size).mp3
AudioLeadIn: 1511
PreviewTime: 55850
Countdown: 0
SampleSet: Soft
StackLeniency: 0.7
Mode: 1
LetterboxInBreaks: 1

[Editor]
Bookmarks: 2081,11311,26081,40850,55619,71311,88850
DistanceSpacing: 0.8
BeatDivisor: 4
GridSize: 8

[Metadata]
Title:You (TV Size)
Artist:YURIA
Creator:Giffen
Version:Taiko Oni
Source:Shuffle!
Tags:piscis opening CXu

[Difficulty]
HPDrainRate:5
CircleSize:4
OverallDifficulty:5
ApproachRate:8
SliderMultiplier:1.4
SliderTickRate:2

[Events]
//Background and Video events
0,0,"TaikoBG.JPG"
//Break Periods
//Storyboard Layer 0 (Background)
//Storyboard Layer 1 (Fail)
//Storyboard Layer 2 (Pass)
//Storyboard Layer 3 (Foreground)
Sprite,Foreground,Centre,"shuffle.png",320,240 M,0,48696,48927,320,240 F,0,48696,48944,0 M,0,48927,49927,320,240 F,0,48944,49927,0 M,0,49927,50081,320,240,320,239 F,0,49927,50081,0
//Storyboard Sound Samples
//Background Colour Transformations
3,100,0,0,0

[TimingPoints]
2098,461.538461538462,4,2,1,70,1,0
11328,-100,4,2,1,70,0,0
56559,461.538461538462,4,2,1,70,1,0
56559,-100,4,2,1,70,0,1
88867,-100,4,2,1,70,0,0

[Colours]
Combo1 : 205,155,255
Combo2 : 255,255,255

[HitObjects]
192,192,2098,5,4
208,128,2559,1,0
208,128,2790,1,2
256,136,3021,1,2
216,128,3482,1,0
216,128,3713,1,2
176,128,3944,1,0
280,280,4290,1,0
376,328,4636,1,0
484,240,4867,1,2
384,104,5328,5,0
280,104,5559,1,0
376,208,5790,2,0,B|296:216|248:280,1,140,10|0
40,292,6482,1,2
88,152,6713,2,0,B|160:153|216:72,1,140,2|0
336,96,7405,1,0
32,0,7636,6,0,B|488:344,1,560,2|2
300,84,11328,5,0
272,208,11559,1,2
248,280,11790,1,2
400,288,12021,1,0
160,136,12251,1,0
160,136,12367,1,0
240,192,12482,1,2
120,144,12713,1,2
320,296,12944,1,0
256,272,13174,5,2
240,292,13405,1,2
104,304,13636,1,0
88,336,13867,1,2
72,312,13982,1,0
248,176,14097,1,0
248,176,14444,1,0
248,176,14790,1,2
232,120,15021,1,2
248,176,15367,1,2
248,176,15713,1,2
392,128,15944,1,0
224,168,16174,1,8
192,216,16405,1,0
192,216,16636,1,8
304,112,16867,1,8
304,112,17213,5,8
384,136,17559,1,0
384,232,17790,1,8
424,144,17905,1,0
456,184,18021,1,0
464,216,18136,1,0
424,192,18251,1,8
424,208,18367,1,0
424,240,18482,1,0
424,240,18598,1,0
184,128,18713,1,8
160,88,18944,1,8
168,48,19174,1,8
160,88,19405,1,8
256,112,19636,1,0
256,112,19867,1,8
232,136,20098,1,8
192,40,20328,1,0
112,56,20559,5,8
24,176,20790,1,0
168,192,21021,1,8
136,80,21251,5,8
48,200,21482,1,0
192,216,21713,1,8
264,176,21944,1,8
336,136,22174,5,0
176,128,22405,1,8
176,128,22636,1,0
176,128,22867,1,8
176,128,23098,1,8
216,64,23328,1,8
216,64,23559,1,8
216,64,23790,1,4
244,344,24021,1,8
192,272,24251,1,8
192,272,24367,1,8
192,272,24482,1,8
192,272,24598,1,8
272,96,24713,1,8
272,96,24944,1,8
136,304,25290,1,4
256,48,25521,1,12
424,192,25751,1,0
240,216,25867,1,0
424,192,25982,1,0
128,112,26098,1,0
128,112,26328,1,0
128,112,26559,1,8
192,136,26790,1,0
184,56,27021,1,8
192,128,27251,1,8
184,56,27482,1,0
120,228,27713,1,8
184,56,27944,1,8
184,56,28174,1,0
184,56,28405,1,8
184,56,28636,1,8
120,228,28867,1,8
328,352,29098,1,8
296,280,29328,5,0
192,208,29559,1,8
184,56,29790,1,12
184,56,30021,1,8
184,56,30251,1,8
184,56,30482,1,0
120,228,30713,1,4
288,112,30944,1,0
288,112,31174,1,0
140,140,31405,1,0
216,248,31636,1,4
168,304,31982,1,12
360,248,32328,1,4
464,112,32559,5,12
376,124,32790,1,0
248,144,32905,1,0
160,88,33021,1,8
160,88,33251,1,0
312,248,33482,1,12
232,248,33713,1,0
232,248,33944,5,8
152,236,34174,1,0
112,320,34290,1,0
184,56,34405,1,8
184,56,34636,1,8
184,56,34867,1,8
184,56,35098,1,0
120,228,35328,1,4
104,128,35559,1,8
240,224,35790,5,8
240,264,36021,1,8
376,264,36251,1,0
416,256,36367,1,0
160,104,36482,1,0
160,104,36713,1,8
160,104,36944,1,8
168,208,37174,1,8
280,168,37290,1,0
128,88,37405,1,0
128,88,37636,1,0
128,88,37867,1,0
392,80,38098,1,0
360,200,38213,1,0
144,160,38328,1,0
144,160,38559,1,0
144,160,38790,1,0
304,88,39021,1,4
200,248,39367,1,8
80,80,39713,1,4
64,208,39944,1,8
72,168,40059,1,0
88,176,40174,1,0
96,248,40290,1,0
104,240,40405,1,8
120,256,40521,1,0
128,288,40636,1,0
168,272,40751,1,0
256,104,40867,1,8
256,104,41328,1,8
176,168,41790,1,0
252,168,42021,1,0
324,128,42251,1,8
324,128,42482,5,0
408,144,42713,1,8
432,232,42944,1,0
400,248,43174,1,0
328,224,43290,1,0
360,240,43405,1,0
352,256,43521,1,0
128,96,43636,1,8
128,96,43982,1,8
128,96,44328,1,8
208,128,44559,1,4
208,128,44905,1,8
208,128,45021,1,0
200,40,45367,1,0
200,40,45482,1,8
200,40,45828,1,4
200,40,46290,1,0
200,40,46405,1,8
200,40,46751,1,4
192,72,47098,1,8
144,104,47328,1,0
272,144,47444,1,0
144,104,47559,1,0
144,104,47790,1,8
144,104,47905,1,0
144,352,48021,1,0
200,136,48251,1,0
256,216,48713,1,4
432,192,49174,5,8
256,192,49521,1,4
80,192,49867,1,8
192,288,50098,1,8
16,336,50328,5,8
344,112,50559,1,0
232,136,51021,1,0
412,328,51367,1,8
464,152,51713,1,0
360,152,51944,1,8
344,216,52059,1,0
328,152,52174,1,0
296,176,52405,1,8
280,152,52521,1,0
272,176,52636,1,0
256,112,52867,1,8
160,112,53213,1,0
160,112,53559,1,8
88,160,53790,5,0
376,288,53905,1,8
208,232,54021,1,0
184,224,54136,1,8
336,304,54251,1,0
88,240,54367,1,8
312,336,54482,1,0
88,272,54598,1,8
104,240,56098,5,4
240,80,56559,5,0
240,216,56790,1,0
416,224,57021,1,8
296,296,57251,5,8
112,120,57482,1,8
112,120,57713,1,8
184,160,57944,1,0
152,240,58174,1,8
200,32,58405,1,0
200,64,58751,1,0
284,344,59098,1,8
284,344,59328,5,8
372,248,59559,1,8
280,152,59790,1,0
228,212,60021,1,0
228,212,60136,1,0
208,144,60251,1,0
112,224,60482,1,8
208,144,60598,1,0
176,96,60713,1,8
28,252,60944,1,8
208,208,61174,1,0
60,108,61405,5,8
240,96,61636,1,8
240,96,61751,1,0
240,96,61867,1,8
240,96,61982,1,0
240,96,62098,1,8
356,56,62444,1,8
336,288,62790,1,0
120,120,62905,1,8
360,136,63021,1,8
144,208,63482,1,0
160,264,63713,1,8
160,264,63828,1,8
280,160,63944,1,8
280,160,64059,1,8
280,160,64174,1,0
64,212,64405,1,0
40,96,64636,1,0
40,96,64751,1,8
248,56,64867,1,8
248,56,64982,1,8
248,56,65098,1,8
176,208,65328,1,0
400,200,65559,1,8
208,192,65790,5,0
376,96,66136,1,12
376,280,66482,1,0
56,184,66713,1,0
432,224,66828,1,0
180,120,66944,1,8
224,144,67174,1,0
200,168,67405,1,8
200,48,67636,1,4
200,48,67867,1,8
200,48,68098,1,0
416,336,68328,1,8
160,352,68559,1,12
80,304,68790,5,0
192,144,69021,1,4
192,144,69251,1,0
360,136,69482,1,8
496,144,69598,1,0
256,152,69713,1,0
328,216,69944,1,8
248,280,70059,1,0
224,248,70174,1,0
200,104,70405,1,8
200,104,70521,1,0
200,104,70636,1,0
200,104,70751,1,0
200,104,70867,1,8
160,304,71098,1,0
168,112,71328,1,0
168,112,71559,1,0
400,232,71790,1,8
160,192,72021,1,0
320,208,72251,1,8
464,140,72482,1,0
464,140,72713,5,8
392,188,72944,1,8
184,128,73174,1,4
176,160,73521,1,12
176,160,73867,1,4
464,140,74098,1,0
160,216,74328,1,0
328,264,74559,1,0
280,112,74790,1,0
96,104,74905,1,0
328,152,75021,1,8
344,112,75136,1,0
336,112,75251,1,0
184,112,75482,1,8
184,112,75713,1,0
184,208,75944,1,8
256,48,76059,1,0
312,152,76174,1,0
296,192,76290,1,0
168,160,76405,1,8
360,72,76636,1,0
432,100,76867,5,12
328,244,77213,1,12
236,96,77559,1,0
236,96,77674,1,0
112,152,77790,1,8
112,152,78021,1,8
160,104,78251,1,8
300,148,78482,1,0
360,200,78713,1,8
360,200,78828,1,8
360,200,78944,1,8
160,104,79174,1,0
128,120,79290,1,0
128,120,79405,1,0
128,120,79636,1,8
280,232,79867,1,0
184,336,80098,5,8
112,232,80328,1,0
216,144,80559,1,8
164,32,80905,1,4
324,172,81251,1,8
152,64,81482,1,0
152,64,81713,1,8
292,320,81944,1,0
232,168,82174,1,0
232,168,82290,1,8
208,64,82405,1,0
208,64,82636,1,8
176,320,82867,1,8
132,244,83097,5,0
328,208,83328,1,12
208,64,83559,1,12
208,64,83790,1,12
80,96,84021,1,0
136,160,84251,1,8
160,208,84367,1,0
200,208,84482,1,0
280,168,84713,1,0
232,160,84944,1,0
312,192,85059,1,0
208,64,85174,1,8
120,96,85405,1,0
120,96,85636,1,8
264,160,86097,5,0
256,304,86328,1,8
312,280,86559,5,0
216,232,86790,1,8
400,152,87021,1,4
288,260,87251,5,12
256,232,87482,1,4
232,144,87944,1,8
264,184,88059,1,0
280,176,88174,1,0
392,152,88290,5,0
264,224,88521,1,8
328,248,88636,1,0
392,256,88751,1,0
