osu file format v9

[General]
AudioFilename: You (TV_Size).mp3
AudioLeadIn: 1511
PreviewTime: 55850
Countdown: 0
SampleSet: Soft
StackLeniency: 0.7
Mode: 0
LetterboxInBreaks: 1

[Editor]
Bookmarks: 2081,11311,26081,40850,55619,71311,88850
DistanceSpacing: 1.5
BeatDivisor: 4
GridSize: 4

[Metadata]
Title:You (TV Size)
Artist:YURIA
Creator:Giffen
Version:Normal
Source:Shuffle!
Tags:piscis opening CXu

[Difficulty]
HPDrainRate:3
CircleSize:3
OverallDifficulty:3
ApproachRate:3
SliderMultiplier:1.1
SliderTickRate:2

[Events]
//Background and Video events
0,0,"shuffle-008.jpg"
Video,299,"SHUFFLE -Opening - (YURIA YOU).avi"
//Break Periods
//Storyboard Layer 0 (Background)
//Storyboard Layer 1 (Fail)
//Storyboard Layer 2 (Pass)
//Storyboard Layer 3 (Foreground)
Sprite,Foreground,Centre,"shuffle.png",320,240 M,0,48696,48927,320,240 F,0,48696,48927,0,1 M,0,48927,49927,320,240 F,0,48927,49927,1 M,0,49927,50081,320,240,320,239 F,0,49927,50081,1,0
//Storyboard Sound Samples
//Background Colour Transformations
3,100,0,0,0

[TimingPoints]
2098,461.538461538462,4,2,1,70,1,0
56559,461.538461538462,4,2,1,70,1,0
56559,-100,4,2,1,80,0,1
85174,-100,4,2,1,70,0,1
88867,-100,4,2,1,70,0,0

[Colours]
Combo1 : 128,255,128
Combo2 : 255,74,74
Combo3 : 205,155,255

[HitObjects]
72,112,2098,1,14
72,232,3021,6,0,B|84:276|144:296,2,82.5,10|2|2
104,156,3944,2,0,B|192:104,2,82.5,10|2|2
72,232,4867,1,8
204,224,5328,5,0
308,144,5790,2,0,B|364:136|420:144,1,110,10|0
456,248,6713,2,0,B|468:304|456:364,1,110,10|0
332,300,7636,2,0,B|276:312|216:300,1,110,10|0
164,184,8559,6,2,B|276:224|404:184,2,220,10|2|10
95,143,11328,5,6
321,62,12251,2,0,B|229:82|177:154,1,165,8|8
141,218,13174,2,0,B|218:245|302:217,1,165,8|8
345,142,14097,2,0,B|392:173|392:237,1,110,8|8
249,319,15021,6,0,B|157:319,2,82.5,14|8|8
468,224,16867,5,10
412,96,17328,1,8
296,36,17790,2,0,B|296:148,1,110,8|8
139,198,18713,2,0,B|172:253|237:274,1,110,8|8
388,272,19636,2,0,B|388:216,2,55,8|8|8
340,92,20559,5,10
476,184,21021,1,8
304,172,21482,1,10
152,192,21944,2,0,B|76:192,1,55,8|8
120,112,22405,2,0,B|169:91|227:112,1,110,8|8
312,256,23328,2,0,B|370:277|435:251,1,110,8|8
444,92,24251,5,10
280,116,24713,1,8
200,124,24944,2,0,B|72:132,2,110,8|8|8
200,208,26098,6,0,B|231:262|298:284,1,110,12|8
316,204,26790,2,0,B|367:220|398:274,1,110,8|8
480,268,27482,1,8
436,108,27944,6,0,B|500:72,2,55,10|0|8
268,88,28867,1,10
112,52,29328,1,8
84,192,29790,6,0,B|135:208|166:262,1,110,8|8
308,176,30713,2,0,B|380:176,1,55,8|8
284,300,31405,1,0
360,296,31636,6,0,B|412:288|440:236,2,82.5,14|8|8
360,296,32559,1,10
232,192,33021,6,0,B|174:215|151:263,1,110,8|8
312,224,33944,1,8
472,188,34405,1,10
428,260,34867,6,0,B|428:340,2,55,8|0|14
472,100,35790,1,8
316,92,36251,1,10
316,92,36482,2,0,B|316:172,1,55,0|8
212,140,37174,5,10
212,140,37405,2,0,B|212:60,1,55,0|8
108,92,38098,1,10
108,92,38328,2,0,B|108:168,1,55,0|8
216,268,39021,6,8,B|172:284|128:264,2,82.5,8|8|8
268,204,39944,1,10
392,296,40405,2,10,B|472:296,1,55
456,216,40867,6,10,B|476:152|452:88,1,110
300,120,41790,1,8
300,120,42251,1,8
148,164,42713,6,0,B|76:192,2,55,8|8|8
272,256,43636,2,0,B|264:308|216:340,2,82.5,10|8|8
272,256,44559,5,8
424,228,45021,1,8
296,156,45482,2,0,B|192:156,2,82.5,10|8|8
360,108,46405,6,0,B|332:68|276:52,2,82.5,8|8|8
372,188,47328,2,0,B|348:240|264:260,1,110,8|8
372,336,48251,6,0,B|432:376|500:356,1,110,14|8
488,196,49174,2,0,B|448:140|372:144,1,110,8|8
272,24,50098,1,10
144,108,50559,2,0,B|112:160|36:172,1,110,8|10
68,288,51367,6,0,B|172:288,1,82.5,8|8
228,232,51944,5,10
280,84,52405,1,8
392,208,52867,2,8,B|392:304,2,82.5,10|8|8
392,128,53790,6,8,B|453:128,4,55
76,192,56098,6,0,B|204:192,1,110,0|12
340,96,57021,1,8
488,152,57482,5,14
428,292,57944,2,0,B|376:348,1,55,8|8
352,256,58405,2,0,B|244:256,2,82.5,10|8|8
352,176,59328,1,8
392,44,59790,5,8
272,116,60251,2,0,B|140:116,1,110,10|8
68,252,61174,1,10
212,312,61636,2,0,B|176:360,2,55,8|8|8
324,312,62444,6,0,B|380:324|424:296,1,82.5,8|8
368,232,63021,2,0,B|240:232,1,110,14|8
280,100,63944,6,0,B|352:100,2,55,8|8|8
448,100,64867,6,0,B|408:168,1,55,8|8
412,232,65328,1,8
296,336,65790,2,8,B|192:336,2,82.5,10|8|8
296,336,66713,1,8
316,204,67174,6,0,B|240:204,1,55,8|8
196,156,67636,2,0,B|152:204|152:280,1,110,10|8
16,188,68559,5,8
116,104,69021,2,0,B|168:52,1,55,8|8
240,68,69482,1,10
400,136,69944,2,10,B|368:192,1,55
296,224,70405,2,0,B|296:300,2,55,10|10|10
184,180,71328,6,0,B|232:144,2,55,12|8|8
72,220,72251,5,8
148,348,72713,2,0,B|216:348,1,55,8|8
256,284,73174,2,0,B|256:176,2,82.5,10|8|8
308,348,74098,1,14
462,290,74559,2,0,B|480:230|456:182,1,110,8|8
291,171,75482,6,0,B|291:95,1,55,8|8
212,89,75944,1,8
274,35,76174,2,0,B|350:35,1,55,8|8
377,193,76867,6,0,B|426:212|452:268,1,110,8|8
450,103,77790,1,12
293,156,78251,6,0,B|234:134|185:155,1,110,8|8
321,249,79174,2,0,B|341:321,2,55,8|8|8
156,233,80098,1,8
56,104,80559,2,8,B|138:104,2,82.5,8|8|8
56,188,81482,1,8
220,164,81944,6,0,B|269:143|327:164,1,110,8|8
444,48,82867,6,0,B|463:97|440:154,1,110,8|8
412,352,83790,2,0,B|419:290|387:247,1,110,8|8
236,188,84713,5,8
292,344,85174,2,0,B|232:356|168:332,1,110,10|8
148,176,86097,5,10
64,316,86559,1,10
224,280,87021,6,0,B|273:259|331:280,1,110,8|8
252,136,87944,6,0,B|272:68,4,55,8|8|8|8|8
