osu file format v9

[General]
AudioFilename: You (TV_Size).mp3
AudioLeadIn: 1511
PreviewTime: 55850
Countdown: 0
SampleSet: Soft
StackLeniency: 0.7
Mode: 0
LetterboxInBreaks: 1

[Editor]
Bookmarks: 2081,11311,26081,40850,55619,71311,88850
DistanceSpacing: 0.8
BeatDivisor: 4
GridSize: 4

[Metadata]
Title:You (TV Size)
Artist:YURIA
Creator:Giffen
Version:Insane
Source:Shuffle!
Tags:piscis opening CXu

[Difficulty]
HPDrainRate:7
CircleSize:4
OverallDifficulty:7
ApproachRate:8
SliderMultiplier:1.8
SliderTickRate:2

[Events]
//Background and Video events
0,0,"shuffle-008.jpg"
Video,299,"SHUFFLE -Opening - (YURIA YOU).avi"
//Break Periods
//Storyboard Layer 0 (Background)
//Storyboard Layer 1 (Fail)
//Storyboard Layer 2 (Pass)
//Storyboard Layer 3 (Foreground)
Sprite,Foreground,Centre,"shuffle.png",320,240 M,0,48696,48927,320,240 F,0,48696,48927,0,1 M,0,48927,49927,320,240 F,0,48927,49927,1 M,0,49927,50081,320,240,320,239 F,0,49927,50081,1,0
//Storyboard Sound Samples
//Background Colour Transformations
3,100,0,0,0

[TimingPoints]
2098,461.538461538462,4,2,1,60,1,0
3021,-133.333333333333,4,2,1,60,0,0
7636,-100,4,2,1,60,0,0
11311,-200,4,2,1,70,0,0
12251,-100,4,2,1,70,0,0
33482,-100,4,2,1,70,0,0
33713,-100,4,2,1,70,0,0
40867,-133.333333333333,4,2,1,71,0,0
42713,-133.333333333333,4,2,1,60,0,0
43636,-100,4,2,1,71,0,0
44559,-100,4,2,1,70,0,0
48251,-133.333333333333,4,2,1,70,0,0
56098,-133.333333333333,4,2,1,70,0,0
56559,461.538461538462,4,2,1,60,1,0
56559,-100,4,2,1,70,0,1
85174,-200,4,2,1,70,0,1
86098,-100,4,2,1,70,0,1
88867,-100,4,2,1,70,0,0

[Colours]
Combo1 : 128,255,128
Combo2 : 255,74,74
Combo3 : 205,155,255

[HitObjects]
192,192,2098,1,14
360,104,3021,6,0,B|412:112|443:161,2,101.249996982515,10|2|2
296,152,3944,1,10
280,280,4290,1,2
408,240,4636,1,2
484,240,4867,1,10
384,104,5328,5,0
280,104,5559,1,0
256,104,5674,1,0
232,104,5790,2,0,B|152:112|112:168,1,134.999995976687,10|0
40,292,6482,1,0
64,292,6598,1,0
92,292,6713,2,0,B|164:288|212:228,1,134.999995976687,10|0
209,232,7405,1,2
256,192,7636,12,0,9251
300,84,11328,5,6
352,144,11559,1,0
352,224,11790,1,8
400,288,12021,1,0
400,288,12251,2,0,B|490:288,2,90,2|0|8
320,296,12944,1,0
320,296,13174,5,2
240,292,13405,1,0
160,296,13636,1,8
88,336,13867,1,0
72,312,13982,1,0
64,280,14097,2,0,B|64:145,2,135,10|8|14
144,208,15021,6,0,B|176:144|248:112,2,135,10|8|8
264,192,15944,2,0,B|399:192,2,135,8|8|8
304,112,16867,1,10
304,112,17098,1,8
376,72,17328,1,0
456,52,17559,1,8
424,128,17790,5,8
424,144,17905,1,8
424,160,18021,1,8
424,176,18136,1,8
424,192,18251,1,8
424,208,18367,1,8
424,224,18482,1,8
424,240,18598,1,8
423,257,18713,6,0,B|412:304|352:336,1,90,14|8
212,336,19174,2,0,B|232:288|290:264,1,90,8|8
248,100,19636,2,0,B|248:148|301:192,2,90,8|8|8
192,40,20328,1,8
112,56,20559,5,10
24,176,20790,1,0
168,192,21021,1,8
136,80,21251,1,0
48,200,21482,1,8
192,216,21713,1,0
264,176,21944,1,8
336,136,22174,1,8
336,216,22405,6,8,B|426:216,1,90,10|8
296,280,22867,2,0,B|206:280,1,90,8|8
336,344,23328,2,8,B|384:348|424:328,2,90,10|8|8
244,344,24021,1,10
216,268,24251,1,10
192,268,24367,1,8
168,268,24482,1,8
144,268,24598,1,8
120,268,24713,6,8,B|72:268|34:291,1,90
92,192,25251,1,8
232,116,25482,1,8
376,176,25713,1,8
264,212,26098,6,0,B|272:264|320:291,2,90,14|0|8
344,68,26790,2,0,B|300:102|303:155,1,90,0|8
232,208,27251,2,0,B|192:192|179:138,1,90,0|8
119,228,27713,1,0
92,324,27944,6,0,B|55:281|13:286,2,90,8|8|8
168,352,28636,1,0
216,252,28867,1,10
292,336,29098,1,0
216,252,29328,1,8
266,172,29559,1,0
344,228,29790,6,0,B|388:248|440:224,1,90,8|0
388,156,30251,1,8
396,44,30482,1,0
292,92,30713,1,10
292,92,30944,2,0,B|202:92,1,90,0|8
140,140,31405,1,8
80,192,31636,5,10
256,296,31982,1,8
432,192,32328,1,8
464,112,32559,5,10
376,124,32790,1,8
376,124,32905,1,8
376,124,33021,2,0,B|328:131|302:171,1,90,8|0
312,248,33482,1,14
232,248,33713,1,0
232,248,33944,5,8
151,242,34174,1,0
151,242,34290,1,0
151,242,34405,2,0,B|100:240|60:273,2,90,8|0|8
140,152,35098,1,0
190,76,35328,1,10
276,56,35559,1,0
280,139,35790,5,8
300,220,36021,1,0
376,256,36251,1,10
416,256,36367,1,0
436,216,36482,2,0,B|483:208|514:160,2,90,8|8|8
324,168,37174,5,10
288,160,37290,1,0
252,172,37405,2,0,B|203:171|165:214,2,90,0|8|0
312,88,38098,1,10
352,96,38213,1,0
388,84,38328,2,0,B|435:75|464:25,2,90,8|8|8
312,88,39021,5,14
192,280,39367,1,8
80,80,39713,1,8
56,160,39944,5,10
72,168,40059,1,10
88,176,40174,1,10
104,184,40290,1,10
120,192,40405,1,14
136,200,40521,1,10
152,208,40636,1,10
168,216,40751,1,10
184,224,40867,6,0,B|248:260|328:248,2,134.999995976687,14|10|10
252,168,42021,1,0
324,128,42251,1,10
324,128,42482,1,0
408,144,42713,5,8
400,160,42828,1,8
392,176,42944,1,8
384,192,43059,1,8
376,208,43174,1,8
368,224,43290,1,8
360,240,43405,1,8
352,256,43521,1,8
344,272,43636,6,0,B|304:328|220:344,2,135,14|10|10
240,256,44559,2,0,B|168:272|104:256,1,135,10|0
72,260,45021,2,0,B|131:212|150:150,1,135,10|0
116,140,45482,2,8,B|188:124|252:140,2,135,10|2|10
120,180,46405,6,0,B|56:164|0:108,2,135,12|8|8
160,112,47328,5,10
180,100,47444,1,8
200,96,47559,1,8
220,96,47674,1,8
240,104,47790,1,8
260,112,47905,1,8
280,116,48021,1,8
300,112,48136,1,8
320,104,48251,5,8
448,44,48713,1,8
432,192,49174,1,8
256,192,49521,1,8
80,192,49867,1,8
48,264,50098,5,10
16,336,50328,1,0
100,328,50559,2,8,B|169:351|245:324,1,134.999995976687,8|8
412,328,51367,1,10
464,152,51713,1,8
360,152,51944,5,10
344,152,52059,1,8
328,152,52174,1,8
312,152,52290,1,8
296,152,52405,1,8
280,152,52521,1,8
264,152,52636,1,8
248,152,52751,1,8
232,152,52867,6,8,B|176:160|128:208,2,101.249996982515,10|8|8
252,230,53790,5,10
252,246,53905,1,10
252,262,54021,1,10
252,278,54136,1,10
252,294,54251,1,10
252,310,54367,1,10
252,326,54482,1,10
252,342,54598,1,10
104,240,56098,5,6
240,80,56559,5,10
296,136,56790,1,8
296,216,57021,1,8
296,296,57251,1,8
368,256,57482,6,0,B|416:240|432:192,1,90,12|8
225,256,57944,2,0,B|177:272|153:312,1,90,0|8
364,344,58405,2,0,B|454:344,2,90,2|8|0
284,344,59098,1,8
372,248,59328,1,6
372,248,59559,1,8
252,156,59790,5,8
252,156,60021,1,8
176,272,60251,2,0,B|128:288|96:344,2,90,10|8|10
88,236,60944,1,8
36,168,61174,5,14
76,96,61405,1,8
124,160,61636,2,0,B|214:160,1,90,8|8
214,160,61982,1,0
214,160,62098,1,10
356,56,62444,5,8
400,224,62790,1,8
336,272,63021,2,0,B|360:316|328:372,1,90,14|8
244,224,63482,1,8
160,264,63713,1,8
160,264,63828,1,0
160,264,63944,6,0,B|144:312|96:336,1,90,14|8
64,212,64405,1,0
40,96,64636,1,8
40,96,64751,1,0
40,96,64867,2,0,B|64:48|112:16,1,90,2|8
172,44,65328,1,0
180,120,65559,1,8
208,192,65790,5,10
376,96,66136,1,8
376,280,66482,1,8
308,332,66713,6,0,B|218:332,1,90,14|8
264,248,67174,2,0,B|288:208|352:192,1,90,8|8
464,88,67636,2,0,B|464:268,1,180,8|8
416,336,68328,1,8
360,280,68559,5,2
304,224,68790,1,8
380,208,69021,2,0,B|392:160|372:104,1,90,0|8
288,136,69482,1,8
272,144,69598,1,8
256,152,69713,1,8
240,160,69828,1,8
224,168,69944,1,8
208,176,70059,1,8
192,184,70174,1,8
176,192,70290,1,8
160,200,70405,6,0,B|120:224|40:220,2,90,12|10|8
160,304,71098,1,8
160,304,71213,1,0
160,304,71328,2,0,B|250:304,1,90,4|8
336,304,71790,1,0
420,292,72021,1,8
472,224,72251,1,2
464,140,72482,1,8
464,140,72713,5,0
392,188,72944,1,8
392,188,73174,2,0,B|257:188,2,135,14|12|8
464,140,74098,1,14
344,104,74328,1,8
216,128,74559,1,0
96,104,74790,1,8
96,104,74905,1,0
96,104,75021,6,0,B|56:128|32:184,1,90,10|8
89,341,75482,2,0,B|136:320|152:272,1,90,0|8
184,208,75944,1,2
224,140,76174,2,0,B|245:93|294:78,1,90,8|8
364,72,76636,1,8
432,104,76867,5,10
328,244,77213,1,8
236,96,77559,1,8
236,96,77674,1,0
236,96,77790,2,0,B|146:96,2,90,14|8|0
300,148,78482,1,8
372,116,78713,1,2
396,140,78828,1,0
424,164,78944,1,8
452,188,79059,1,0
476,212,79174,6,0,B|476:312,2,90,0|8|2
392,240,79867,1,8
304,232,80098,5,0
216,240,80328,1,8
128,232,80559,1,10
164,32,80905,1,8
324,172,81251,1,8
404,204,81482,2,0,B|416:256|396:308,1,90,14|8
328,328,81944,1,8
232,168,82174,1,8
232,168,82290,1,0
232,168,82405,6,0,B|208:216|216:264,1,90,2|8
132,244,82867,1,0
176,320,83097,1,8
92,320,83328,5,2
28,164,83559,2,0,B|12:212|28:268,1,90,8|0
80,96,84021,1,8
136,160,84251,1,10
152,160,84367,1,8
168,160,84482,1,8
184,160,84597,1,8
200,160,84713,1,8
216,160,84828,1,8
232,160,84944,1,8
248,160,85059,1,8
264,160,85174,6,0,B|352:160,1,90,14|8
88,272,86097,5,10
220,264,86328,1,0
140,148,86559,1,8
196,272,86790,1,0
60,272,87021,5,14
116,148,87251,1,0
216,236,87482,1,8
336,104,87944,5,10
364,112,88059,1,8
388,124,88174,1,8
408,136,88290,1,8
348,200,88521,1,8
332,220,88636,1,8
316,240,88751,1,14
