osu file format v9

[General]
AudioFilename: You (TV_Size).mp3
AudioLeadIn: 1511
PreviewTime: 55850
Countdown: 0
SampleSet: Soft
StackLeniency: 0.7
Mode: 0
LetterboxInBreaks: 1

[Editor]
Bookmarks: 2081,11311,26081,40850,55619,71311,88850
DistanceSpacing: 0.8
BeatDivisor: 4
GridSize: 4

[Metadata]
Title:You (TV Size)
Artist:YURIA
Creator:Giffen
Version:Hard
Source:Shuffle!
Tags:piscis opening CXu

[Difficulty]
HPDrainRate:5
CircleSize:4
OverallDifficulty:6
ApproachRate:7
SliderMultiplier:1.4
SliderTickRate:2

[Events]
//Background and Video events
0,0,"shuffle-008.jpg"
Video,299,"SHUFFLE -Opening - (YURIA YOU).avi"
//Break Periods
//Storyboard Layer 0 (Background)
//Storyboard Layer 1 (Fail)
//Storyboard Layer 2 (Pass)
//Storyboard Layer 3 (Foreground)
Sprite,Foreground,Centre,"shuffle.png",320,240 M,0,48696,48927,320,240 F,0,48696,48927,0,1 M,0,48927,49927,320,240 F,0,48927,49927,1 M,0,49927,50081,320,240,320,239 F,0,49927,50081,1,0
//Storyboard Sound Samples
//Background Colour Transformations
3,100,0,0,0

[TimingPoints]
2098,461.538461538462,4,2,1,70,1,0
3021,-100,4,2,1,70,0,0
6021,-76.9230769230769,4,2,1,70,0,0
6251,-100,4,2,1,70,0,0
6944,-76.9230769230769,4,2,1,70,0,0
7174,-100,4,2,1,70,0,0
7867,-76.9230769230769,4,2,1,70,0,0
8559,-133.333333333333,4,2,1,70,0,0
12251,-76.9230769230769,4,2,1,70,0,0
40867,-100,4,2,1,70,0,0
43636,-76.9230769230769,4,2,1,70,0,0
48251,-100,4,2,1,70,0,0
56559,461.538461538462,4,2,1,70,1,0
56559,-76.9230769230769,4,2,1,70,0,1
85174,-100,4,2,1,70,0,1
87943,-100,4,2,1,70,0,1
88867,-76.9230769230769,4,2,1,70,0,0

[Colours]
Combo1 : 128,255,128
Combo2 : 255,74,74
Combo3 : 205,155,255

[HitObjects]
256,192,2098,1,14
308,260,3021,6,0,B|376:256|404:324,2,105,10|2|2
284,332,3944,2,0,B|220:336|196:280,2,105,10|2|2
360,332,4867,1,12
312,192,5328,5,0
312,192,5559,2,0,B|312:227,2,35,0|0|10
224,192,6251,1,0
224,192,6482,2,0,B|224:157,2,35,0|0|10
136,192,7174,1,0
136,192,7405,2,0,B|136:227,2,35,0|0|10
180,296,8098,1,0
256,192,8559,6,2,B|336:212|416:192,2,157.499995306134,2|2|10
140,144,10867,1,8
144,264,11328,5,6
216,280,11559,1,0
288,264,11790,1,8
360,288,12021,1,0
360,288,12251,6,0,B|408:300|434:339,2,90.9999983727932,8|0|8
344,216,12944,1,0
288,264,13174,2,0,B|288:355,2,90.9999983727932,8|0|8
272,192,13867,1,0
216,240,14097,2,8,B|79:240,2,136.49999755919,8|8|8
288,264,15021,6,0,B|328:264|328:264|376:248|408:168,2,136.49999755919,10|8|8
232,208,15944,2,0,B|192:208|192:208|144:224|112:304,2,136.49999755919,10|8|8
192,136,16867,1,14
232,72,17098,1,8
232,72,17328,1,0
272,136,17559,1,8
272,136,17790,2,8,B|317:136,6,45.4999991863966
272,136,18713,6,0,B|284:192|340:216,1,90.9999983727932,14|8
196,104,19174,2,0,B|198:61|248:32,1,90.9999983727932,8|0
112,108,19636,2,8,B|118:164|171:194,2,90.9999983727932,8|0|0
196,104,20328,1,8
240,180,20559,5,10
240,264,20790,1,8
312,304,21021,1,8
240,344,21251,1,0
176,304,21482,1,2
112,344,21713,1,8
108,272,21944,2,0,B|17:272,1,90.9999983727932,0|8
176,232,22405,6,8,B|267:232,1,90.9999983727932,10|8
176,160,22867,2,0,B|85:160,1,90.9999983727932,0|8
272,160,23328,2,0,B|332:156|364:220,2,90.9999983727932,2|8|0
200,200,24021,1,10
200,272,24251,1,10
224,272,24367,1,8
248,272,24482,1,8
272,272,24598,1,8
296,272,24713,6,0,B|392:272,1,90.9999983727932,8|8
320,192,25290,6,0,B|320:96,1,90.9999983727932,8|8
376,52,25751,1,8
420,176,26098,6,0,B|448:224|500:248,2,90.9999983727932,10|0|8
328,212,26790,2,0,B|280:244|272:296,1,90.9999983727932,0|10
372,284,27251,2,0,B|365:335|400:368,1,90.9999983727932,0|8
452,300,27713,1,0
432,228,27944,2,0,B|484:220|516:176,2,90.9999983727932,14|0|8
376,172,28636,1,0
300,144,28867,1,10
224,164,29098,1,0
168,216,29328,5,8
152,136,29559,1,0
84,100,29790,1,10
16,132,30021,1,0
76,184,30251,1,8
0,204,30482,1,0
60,260,30713,1,10
128,304,30944,2,0,B|222:304,1,90.9999983727932,0|8
284,260,31405,1,8
360,268,31636,6,0,B|439:248|452:164,2,136.49999755919,14|8|8
256,192,32559,5,10
372,152,32790,1,8
372,152,32905,1,8
372,152,33021,2,0,B|372:61,2,90.9999983727932,14|0|14
372,228,33713,5,0
328,324,33944,1,8
284,228,34174,1,0
240,328,34405,1,10
196,228,34636,1,0
184,152,34867,2,0,B|200:104|249:93,2,90.9999983727932,8|0|8
120,204,35559,2,0,B|104:252|54:262,2,90.9999983727932,8|0|8
152,292,36251,1,10
152,292,36367,1,0
152,292,36482,6,8,B|175:334|226:336,2,90.9999983727932,8|0|0
192,224,37174,5,10
268,224,37405,2,0,B|359:224,2,90.9999983727932,0|8|0
236,292,38098,1,10
236,292,38213,1,0
236,292,38328,2,0,B|264:340|336:328,2,90.9999983727932,0|8|8
160,292,39021,5,14
148,80,39367,1,8
348,148,39713,1,8
376,220,39944,1,10
356,228,40059,1,10
336,236,40174,1,10
316,244,40290,1,10
296,252,40405,2,10,B|250:252,2,45.4999991863966
272,180,40867,6,10,B|260:104|332:64,3,140,10|8|10|8
404,104,42482,1,8
404,184,42713,1,10
404,200,42828,1,8
404,216,42944,1,8
404,232,43059,1,8
404,248,43174,2,8,B|404:283,3,35
404,280,43636,2,0,B|368:340|276:352,2,136.49999755919,10|8|8
288,244,44559,6,0,B|224:268|164:344,1,136.49999755919,14|0
144,344,45021,2,0,B|144:207,1,136.49999755919,10|0
144,172,45482,2,0,B|208:148|267:72,2,136.49999755919,8|8|8
108,180,46405,2,0,B|108:43,2,136.49999755919,12|8|8
36,184,47328,2,8,B|36:232,6,45.4999991863966
108,256,48251,6,0,B|145:312|233:354,1,136.49999755919,14|0
292,324,48944,1,0
236,268,49174,2,0,B|320:205,2,105,10|8|8
164,232,50098,5,10
164,160,50328,1,0
228,108,50559,2,0,B|368:108,1,140,8|10
384,308,51367,6,0,B|364:256|313:229,1,105,8|8
240,232,51944,1,10
224,232,52059,1,8
208,232,52174,1,8
192,232,52290,1,8
172,232,52405,2,8,B|137:232,3,35,10|8|8|8
136,232,52867,6,8,B|136:127,2,105,10|8|8
136,312,53790,6,8,B|92:352,7,35,10|8|8|8|10|8|8|10
104,240,56098,5,6
192,124,56559,1,8
244,188,56790,1,8
244,264,57021,1,8
288,332,57251,1,8
204,332,57482,5,8
244,264,57713,1,8
312,224,57944,2,0,B|334:186|384:168,1,90.9999983727932,0|8
168,268,58405,6,0,B|77:268,2,90.9999983727932,0|8|0
204,200,59098,1,8
272,164,59328,2,0,B|308:132|368:132,1,90.9999983727932,0|8
356,132,59790,1,0
412,180,60021,1,0
412,180,60136,1,0
412,180,60251,6,0,B|410:272|412:362,1,181.999996745586,8|8
332,364,60944,1,8
248,360,61174,1,14
172,324,61405,1,8
124,260,61636,2,0,B|33:260,1,90.9999983727932,8|10
32,260,61982,1,8
32,260,62098,1,8
220,164,62443,6,0,B|292:164|292:164|352:116,1,136.49999755919,8|8
260,80,63021,2,0,B|176:80,1,84.0000020027161,12|0
64,172,63482,1,12
140,148,63713,1,8
140,172,63828,1,8
140,196,63944,6,0,B|155:243|196:264,1,90.9999983727932,12|8
224,188,64405,1,0
280,136,64636,1,8
304,136,64751,1,8
328,136,64867,2,0,B|419:136,1,90.9999983727932,8|8
476,192,65328,1,0
420,248,65559,1,8
340,232,65790,6,8,B|340:368,2,136.49999755919,10|8|8
284,176,66713,2,0,B|193:176,1,90.9999983727932,14|8
244,252,67174,2,0,B|192:256|176:304,1,90.9999983727932,8|8
100,348,67636,2,0,B|100:166,1,181.999996745586,10|8
132,96,68328,1,8
196,56,68559,5,6
272,32,68790,1,8
348,52,69021,2,0,B|439:52,1,90.9999983727932,0|8
440,128,69482,1,10
440,144,69598,1,10
440,160,69713,1,10
440,176,69828,1,10
440,192,69944,2,10,B|440:237,3,45.4999991863966
440,236,70405,6,0,B|440:288|384:312,2,90.9999983727932,14|10|10
364,236,71098,1,10
364,236,71213,1,2
364,236,71328,2,0,B|272:236,1,90.9999983727932,6|8
224,300,71790,5,0
144,296,72021,1,8
72,240,72251,1,2
28,160,72482,1,8
20,68,72713,5,8
104,112,72944,1,8
104,112,73174,2,0,B|240:112,2,136.49999755919,14|8|8
148,188,74098,1,10
233,192,74328,2,0,B|292:188|308:240,1,90.9999983727932,8|8
232,272,74790,1,10
232,272,74905,1,2
232,272,75021,6,0,B|256:324|324:324,1,90.9999983727932,0|8
444,292,75482,2,0,B|440:344|372:356,1,90.9999983727932,0|8
368,280,75944,1,2
380,208,76174,2,0,B|471:208,1,90.9999983727932,8|2
304,208,76636,1,8
264,144,76867,2,0,B|188:148|148:208,2,136.49999755919,10|8|10
280,128,77674,1,10
296,112,77790,2,0,B|348:108|372:60,2,90.9999983727932,14|10|10
232,64,78482,1,8
156,80,78713,5,10
80,64,78944,1,8
108,136,79174,2,0,B|108:227,2,90.9999983727932,0|8|2
184,148,79867,1,8
184,148,80098,1,0
256,164,80328,1,8
256,164,80559,6,8,B|324:192|344:268,2,136.49999755919,10|8|8
204,220,81482,2,0,B|200:276|144:308,2,90.9999983727932,14|8|8
152,164,82174,5,10
152,164,82290,1,2
152,164,82405,2,0,B|61:164,1,90.9999983727932,10|10
20,100,82867,1,0
84,60,83097,1,8
160,60,83328,1,2
236,60,83559,2,0,B|256:107|232:148,1,90.9999983727932,8|0
320,112,84021,1,8
396,140,84251,5,10
396,156,84367,1,8
396,172,84482,1,8
396,188,84597,1,8
396,204,84713,2,8,B|396:249,3,45.4999991863966,10|8|8|8
396,248,85174,2,0,B|392:332|320:364,1,140,14|8
128,264,86097,5,10
208,248,86328,1,0
208,248,86559,1,10
264,196,86790,1,0
264,196,87021,5,14
292,128,87251,1,0
288,56,87482,1,10
392,120,87944,6,8,B|428:120,3,35,8|8|8|8
388,196,88521,1,8
388,212,88636,1,8
388,228,88751,1,14
