osu file format v9

[General]
AudioFilename: scramble!.mp3
AudioLeadIn: 0
PreviewTime: 112485
Countdown: 0
SampleSet: Normal
StackLeniency: 0.5
Mode: 0
LetterboxInBreaks: 1

[Editor]
DistanceSpacing: 1.4
BeatDivisor: 4
GridSize: 8

[Metadata]
Title:SCRAMBLE!
Artist:YURIA
Creator:rEdo
Version:Insane
Source:Shuffle!
Tags:shaffuru navel visual novel

[Difficulty]
HPDrainRate:8
CircleSize:3
OverallDifficulty:7
ApproachRate:8
SliderMultiplier:2.1
SliderTickRate:1

[Events]
//Background and Video events
0,0,"girlsinsquareslol.jpg"
//Break Periods
2,80176,87455
2,151491,153284
2,154234,158769
2,184405,194427
//Storyboard Layer 0 (Background)
//Storyboard Layer 1 (Fail)
//Storyboard Layer 2 (Pass)
//Storyboard Layer 3 (Foreground)
//Storyboard Sound Samples
//Background Colour Transformations
3,100,163,162,255

[TimingPoints]
3177,342.857142857143,4,1,1,100,1,0
5834,-100,4,1,1,70,0,0
16805,-100,4,1,1,100,0,0
18348,-100,4,1,1,1,0,0
19462,-100,4,1,1,100,0,1
19463,-100,4,1,1,70,0,0
40291,-100,4,1,1,100,0,0
41148,-100,4,1,1,70,0,0
41491,-200,4,1,1,70,0,0
41834,-200,4,2,1,50,0,0
52462,-100,4,1,1,100,0,0
55205,-100,4,1,1,70,0,0
55291,-100,4,1,1,70,0,1
77234,-100,4,1,1,70,0,0
79891,-100,4,1,1,1,0,0
88119,-100,4,1,1,100,0,0
89662,-100,4,1,1,1,0,0
90776,-100,4,1,1,100,0,1
90777,-100,4,1,1,70,0,0
111605,-100,4,1,1,100,0,0
112462,-100,4,1,1,70,0,0
112802,-200,4,1,1,70,0,0
113148,-200,4,2,1,50,0,0
123776,-100,4,1,1,100,0,0
126519,-100,4,1,1,70,0,0
126605,-100,4,1,1,70,0,1
148548,-100,4,1,1,70,0,0
148634,-100,4,2,1,50,0,0
151205,-100,4,2,1,1,0,0
153948,-100,4,2,1,100,0,0
159434,-100,4,1,1,100,0,0
163119,-100,4,1,1,70,0,0
182919,-100,4,1,1,100,0,0
183777,-100,4,1,1,70,0,0
184119,-100,4,1,1,100,0,0
196462,-100,4,1,1,1,0,0
197834,-100,4,1,1,100,0,0
200577,-100,4,1,1,70,0,0
200662,-100,4,1,1,70,0,1
222604,-100,4,1,1,70,0,0
222605,-100,4,1,1,70,0,1
244547,-100,4,1,1,70,0,0
244548,-100,4,1,1,70,0,1
244549,-100,4,1,1,70,0,0
255434,-100,4,1,1,100,0,0
256977,-100,4,1,1,1,0,0
258091,-100,4,1,1,100,0,1
258092,-100,4,1,1,100,0,0

[Colours]
Combo1 : 124,83,161
Combo2 : 187,130,130
Combo3 : 91,124,195
Combo4 : 247,175,117
Combo5 : 140,207,92

[HitObjects]
256,48,3177,5,2
416,328,3691,1,2
104,328,4205,1,2
280,99,4719,1,2
136,160,4891,1,2
216,296,5062,1,2
368,240,5234,1,2
80,72,5919,6,0,B|168:168|64:280,1,210,4|8
168,320,6434,1,0
216,224,6605,1,0
272,136,6776,1,0
344,64,6948,1,8
416,136,7119,1,0
360,336,7462,1,0
312,240,7634,1,8
248,160,7805,1,0
152,112,7976,2,0,B|66:204|151:299,1,210,0|8
328,296,8662,6,0,B|416:200|312:80,1,210,0|8
248,296,9348,1,0
200,200,9519,1,0
56,296,9862,2,0,B|-32:200|72:80,1,210,8|0
136,296,10548,1,0
176,200,10719,1,0
352,320,11062,1,8
400,96,11405,6,0,B|400:160|320:184|248:168|256:56,1,210,0|8
163,52,11919,1,0
67,100,12091,1,0
163,148,12262,1,0
259,100,12434,1,8
251,204,12605,1,0
48,272,12948,1,0
136,336,13119,1,8
248,352,13291,1,0
352,320,13462,2,0,B|456:320|496:256|496:176,1,210,0|8
368,32,14148,6,0,B|248:32,1,105
168,72,14491,1,8
248,136,14662,1,0
152,176,14834,1,0
72,112,15005,1,0
104,280,15348,1,8
256,360,15691,1,0
256,360,15862,2,0,B|448:256|296:128|120:248|288:424|424:248,1,420,8|0
447,137,16891,5,2
390,284,17062,1,2
256,48,17405,1,2
256,208,17577,1,2
65,136,17919,1,2
122,284,18091,1,2
256,192,18434,12,6,19462
144,96,19977,5,8
72,16,20148,1,0
40,112,20319,1,0
104,192,20491,2,0,B|119:278|207:319|281:274,1,210
249,73,21177,1,0
217,177,21348,1,8
432,104,21691,1,0
392,312,22034,1,0
200,368,22377,6,0,B|110:425|32:360|46:267,1,210,0|8
144,280,22891,1,0
80,200,23062,1,0
184,184,23234,2,0,B|177:115|96:88,2,105,0|0|0
248,272,23748,5,0
352,304,23919,1,0
336,200,24091,1,10
432,168,24262,1,0
352,104,24434,1,0
248,136,24605,1,0
352,104,24777,1,10
264,40,24948,1,0
160,72,25119,6,0,B|72:104|56:216|128:280,1,210,0|8
184,312,25634,1,0
288,344,25805,1,0
264,240,25977,1,0
472,248,26319,2,0,B|504:168|440:80|352:88,1,210
280,72,26834,1,8
152,240,27177,1,0
360,272,27519,1,0
280,72,27862,6,0,B|206:60|135:107|153:195,1,210,0|8
80,272,28377,1,0
184,296,28548,1,0
152,192,28719,2,0,B|128:136|64:128,2,105,0|0|0
256,192,29234,5,0
232,88,29405,1,0
336,120,29577,1,10
360,224,29748,1,0
256,192,29919,1,0
280,296,30091,1,0
176,264,30262,1,10
144,160,30434,1,0
120,56,30605,6,0,B|48:80|16:176|72:240,1,210,0|8
144,160,31119,1,0
224,88,31291,1,0
120,56,31462,1,0
288,176,31805,2,0,B|304:256|216:320|144:240,1,210
48,232,32319,1,8
120,152,32491,1,0
155,251,32662,1,0
0,104,33005,1,0
208,56,33348,6,0,B|380:51|384:216,1,210,0|8
480,128,33862,1,0
374,153,34034,1,0
448,232,34205,2,0,B|440:292|492:331,2,105,0|0|0
352,272,34719,5,0
248,288,34891,1,0
288,192,35062,1,10
184,200,35234,1,0
104,272,35405,1,0
80,168,35577,1,0
160,96,35748,1,10
184,200,35919,1,0
264,128,36091,6,0,B|304:64|352:72|400:64|448:144,1,210,0|8
476,224,36605,1,0
373,205,36776,1,0
436,127,36948,1,0
312,296,37291,2,0,B|256:344|168:328|128:256|160:216,1,210
248,208,37805,1,8
248,16,38148,1,0
64,112,38491,1,0
112,320,38834,5,0
264,176,39176,1,8
64,112,39519,1,0
112,320,39862,1,8
112,320,40034,1,0
360,208,40376,5,2
216,264,40548,1,2
296,128,40719,1,2
152,184,40891,1,2
288,344,41234,5,0
392,328,41405,1,0
464,248,41576,2,0,B|512:192|432:128,1,105,4|0
376,88,42262,1,8
368,192,42605,1,0
464,152,42948,2,0,B|344:64,1,105
272,88,43634,6,0,B|268:63|231:47|196:64|192:96,1,105,8|0
176,140,44148,1,0
159,189,44319,1,0
64,232,44662,1,0
144,296,45005,1,8
240,256,45348,2,0,B|243:195|299:170,2,105
328,304,46376,1,8
368,272,46548,1,0
408,232,46719,1,0
440,192,46891,1,0
464,144,47062,6,0,B|440:56|352:56,1,105,4|0
328,144,47748,1,8
280,48,48091,1,0
232,64,48262,1,0
181,80,48434,1,0
152,184,48776,1,0
72,112,49119,2,0,B|56:56|0:48,2,78.75,8|0|0
72,168,49805,6,0,B|88:232|152:232,1,105
112,336,50491,1,8
144,232,50834,1,0
224,304,51176,2,0,B|272:352|337:315,1,105
376,232,51862,1,8
416,200,52034,1,0
448,160,52205,1,0
464,112,52376,1,0
464,56,52548,5,2
256,368,53062,1,2
48,56,53576,1,2
296,128,54091,1,2
152,184,54262,1,2
360,216,54434,1,2
216,272,54605,1,2
216,272,54948,1,4
446,329,55291,6,0,B|392:248|496:200|438:121,2,210,4|8|0
347,145,56319,1,8
443,129,56491,2,0,B|407:43|304:31|262:120,1,210
168,144,57005,1,8
72,328,57348,1,0
48,120,57691,1,8
248,64,58034,6,0,B|416:104|312:16|456:64,1,210,0|8
400,160,58548,1,0
448,256,58719,2,0,B|448:320|392:360|320:360|280:280,1,210,0|8
208,256,59234,2,0,B|185:203|113:203|57:243|57:307,1,210,0|0
152,344,59748,1,8
152,136,60091,1,0
236,69,60262,1,0
251,169,60434,1,8
448,96,60776,6,0,B|504:248|400:144|452:297,2,210,0|8|0
344,280,61805,1,8
256,216,61976,2,0,B|256:217|188:185|108:224|96:312,1,210
200,328,62491,1,8
48,184,62834,1,0
248,136,63176,1,8
200,328,63519,6,0,B|200:224|290:174|370:228,1,210,0|8
412,283,64034,1,0
312,320,64205,1,0
120,216,64548,1,8
220,179,64719,1,0
400,80,65062,1,0
440,176,65234,1,8
256,272,65576,1,0
168,320,65748,1,0
128,288,65834,1,0
80,272,65919,1,8
168,216,66091,1,0
149,168,66176,1,0
115,130,66262,6,0,B|99:66|160:16|250:34|248:119,2,210,4|8|0
320,184,67291,1,8
416,152,67462,2,0,B|448:208|432:280|360:312|320:288,1,210
232,336,67976,1,8
56,224,68319,1,0
248,128,68662,1,8
232,336,69005,6,0,B|200:280|216:208|288:176|328:200,1,210,0|8
336,296,69519,1,0
424,240,69691,2,0,B|480:168|424:80|352:72|312:120,1,210,0|8
272,168,70205,2,0,B|208:224|104:192|96:104,1,210
200,88,70719,1,8
384,184,71062,1,0
448,264,71234,1,0
344,280,71405,1,8
216,120,71748,6,0,B|350:167|329:-6|406:96,2,210,0|8|0
64,264,72776,1,8
136,336,72948,2,0,B|176:288|168:232|144:176|88:160,1,210
64,264,73462,2,0,B|144:259|193:211|219:117,1,210,8|0
212,136,74148,1,8
400,240,74491,5,0
326,161,74662,1,0
432,138,74834,1,8
400,240,75005,1,0
216,344,75348,1,0
256,136,75691,1,8
72,56,76034,6,0,B|24:104|32:176,1,105,0|8
128,200,76376,1,0
32,240,76548,1,0
112,304,76719,1,0
163,327,76805,1,0
216,336,76891,1,8
268,331,76976,1,0
315,310,77062,1,8
352,273,77148,1,0
367,222,77234,1,4
256,192,77405,12,0,79976
64,224,88205,5,2
121,77,88377,1,2
256,320,88719,1,2
256,160,88891,1,2
448,224,89234,1,2
387,77,89405,1,2
256,192,89748,12,6,90777
432,136,91291,5,8
360,56,91462,1,0
464,32,91634,1,0
432,136,91805,2,0,B|488:232|424:352,1,210
280,192,92491,1,0
360,264,92662,1,8
360,56,93005,1,0
184,168,93348,1,0
360,264,93691,6,0,B|440:264|512:168|456:80,1,210,0|8
376,152,94205,1,0
304,72,94377,1,0
200,96,94548,2,0,B|168:24|48:48|64:144,1,210
152,200,95062,5,0
72,272,95234,1,0
176,304,95405,1,10
256,232,95577,1,0
360,208,95748,1,0
440,280,95919,1,0
336,312,96091,1,10
360,208,96262,1,0
440,280,96434,6,0,B|504:192|448:72,1,210,0|0
248,120,97119,1,0
344,72,97291,1,0
248,24,97462,1,8
152,72,97634,1,0
112,280,97977,1,0
152,184,98148,1,8
304,280,98491,1,0
232,72,98834,1,0
432,128,99177,6,0,B|488:224|424:344,1,210,0|8
328,152,99862,1,0
432,128,100034,2,0,B|464:96|464:32,2,105,0|0|0
400,224,100548,5,0
296,256,100719,1,0
328,152,100891,1,10
224,176,101062,1,0
256,64,101234,1,0
360,48,101405,1,0
328,152,101577,1,10
224,176,101748,1,0
152,96,101919,6,0,B|88:176|128:256|197:280,1,210,0|8
296,256,102434,1,0
328,152,102605,1,0
224,176,102777,1,0
424,240,103119,1,0
275,92,103462,1,0
224,176,103634,1,8
72,32,103977,1,0
24,232,104319,1,0
224,176,104662,6,0,B|185:258|96:222|86:149|165:86,1,210,0|8
336,168,105348,1,0
384,72,105519,2,0,B|442:102|436:180,2,105,0|0|0
336,168,106034,5,0
232,200,106205,1,0
312,272,106377,1,10
416,240,106548,1,0
392,344,106719,1,0
312,272,106891,1,0
208,304,107062,1,10
232,200,107234,1,0
128,224,107405,6,0,B|64:144|120:24|192:56,1,210,0|8
248,112,107919,1,0
264,8,108091,1,0
164,50,108262,1,0
372,75,108605,2,0,B|444:107|476:203|436:283,1,210
352,296,109119,1,8
144,272,109462,1,0
264,112,109805,1,0
352,296,110148,5,0
384,88,110491,1,8
352,296,110834,1,0
176,176,111177,1,8
144,272,111348,1,0
288,48,111691,5,2
317,195,111862,1,2
186,113,112034,1,2
224,272,112205,1,2
16,312,112548,5,0
120,344,112719,1,0
96,240,112891,2,0,B|56:192|96:144,1,105,4|0
40,64,113577,1,8
144,56,113919,1,0
96,144,114262,2,0,B|136:200|224:160,1,105
256,88,114948,5,8
352,48,115291,1,0
408,48,115462,1,0
448,80,115634,2,0,B|496:136|424:208,1,105
352,160,116319,1,8
336,264,116662,2,0,B|359:324|423:322,2,105
240,304,117691,1,8
248,248,117862,1,0
224,200,118034,1,0
176,184,118205,1,0
128,192,118377,6,0,B|96:128|144:72,1,105,4|0
232,112,119062,1,8
312,48,119405,1,0
360,64,119577,1,0
400,96,119748,1,0
320,168,120091,1,0
392,248,120434,2,0,B|424:288|408:336,2,78.75,8|0|0
344,248,121119,6,0,B|248:248|248:152,1,105
344,144,121805,1,8
248,104,122148,1,0
144,120,122491,2,0,B|113:181|162:238,1,105
245,264,123177,1,8
281,302,123348,1,0
327,326,123519,1,0
379,334,123691,1,0
432,328,123862,5,2
256,40,124377,1,2
80,328,124891,1,2
360,208,125405,1,2
216,264,125577,1,2
296,128,125748,1,2
152,184,125919,1,2
152,184,126262,1,4
446,55,126605,6,0,B|392:136|496:184|438:263,2,210,4|8|0
347,239,127634,1,8
443,255,127805,2,0,B|407:341|304:353|262:264,1,210
168,240,128319,1,8
72,56,128662,1,0
48,264,129005,1,8
248,320,129348,6,0,B|416:280|312:368|456:320,1,210,0|8
400,224,129862,1,0
448,128,130034,2,0,B|448:64|392:24|320:24|280:104,1,210,0|8
208,128,130548,2,0,B|185:181|113:181|57:141|57:77,1,210,0|0
152,40,131062,1,8
152,248,131405,1,0
236,315,131577,1,0
251,215,131748,1,8
448,288,132091,6,0,B|504:136|400:240|452:87,2,210,0|8|0
344,104,133119,1,8
256,168,133291,2,0,B|256:167|188:199|108:160|96:72,1,210
200,56,133805,1,8
48,200,134148,1,0
248,248,134491,1,8
200,56,134834,6,0,B|200:160|290:210|370:156,1,210,0|8
412,101,135348,1,0
312,64,135519,1,0
120,168,135862,1,8
220,205,136034,1,0
400,304,136377,1,0
440,208,136548,1,8
256,112,136891,1,0
177,42,137062,1,0
74,65,137234,1,8
55,168,137405,1,0
115,254,137577,6,0,B|99:318|160:368|250:350|248:265,2,210,4|8|0
320,200,138605,1,8
416,232,138777,2,0,B|448:176|432:104|360:72|320:96,1,210
232,48,139291,1,8
56,160,139634,1,0
248,256,139977,1,8
232,48,140319,6,0,B|200:104|216:176|288:208|328:184,1,210,0|8
336,88,140834,1,0
424,144,141005,2,0,B|480:216|424:304|352:312|312:264,1,210,0|8
272,216,141519,2,0,B|208:160|104:192|96:280,1,210
200,296,142034,1,8
384,200,142377,1,0
448,120,142548,1,0
344,104,142719,1,8
216,264,143062,6,0,B|350:217|329:390|406:288,2,210,0|8|0
64,120,144091,1,8
136,48,144262,2,0,B|176:96|168:152|144:208|88:224,1,210
64,120,144777,2,0,B|144:125|193:173|219:267,1,210,8|0
212,247,145462,1,8
400,144,145805,5,0
326,223,145977,1,0
432,246,146148,1,8
400,144,146319,1,0
216,40,146662,1,0
256,248,147005,1,8
72,328,147348,6,0,B|24:280|32:208,1,105,0|8
107,38,147862,1,0
215,43,148034,1,0
299,101,148205,1,8
318,202,148377,1,0
262,290,148548,1,4
256,192,148719,12,0,151291
256,192,154034,5,4
64,160,159519,69,2
121,307,159691,1,2
256,64,160034,1,2
256,224,160205,1,2
448,160,160548,1,2
387,307,160719,1,2
256,192,161062,12,0,161919
288,120,162091,6,0,B|331:85|401:122|383:184|375:232|311:256|255:312|255:312|199:256|135:232|119:184|108:126|188:56|238:124|238:124,1,630,0|0
256,16,163291,1,8
360,40,163462,2,0,B|447:60|481:166|421:243,1,210
424,312,163977,1,8
328,266,164148,2,0,B|319:336|215:384|157:328,1,210,0|0
223,248,164662,1,8
431,224,165005,5,0
455,179,165091,1,0
447,129,165177,1,0
368,59,165348,1,8
344,161,165519,1,0
291,155,165605,1,0
243,178,165691,1,0
159,120,165862,2,0,B|113:46|23:80,1,105,0|8
72,176,166205,1,0
96,221,166291,1,0
88,271,166377,2,0,B|192:368|248:200|304:304,1,210,0|8
368,336,166891,1,8
376,232,167062,2,0,B|448:168|432:80|368:40|312:72,1,210,0|8
152,64,167748,6,0,B|212:179|72:80|152:268,1,210,0|8
240,208,168262,1,8
232,312,168434,1,0
143,254,168605,1,0
232,312,168777,2,0,B|304:312|328:248,1,105,8|0
336,160,169119,2,0,B|347:98|444:89,2,105,0|0|8
416,232,169634,2,0,B|472:256|480:320,2,105,8|0|0
320,265,170148,2,0,B|241:237|238:172,1,105,8|0
264,96,170491,6,0,B|301:39|386:67,2,105,0|0|8
344,160,171005,2,0,B|416:168|456:96,1,105,8|0
480,216,171348,1,0
416,304,171519,1,8
312,320,171691,1,0
112,248,172034,1,0
208,208,172205,2,8,B|245:144|331:170,1,105
392,128,172548,1,0
312,320,172891,1,8
112,248,173234,5,0
88,216,173319,1,0
96,176,173405,1,0
120,144,173491,1,0
160,136,173577,2,10,B|189:78|269:89,1,105,8|8
344,48,173919,1,0
376,72,174005,1,0
392,112,174091,1,0
400,152,174177,1,0
376,184,174262,1,8
392,224,174348,1,0
384,264,174434,1,0
280,248,174605,5,0
296,208,174691,1,0
296,168,174777,1,0
272,136,174862,1,0
232,120,174948,2,10,B|220:187|144:207,1,105,8|8
136,104,175291,1,0
96,120,175377,1,0
64,152,175462,1,0
48,192,175548,1,0
65,230,175634,1,8
89,263,175719,1,0
94,304,175805,1,0
192,264,175977,5,0
208,224,176062,1,0
240,200,176148,1,0
280,208,176234,1,0
312,176,176319,2,10,B|351:131|414:144,1,105,8|8
464,232,176662,1,0
456,272,176748,1,0
424,296,176834,1,0
384,296,176919,1,0
352,272,177005,1,8
312,264,177091,1,0
272,256,177177,1,0
232,272,177262,1,0
216,312,177348,6,2,B|219:364|153:392|91:365|54:299|58:227|265:238|221:19|112:110,1,420,0|0
361,92,178377,1,8
151,92,178719,6,0,B|81:116|50:247|139:277,1,210,0|8
184,184,179234,1,8
224,280,179405,2,0,B|208:384|94:373,2,157.5,0|8|8
296,200,180091,1,0
432,280,180348,1,8
440,120,180605,2,0,B|411:33|306:14|252:65,1,210,8|0
269,53,181119,1,8
248,264,181462,5,0
337,140,181719,1,8
182,126,181977,1,8
182,126,182148,1,0
85,251,182405,1,8
248,264,182662,1,0
248,264,182834,1,0
392,248,183005,5,2
304,128,183177,1,2
160,144,183348,1,2
248,264,183519,1,2
252,290,183862,1,0
256,316,184205,1,4
256,48,195177,5,2
104,328,195691,1,2
416,328,196205,1,2
256,192,196548,12,0,197577
256,336,197919,5,2
416,56,198434,1,2
104,56,198948,1,2
320,288,199462,1,2
304,120,199634,1,2
208,264,199805,1,2
192,96,199977,1,2
192,96,200319,1,4
40,336,200662,6,0,B|1:258|37:158|152:150,2,210,4|8|0
184,184,201691,1,8
128,272,201862,2,0,B|217:321|323:229|286:154,1,210
376,264,202377,1,8
184,184,202719,1,0
352,64,203062,1,8
376,264,203405,6,0,B|352:344|248:368|160:288,1,210,0|8
96,336,203919,1,0
128,232,204091,2,0,B|72:160|120:64|216:72,1,210,0|8
216,176,204605,2,0,B|280:240|383:189|364:95,1,210
288,48,205119,1,8
464,160,205462,1,0
480,264,205634,1,0
384,224,205805,1,8
200,328,206148,6,0,B|143:277|90:397|-2:276,2,210,0|8|0
184,120,207177,1,8
112,48,207348,2,0,B|72:128|80:192|168:224|192:224,1,210
264,184,207862,1,8
456,264,208205,1,0
424,56,208548,1,8
264,184,208891,6,0,B|256:96|140:58|89:118,1,210,0|8
64,200,209405,1,0
168,184,209577,2,0,B|185:96|252:37|332:24,1,210,0|8
352,120,210091,2,0,B|448:192|400:296|336:312,1,210,0|0
320,208,210605,1,8
152,336,210948,1,0
48,352,211119,1,0
58,302,211205,1,0
39,254,211291,1,8
134,217,211462,1,0
126,167,211548,1,0
93,128,211634,6,0,B|112:32|208:16|288:64,2,210,4|8|0
304,128,212662,1,8
376,48,212834,2,0,B|456:80|472:160|428:235,1,210
496,312,213348,2,0,B|424:348|304:294|339:186,1,210,8|0
152,336,214034,1,8
152,120,214377,6,0,B|176:48|296:16|336:80,1,210,0|8
256,152,214891,1,0
176,216,215062,2,0,B|168:304|272:344|360:264,1,210,0|8
418,236,215577,2,0,B|442:148|372:63|282:60,1,210
256,152,216091,1,8
264,360,216434,1,0
368,328,216605,1,0
280,256,216777,1,8
192,64,217119,6,0,B|117:26|21:107|52:209,2,210,0|8|0
360,192,218148,1,8
416,104,218319,2,0,B|478:155|497:236|424:328,1,210
344,312,218834,2,0,B|317:234|162:190|140:268,1,210,8|0
167,235,219519,1,8
264,56,219862,5,0
360,16,220034,1,0
416,104,220205,1,8
320,144,220377,1,0
112,184,220719,1,0
248,344,221062,1,8
320,144,221405,6,0,B|382:143|417:197,1,105,0|8
448,88,221748,1,0
512,172,221919,1,0
480,272,222091,1,0
432,304,222177,1,0
384,312,222262,1,8
336,296,222348,1,0
296,264,222434,1,8
256,232,222519,1,0
208,240,222605,6,0,B|184:304|96:336|24:304,2,210,4|8|0
64,88,223634,1,8
160,40,223805,2,0,B|197:114|156:203|41:198,1,210
128,288,224319,2,0,B|176:352|272:368|341:299,1,210,8|0
488,200,225005,1,8
296,112,225348,6,0,B|272:24|166:15|104:56,1,210,0|8
192,128,225862,1,0
88,136,226034,2,0,B|56:208|104:288|192:296,1,210,0|8
256,224,226548,2,0,B|264:302|345:347|426:310,1,210,0|0
360,224,227062,1,8
184,336,227405,1,0
80,356,227577,1,0
113,259,227748,1,8
256,104,228091,6,0,B|170:39|134:187|47:48|55:50,2,210,0|8|0
408,248,229119,1,8
432,144,229291,2,0,B|344:108|266:201|296:282,1,210
240,344,229805,1,8
32,296,230148,1,0
240,344,230491,1,8
104,184,230834,6,0,B|96:112|176:24|251:52,1,210,0|8
336,32,231348,1,0
296,128,231519,2,0,B|285:184|400:240|460:183,1,210,0|8
376,120,232034,2,0,B|392:212|352:280|256:304,1,210
384,344,232548,1,8
176,344,232891,1,0
88,288,233062,1,0
288,216,233405,1,0
384,256,233577,6,0,B|344:176|384:80|480:88,2,210,4|8|0
208,144,234605,1,8
194,37,234777,2,0,B|104:56|68:161|129:212,1,210
16,168,235291,2,0,B|100:82|212:146,1,210,8|0
400,56,235977,1,8
368,264,236319,6,0,B|352:344|248:376|176:312,1,210,0|8
96,352,236834,1,0
128,248,237005,2,0,B|224:176|208:64,1,210,0|8
112,112,237519,2,0,B|144:184|240:208|320:144,1,210
360,80,238034,1,8
264,264,238377,1,0
370,239,238548,1,0
336,342,238719,1,8
160,232,239062,6,0,B|76:200|41:121|78:47,2,210,0|8|0
336,344,240091,1,8
440,312,240262,2,0,B|384:264|368:192|400:112,1,210
480,184,240777,2,0,B|392:280|272:199,1,210,8|0
224,8,241462,1,8
144,200,241805,5,0
104,104,241977,1,0
32,184,242148,1,8
72,280,242319,1,0
280,312,242662,1,0
208,112,243005,1,8
416,136,243348,5,0
405,185,243434,1,0
381,227,243519,1,8
295,168,243691,1,0
257,201,243777,1,0
233,243,243862,1,0
168,160,244034,1,0
120,144,244119,1,0
72,152,244205,1,8
32,184,244291,1,0
16,232,244377,1,8
24,288,244462,1,0
64,328,244548,6,0,B|256:416|240:264|368:320,1,315,4|0
448,256,245234,1,8
363,319,245405,1,0
344,216,245577,1,0
432,152,245748,1,0
222,131,246091,1,8
416,48,246434,1,0
432,152,246605,1,8
255,265,246948,1,0
104,120,247291,6,0,B|47:181|79:269|135:301,1,210,0|8
200,104,247977,1,8
136,16,248148,1,0
352,32,248491,2,0,B|408:64|440:152|377:221,1,210,0|0
256,48,249177,1,0
320,136,249348,1,8
136,40,249691,1,0
152,248,250034,6,0,B|192:200|242:214|242:214|223:128|307:51|402:122,1,315,4|0
342,201,250719,1,8
370,104,250891,1,0
443,172,251062,1,0
414,269,251234,1,0
264,128,251577,1,8
224,336,251919,1,0
120,312,252091,2,0,B|64:233|95:133|178:95,1,210,8|0
352,144,252777,6,0,B|352:64|264:8|176:56,1,210,0|0
139,121,253291,1,0
96,24,253462,1,8
203,43,253634,1,0
360,184,253977,1,0
256,368,254319,1,0
256,368,254491,2,0,B|64:264|216:136|392:256|224:432|88:256,1,420
64,144,255519,5,2
121,291,255691,1,2
256,48,256034,1,2
256,208,256205,1,2
448,144,256548,1,2
387,291,256719,1,2
256,192,257062,12,4,258091
