osu file format v9

[General]
AudioFilename: Yuria - Remember Memories.mp3
AudioLeadIn: 1004
PreviewTime: 82683
Countdown: 0
SampleSet: Soft
StackLeniency: 0.7
Mode: 0
LetterboxInBreaks: 1

[Editor]
Bookmarks: 42878,90486
DistanceSpacing: 1.2
BeatDivisor: 4
GridSize: 8

[Metadata]
Title:Remember Memories
Artist:YURIA
Creator:roflninja
Version:fbs's Memory
Source:Really? Really!
Tags:shuffle! Navel frost-b-spec samiljul

[Difficulty]
HPDrainRate:7
CircleSize:4
OverallDifficulty:7
ApproachRate:8
SliderMultiplier:1.8
SliderTickRate:2

[Events]
//Background and Video events
0,0,"kaede.jpg"
Video,0,"reallyreally (XVid MPEG-4 Codec).avi"
//Break Periods
2,30317,42167
//Storyboard Layer 0 (Background)
//Storyboard Layer 1 (Fail)
//Storyboard Layer 2 (Pass)
//Storyboard Layer 3 (Foreground)
//Storyboard Sound Samples
//Background Colour Transformations
3,100,163,162,255

[TimingPoints]
2117,400,4,2,0,50,1,0
24117,-100,4,2,0,40,0,0
25317,-100,4,2,0,30,0,0
26517,-100,4,2,0,20,0,0
27717,-100,4,2,0,10,0,0
28417,-100,4,2,0,5,0,0
28617,-100,4,2,0,15,0,0
28817,-100,4,2,0,30,0,0
29117,-100,4,2,0,40,0,0
29317,-100,4,2,0,50,0,0
29517,-100,4,2,0,60,0,0
29617,-100,4,2,0,70,0,0
29917,-100,4,2,0,50,0,0
82917,-100,4,2,0,50,0,1
108517,-100,4,2,0,50,0,0
122117,-100,4,2,0,40,0,0
123317,-100,4,2,0,30,0,0
124517,-100,4,2,0,20,0,0
125717,-100,4,2,0,15,0,0
126917,-100,4,2,0,10,0,0
128517,-100,4,2,0,5,0,0
130117,-100,4,2,0,5,0,0

[Colours]
Combo1 : 244,55,55
Combo2 : 71,49,35
Combo3 : 251,175,19
Combo4 : 250,213,143

[HitObjects]
128,96,1317,2,0,B|104:136|104:184,1,90
184,256,1717,2,0,B|208:216|208:168,1,90
256,72,2117,1,2
360,80,2317,1,0
368,184,2517,2,0,B|424:192|448:232,1,90,0|0
456,336,2917,2,0,B|400:328|376:288,1,90
288,344,3317,1,2
192,296,3517,1,0
88,328,3717,6,0,B|48:248,1,90,2|0
152,232,4117,2,0,B|176:136,1,90
72,112,4517,2,0,B|128:40|232:40,1,180,0|2
336,40,5117,2,0,B|416:80|448:176,1,180
456,280,5717,1,0
360,224,5917,2,0,B|320:320|224:336,1,180
228,335,6417,1,0
228,335,6517,5,2
72,48,6917,1,2
392,48,7317,1,0
352,264,7717,6,0,B|264:264,1,90
184,192,8117,2,0,B|272:192,1,90,2|0
248,88,8517,1,2
152,40,8717,1,0
56,80,8917,2,0,B|56:168,1,90
128,248,9317,2,0,B|128:152,1,90
208,88,9717,1,2
288,160,9917,1,0
224,248,10117,6,0,B|224:304|256:336,1,90,2|0
344,272,10517,2,0,B|384:296|432:288,1,90
472,192,10917,2,0,B|424:112|344:64,1,180,0|2
456,48,11517,2,0,B|409:125|329:173,1,180
232,208,12117,1,0
136,256,12317,2,0,B|96:296|88:336,1,90
56,224,12717,2,0,B|32:184|48:136,1,90,0|2
120,56,13117,1,0
224,40,13317,5,2
248,40,13417,1,0
272,40,13517,1,0
376,56,13717,1,0
416,264,14117,6,0,B|392:312|352:328,1,90
248,304,14517,2,0,B|272:256|312:240,1,90,2|0
416,216,14917,2,0,B|392:168|352:152,1,90,2|0
248,144,15317,1,0
144,176,15517,1,0
128,280,15717,2,0,B|80:280|40:248,1,90
24,144,16117,2,0,B|64:120|80:72,1,90,2|0
184,48,16517,5,2
288,48,16717,1,0
392,72,16917,1,0
472,144,17117,1,0
472,248,17317,2,0,B|424:336|328:344,1,180,0|2
224,352,17917,2,0,B|271:264|367:256,1,180
392,152,18517,1,0
320,72,18717,2,0,B|208:72,1,90
24,144,19317,6,0,B|24:264,1,90,2|0
176,296,19717,2,0,B|80:296,1,90,2|0
232,224,20117,2,0,B|232:120,1,90
80,72,20517,2,0,B|272:72,1,180,0|2
260,72,21117,1,0
440,192,21517,5,0
440,192,21617,1,0
440,192,21717,1,0
264,312,22117,1,0
48,72,22717,5,0
152,72,22917,2,0,B|424:72,1,270,2|0
256,192,23717,12,0,29717
256,192,30117,5,4
112,56,42917,6,0,B|208:56,1,90
176,160,43317,2,0,B|280:160,1,90,2|0
304,56,43717,2,0,B|408:64|432:168,1,180,2|0
424,272,44317,1,0
336,336,44517,1,0
424,272,44717,1,0
320,264,44917,1,2
216,304,45117,1,0
120,264,45317,6,0,B|16:264,2,90,2|0|0
216,224,45917,1,0
120,32,46317,1,0
216,88,46517,2,0,B|304:48|392:88,1,180,2|2
472,288,47317,2,0,B|384:328|296:288,1,180
120,160,48117,1,2
304,40,48517,1,2
312,64,48617,1,0
328,88,48717,1,0
344,104,48817,1,0
368,120,48917,1,2
256,304,49317,6,0,B|168:312,1,90
88,232,49717,2,0,B|80:144,1,90,2|0
152,64,50117,2,0,B|240:56,1,90,2|0
320,128,50517,2,0,B|328:216,1,90
328,217,50917,1,0
112,224,51317,6,0,B|49:286,1,90,2|0
151,263,51717,2,0,B|218:330,1,90,2|0
196,218,52117,2,0,B|263:150,1,90
157,178,52517,2,0,B|94:115,1,90
16,40,52917,1,2
16,40,53017,1,0
16,40,53117,5,0
336,40,53717,1,0
176,352,54517,1,2
376,280,54917,5,2
368,256,55017,1,0
352,232,55117,1,0
336,208,55217,1,0
312,192,55317,1,2
176,40,55717,6,0,B|88:64,1,90
128,160,56117,2,0,B|80:240,1,90,2|0
184,280,56517,2,0,B|184:384,1,90,2|0
272,312,56917,2,0,B|352:368,1,90
456,352,57317,2,0,B|488:264|456:176,1,180,0|2
408,80,57917,1,0
312,32,58117,1,2
216,80,58317,1,0
120,32,58517,1,0
24,80,58717,6,0,B|0:168|24:264,1,180
112,192,59317,2,0,B|128:288|216:336,1,180,2|2
320,336,59917,1,0
432,336,60117,1,0
480,128,60517,1,2
456,120,60617,1,0
432,112,60717,1,0
408,96,60817,1,0
384,80,60917,1,2
168,64,61317,6,0,B|120:72|88:104,1,90,2|0
96,208,61717,2,0,B|160:144|256:128,1,180
360,128,62317,1,0
456,184,62517,1,2
360,240,62717,1,0
272,304,62917,6,0,B|208:336|176:344,1,90,2|0
80,344,63317,2,0,B|64:304|64:256,1,90
168,232,63717,2,0,B|168:184|152:144,1,90
56,96,64117,2,0,B|136:40|232:64,1,180,2|2
432,128,64917,1,2
432,152,65017,1,0
424,176,65117,1,0
416,200,65217,1,0
400,224,65317,1,2
224,344,65717,6,0,B|144:304,1,90,2|0
40,112,66317,2,0,B|120:152,1,90
336,140,66917,5,0
336,244,67117,1,0
248,96,67317,1,2
248,288,67517,1,0
148,244,67717,5,2
148,140,67917,1,0
148,244,68117,1,0
148,140,68317,1,0
248,96,68517,1,4
456,48,68917,2,0,B|368:48,1,90,2|0
152,40,69517,2,0,B|96:48|72:96,1,90
32,184,69917,2,0,B|128:168|208:216,1,180
304,264,70517,1,2
384,336,70717,5,0
488,304,70917,1,2
384,336,71117,1,0
408,232,71317,1,0
432,128,71517,1,0
456,24,71717,2,0,B|376:72|280:72,1,180,0|2
184,40,72317,2,0,B|92:39|12:87,1,180
112,136,72917,2,0,B|136:176|136:232,1,90
80,320,73317,2,0,B|171:320|251:272,1,180,0|2
328,200,73917,1,0
392,112,74117,5,2
288,112,74317,1,0
392,112,74517,1,0
432,216,74717,1,0
400,320,74917,2,0,B|208:320,1,180,0|2
304,248,75517,2,0,B|112:248,1,180
40,312,76117,1,0
40,208,76317,2,0,B|40:112|120:48,1,180
224,32,76917,1,2
328,48,77117,2,0,B|408:88,1,90,0|2
320,144,77517,6,0,B|360:248,1,90
376,336,77917,1,0
272,352,78117,2,0,B|216:360|192:320,1,90
160,216,78517,2,0,B|216:208|240:248,1,90,2|0
344,232,78917,1,2
344,232,79117,1,0
408,144,79317,1,0
408,144,79517,1,0
256,192,79717,12,0,80917
256,32,81317,6,0,B|176:32,1,45,0|8
256,192,81617,2,0,B|304:192,1,45,0|8
264,352,81917,2,0,B|200:352,1,45,0|8
80,272,82217,2,0,B|16:272,1,45,0|8
120,136,82517,5,8
128,112,82617,1,0
144,88,82717,1,0
168,72,82817,1,0
192,64,82917,1,4
424,192,83717,5,0
256,328,84117,2,0,B|216:344|168:336,1,90,8|0
112,248,84517,2,0,B|152:232|200:240,1,90
192,136,84917,1,8
280,80,85117,1,0
384,48,85317,6,0,B|384:144,1,90
488,136,85717,2,0,B|456:224,1,90,8|0
384,296,86117,2,0,B|312:352|216:352,1,180,0|8
104,352,86717,1,0
32,272,86917,1,0
104,352,87117,1,0
152,256,87317,1,0
80,176,87517,6,0,B|88:88|192:48,1,180
296,40,88117,2,0,B|384:40,1,90,8|0
296,104,88517,2,0,B|296:200,1,90
232,104,88917,2,0,B|144:104,1,90,8|0
72,192,89317,6,0,B|160:192,1,90
128,296,89717,2,0,B|232:296,1,90,8|0
320,264,90117,1,0
408,328,90317,1,0
456,232,90517,2,0,B|464:184|448:144,1,90,8|0
368,72,90917,2,0,B|320:64|280:80,1,90
208,160,91317,2,0,B|200:208|216:248,1,90,8|0
272,336,91717,5,0
376,352,91917,1,0
272,336,92117,1,8
168,352,92317,1,0
64,336,92517,1,0
24,232,92717,1,0
128,256,92917,2,0,B|128:168,1,90,8|0
40,96,93317,5,0
136,56,93517,2,0,B|176:40|224:40,1,90,0|8
336,40,93917,1,0
440,72,94117,1,0
408,176,94317,1,0
408,200,94417,1,0
408,224,94517,1,8
360,320,94717,1,0
264,264,94917,2,0,B|216:288|200:344,1,90
96,352,95317,2,0,B|64:312|56:272,1,90,8|0
48,160,95717,6,0,B|136:160,1,90
136,56,96117,2,0,B|216:104,1,90,8|0
256,200,96517,1,0
256,200,96717,1,0
298,102,96917,2,0,B|376:56,1,90,8|0
374,160,97316,2,0,B|464:160,1,90
400,248,97717,2,0,B|328:304,1,90,8|0
224,328,98117,5,0
120,336,98317,1,0
224,328,98517,1,8
152,248,98717,1,0
64,184,98917,2,0,B|112:104|216:88,1,180,0|8
112,40,99517,2,0,B|127:137|207:185,1,180
312,208,100117,1,8
416,208,100317,5,0
96,192,100917,6,0,B|96:80,1,90,8|0
256,48,101317,2,0,B|360:48,1,90,0|0
416,192,101717,2,0,B|416:280,1,90,8|0
256,336,102117,2,0,B|160:336,1,90
256,136,102717,5,0
448,240,103117,2,8,B|336:240,2,90
416,136,103717,1,0
328,72,103917,1,0
224,40,104117,1,8
128,40,104317,1,0
56,120,104517,2,0,B|16:208|32:296,1,180,0|8
136,328,105117,1,0
256,192,105317,12,4,108517
