osu file format v12

[General]
AudioFilename: Yuria - Remember Memories.mp3
AudioLeadIn: 1004
PreviewTime: 82683
Countdown: 0
SampleSet: Normal
StackLeniency: 0.7
Mode: 0
LetterboxInBreaks: 1

[Editor]
Bookmarks: 42878,90486
DistanceSpacing: 0.9
BeatDivisor: 4
GridSize: 8

[Metadata]
Title:Remember Memories
TitleUnicode:
Artist:YURIA
ArtistUnicode:
Creator:roflninja
Version:Hard
Source:Really? Really!
Tags:shuffle! Navel frost-b-spec samiljul
BeatmapID:76138
BeatmapSetID:22026

[Difficulty]
HPDrainRate:6
CircleSize:4
OverallDifficulty:7
ApproachRate:6
SliderMultiplier:1.4
SliderTickRate:1

[Events]
//Background and Video events
0,0,"kaede.jpg",0,0
Video,0,"reallyreally (XVid MPEG-4 Codec).avi"
//Break Periods
2,27517,41867
//Storyboard Layer 0 (Background)
//Storyboard Layer 1 (Fail)
//Storyboard Layer 2 (Pass)
//Storyboard Layer 3 (Foreground)
//Storyboard Sound Samples
//Background Colour Transformations
3,100,163,162,255

[TimingPoints]
2117,400,4,2,0,40,1,0
23575,-100,4,2,0,5,0,0
27475,-100,4,1,0,30,0,0
59175,-100,4,1,0,5,0,0
60575,-100,4,1,0,30,0,0
79475,-200,4,1,0,30,0,0
80875,-100,4,1,0,30,0,0
82875,-100,4,1,0,30,0,1
105175,-100,4,1,0,5,0,1
108417,-100,4,1,0,5,0,0

[Colours]
Combo1 : 244,55,55
Combo2 : 71,49,35
Combo3 : 251,175,19
Combo4 : 250,213,143

[HitObjects]
88,72,1317,1,2,0:0:0:0:
136,120,1517,1,0,0:0:0:0:
184,168,1717,2,0,B|248:232,1,70
368,72,2517,1,2,0:0:0:0:
326,119,2717,1,0,0:0:0:0:
284,168,2917,2,0,B|221:231,1,70
88,344,3717,5,2,0:0:0:0:
152,344,3917,1,0,0:0:0:0:
216,344,4117,1,2,0:0:0:0:
280,344,4317,1,0,0:0:0:0:
344,344,4517,2,0,B|440:344|440:248,1,140,2|0,0:0|0:0,0:0:0:0:
440,200,5117,2,0,B|440:56,2,140
256,320,6517,5,2,0:0:0:0:
120,72,6917,1,2,0:0:0:0:
400,72,7317,1,2,0:0:0:0:
256,56,7717,5,0,0:0:0:0:
256,120,7917,1,0,0:0:0:0:
256,184,8117,1,2,0:0:0:0:
256,248,8317,1,0,0:0:0:0:
432,320,8917,2,0,B|432:248,3,70,2|0|0|0,0:0|0:0|0:0|0:0,0:0:0:0:
88,48,10117,6,0,B|88:128,4,70,0|0|2|0|0,0:0|0:0|0:0|0:0|0:0,0:0:0:0:
216,48,11317,1,2,0:0:0:0:
216,48,11517,2,0,B|362:48,2,140
208,240,12917,1,0,0:0:0:0:
144,128,13317,2,0,B|224:128,1,70,2|0,0:0|0:0,0:0:0:0:
284,127,13717,2,0,B|212:127,1,70,2|0,0:0|0:0,0:0:0:0:
72,128,14117,6,0,B|72:216,1,70
72,264,14517,1,2,0:0:0:0:
72,328,14717,1,2,0:0:0:0:
264,328,15317,2,0,B|368:328,2,70,2|0|0,0:0|0:0|0:0,0:0:0:0:
200,328,15917,1,2,0:0:0:0:
64,192,16517,5,2,0:0:0:0:
112,224,16717,1,0,0:0:0:0:
112,160,16917,1,2,0:0:0:0:
160,248,17117,1,0,0:0:0:0:
160,136,17317,1,2,0:0:0:0:
296,192,17717,5,0,0:0:0:0:
296,192,17917,2,0,B|448:192,2,140
128,72,19317,5,2,0:0:0:0:
384,72,19717,1,0,0:0:0:0:
384,328,20117,1,0,0:0:0:0:
128,328,20517,1,2,0:0:0:0:
280,184,21117,5,2,0:0:0:0:
472,184,21717,1,2,0:0:0:0:
408,184,21917,1,0,0:0:0:0:
344,184,22117,1,2,0:0:0:0:
152,184,22717,5,0,0:0:0:0:
152,184,22917,2,0,B|14:184|14:40,1,210
256,192,23717,12,0,25317,0:0:0:0:
256,192,25417,12,0,27317,0:0:0:0:
256,32,42917,6,0,B|256:112,1,70
256,165,43317,1,8,0:0:0:0:
256,228,43517,1,0,0:0:0:0:
256,291,43717,1,0,0:0:0:0:
480,224,44117,5,8,0:0:0:0:
480,160,44317,1,0,0:0:0:0:
256,312,44917,1,8,0:0:0:0:
256,64,45317,1,0,0:0:0:0:
120,192,45717,1,8,0:0:0:0:
120,192,45917,2,0,B|16:192|16:280,1,140
16,328,46517,6,0,B|112:328,1,70,8|0,0:0|0:0,0:0:0:0:
152,328,46917,2,0,B|248:328,2,70,0|0|8,0:0|0:0|0:0,0:0:0:0:
152,264,47517,2,0,B|152:176|240:176,1,140,4|0,0:0|0:0,0:0:0:0:
237,176,48117,1,8,0:0:0:0:
296,176,48317,2,0,B|392:176|392:56|288:56,1,210,4|8,0:0|0:0,0:0:0:0:
168,56,49317,6,0,B|112:112,1,70,4|0,0:0|0:0,0:0:0:0:
176,120,49717,2,0,B|192:200,1,70,0|0,0:0|0:0,0:0:0:0:
136,160,50117,2,0,B|96:232,1,70,4|0,0:0|0:0,0:0:0:0:
216,352,50717,2,0,B|176:280,1,70,0|4,0:0|0:0,0:0:0:0:
136,160,51317,6,0,B|56:160|57:64,2,140,8|0|8,0:0|0:0|0:0,0:0:0:0:
360,160,52517,2,0,B|440:160|439:64,2,140,4|8|0,0:0|0:0|0:0,0:0:0:0:
136,224,53717,2,0,B|56:224|57:320,2,140,8|0|8,0:0|0:0|0:0,0:0:0:0:
360,224,54917,2,0,B|448:224|448:320,1,140,0|8,0:0|0:0,0:0:0:0:
360,224,55717,6,0,B|360:128|456:128,2,140,4|8|0,0:0|0:0|0:0,0:0:0:0:
264,312,56917,1,8,0:0:0:0:
264,312,57117,1,0,0:0:0:0:
264,312,57317,2,0,B|165:312|165:220,1,140,0|8,0:0|0:0,0:0:0:0:
248,144,58117,2,0,B|168:144|168:240,1,140,0|8,0:0|0:0,0:0:0:0:
168,236,58717,2,0,B|87:237,2,70
256,192,59317,12,0,60517,0:0:0:0:
184,160,61517,5,0,0:0:0:0:
256,88,61717,1,0,0:0:0:0:
328,160,61917,1,4,0:0:0:0:
256,336,62517,5,8,0:0:0:0:
256,160,62917,1,0,0:0:0:0:
256,160,63117,1,0,0:0:0:0:
256,160,63317,1,8,0:0:0:0:
256,160,63517,2,0,B|256:64|144:64,1,140
112,64,64117,2,0,B|16:64|16:176,1,140,8|0,0:0|0:0,0:0:0:0:
18,147,64917,1,8,0:0:0:0:
18,147,65117,1,0,0:0:0:0:
16,208,65317,6,0,B|128:320,1,140,0|8,0:0|0:0,0:0:0:0:
160,352,65917,1,0,0:0:0:0:
200,304,66117,1,0,0:0:0:0:
240,352,66317,1,0,0:0:0:0:
280,304,66517,2,0,B|378:205,1,140,8|0,0:0|0:0,0:0:0:0:
424,160,67117,1,0,0:0:0:0:
472,120,67317,1,8,0:0:0:0:
432,72,67517,1,0,0:0:0:0:
384,112,67717,5,0,0:0:0:0:
337,157,67917,1,0,0:0:0:0:
288,200,68117,1,8,0:0:0:0:
288,328,68517,1,4,0:0:0:0:
288,200,68917,1,4,0:0:0:0:
288,200,69117,2,0,B|141:200,2,140,0|0|4,0:0|0:0|0:0,0:0:0:0:
352,200,70117,5,8,0:0:0:0:
352,200,70317,1,0,0:0:0:0:
416,200,70517,1,8,0:0:0:0:
416,200,70717,1,0,0:0:0:0:
480,200,70917,2,0,B|480:104|392:104,1,140
272,104,71717,2,0,B|176:104|176:192,1,140,4|0,0:0|0:0,0:0:0:0:
176,240,72317,5,4,0:0:0:0:
304,240,72717,1,0,0:0:0:0:
432,240,73117,1,4,0:0:0:0:
432,176,73317,6,0,B|432:88|344:88,1,140,0|8,0:0|0:0,0:0:0:0:
224,88,74117,2,0,B|224:4,2,70,0|0|8,0:0|0:0|0:0,0:0:0:0:
224,88,74717,1,0,0:0:0:0:
224,152,74917,2,0,B|224:304,1,140,0|8,0:0|0:0,0:0:0:0:
160,296,75517,2,0,B|16:296,2,140
224,296,76517,5,0,0:0:0:0:
224,296,76717,1,0,0:0:0:0:
224,296,76917,2,0,B|448:296,2,210,0|0|4,0:0|0:0|0:0,0:0:0:0:
224,168,78517,1,0,0:0:0:0:
264,120,78717,2,0,B|328:64|392:120,1,140
392,256,79517,2,0,B|341:307|341:307|260:227|260:227|212:276,1,245,0|4,0:0|0:0,0:0:0:0:
128,168,81317,5,0,0:0:0:0:
128,168,81417,1,4,0:0:0:0:
168,120,81617,2,0,B|168:72,1,35,0|4,0:0|0:0,0:0:0:0:
224,64,81917,1,0,0:0:0:0:
224,64,82017,1,4,0:0:0:0:
264,112,82217,2,0,B|264:160,1,35,0|4,0:0|0:0,0:0:0:0:
312,192,82517,1,0,0:0:0:0:
312,192,82617,1,0,0:0:0:0:
312,192,82717,1,0,0:0:0:0:
312,192,82817,1,4,0:0:0:0:
312,192,82917,6,0,B|312:280|430:279,2,140,0|8|0,0:0|0:0|0:0,0:0:0:0:
184,192,84117,2,0,B|184:280|66:279,2,140,8|0|8,0:0|0:0|0:0,0:0:0:0:
256,64,85317,1,0,0:0:0:0:
256,128,85517,1,0,0:0:0:0:
256,192,85717,1,8,0:0:0:0:
256,256,85917,1,0,0:0:0:0:
256,320,86117,6,0,B|160:320,1,70,0|0,0:0|0:0,0:0:0:0:
120,320,86517,1,8,0:0:0:0:
120,256,86717,2,0,B|120:104,2,140
309,248,88117,5,4,0:0:0:0:
120,112,88517,1,0,0:0:0:0:
16,320,88917,1,4,0:0:0:0:
136,240,89317,6,0,B|136:336|240:336,2,140,4|8|0,0:0|0:0|0:0,0:0:0:0:
398,169,90517,2,0,B|400:88|304:88,2,140,8|0|8,0:0|0:0|0:0,0:0:0:0:
184,128,91717,6,0,B|80:32,2,140,0|8|0,0:0|0:0|0:0,0:0:0:0:
272,216,92917,1,8,0:0:0:0:
272,216,93117,2,0,B|355:255|412:153,2,140,0|0|4,0:0|0:0|0:0,0:0:0:0:
16,216,94517,5,4,0:0:0:0:
144,88,94917,1,0,0:0:0:0:
272,216,95317,1,4,0:0:0:0:
144,344,95717,6,0,B|144:200,2,140,4|8|0,0:0|0:0|0:0,0:0:0:0:
272,344,96917,2,0,B|424:344,2,140,8|0|8,0:0|0:0|0:0,0:0:0:0:
272,216,98117,1,0,0:0:0:0:
320,168,98317,1,0,0:0:0:0:
256,168,98517,1,8,0:0:0:0:
296,120,98717,1,0,0:0:0:0:
232,120,98917,6,0,B|176:72|88:112,2,140,0|8|0,0:0|0:0|0:0,0:0:0:0:
296,120,99917,2,0,B|294:41,1,70,0|8,0:0|0:0,0:0:0:0:
360,56,100317,2,0,B|416:104|504:64,1,140
488,136,100917,2,0,B|488:295,2,140,8|0|8,0:0|0:0|0:0,0:0:0:0:
352,56,102117,1,4,0:0:0:0:
312,104,102317,5,0,0:0:0:0:
408,192,102717,1,0,0:0:0:0:
312,280,103117,1,0,0:0:0:0:
216,192,103517,1,0,0:0:0:0:
152,192,103717,6,0,B|72:192,2,70
216,192,104317,1,4,0:0:0:0:
280,192,104517,2,0,B|424:192,1,140
420,193,105117,1,4,0:0:0:0:
256,192,105317,12,0,108517,0:0:0:0:
