osu file format v9

[General]
AudioFilename: Yuria - Remember Memories.mp3
AudioLeadIn: 1004
PreviewTime: 82683
Countdown: 0
SampleSet: Normal
StackLeniency: 0.7
Mode: 1
LetterboxInBreaks: 1

[Editor]
Bookmarks: 42878,90486
DistanceSpacing: 0.9
BeatDivisor: 4
GridSize: 8

[Metadata]
Title:Remember Memories
Artist:YURIA
Creator:roflninja
Version:31's Taiko
Source:Really? Really!
Tags:shuffle! Navel frost-b-spec samiljul

[Difficulty]
HPDrainRate:5
CircleSize:5
OverallDifficulty:5
ApproachRate:5
SliderMultiplier:1.4
SliderTickRate:1

[Events]
//Background and Video events
0,0,"kaede.jpg"
Video,0,"reallyreally (XVid MPEG-4 Codec).avi"
//Break Periods
//Storyboard Layer 0 (Background)
//Storyboard Layer 1 (Fail)
//Storyboard Layer 2 (Pass)
//Storyboard Layer 3 (Foreground)
//Storyboard Sound Samples
//Background Colour Transformations
3,100,163,162,255

[TimingPoints]
2117,400,4,1,0,100,1,0
2917,400,4,1,0,100,1,0
82917,-100,4,1,0,100,0,1
108517,-100,4,1,0,100,0,0

[Colours]
Combo1 : 244,55,55
Combo2 : 71,49,35
Combo3 : 251,175,19
Combo4 : 250,213,143

[HitObjects]
272,224,14117,1,0
272,224,14517,1,0
272,224,14717,1,0
272,224,15317,1,0
272,224,15717,1,0
272,224,15917,1,0
272,224,16517,1,0
272,224,16917,1,0
272,224,17117,1,0
272,224,17317,1,0
272,224,17717,1,0
272,224,17917,1,0
272,224,18317,1,0
272,224,18717,1,0
272,224,18917,1,0
272,224,19317,1,0
272,224,19717,1,0
272,224,20117,1,0
272,224,20517,1,4
272,224,22517,1,8
272,224,22717,1,0
272,224,22917,1,0
272,224,23317,1,8
272,224,23517,1,0
272,224,23717,1,0
304,224,25317,1,4
344,240,29517,1,0
344,240,29617,1,0
344,240,29717,1,8
320,224,30117,1,0
320,224,30317,1,0
320,224,30517,1,8
320,224,30717,1,0
320,224,30817,1,8
320,224,30917,1,0
320,224,31117,1,0
320,224,31317,1,8
320,224,31617,1,0
320,224,31717,1,0
320,224,31917,1,0
320,224,32117,1,8
320,224,32317,1,0
320,224,32417,1,8
320,224,32517,1,0
320,224,32717,1,0
320,224,32917,1,8
320,224,33217,1,0
320,224,33317,1,0
320,224,33517,1,0
320,224,33717,1,8
320,224,33917,1,0
320,224,34017,1,8
320,224,34117,1,0
320,224,34317,1,0
320,224,34517,1,8
320,224,34817,1,0
320,224,34917,1,0
320,224,35117,1,0
320,224,35317,1,8
320,224,35417,1,0
320,224,35617,1,0
320,224,35717,1,0
320,224,35917,1,0
320,224,36017,1,8
320,224,36117,1,8
320,224,36317,1,0
320,224,36417,1,8
320,224,36517,1,0
320,224,36717,1,0
320,224,36917,1,8
320,224,37017,1,0
320,224,37217,1,8
320,224,37417,1,8
320,224,37517,1,0
320,224,37717,1,8
320,224,37817,1,0
320,224,37917,1,0
320,224,38117,1,0
320,224,38317,1,0
320,224,38517,1,8
320,224,38617,1,0
320,224,38817,1,8
320,224,39017,1,8
320,224,39117,1,0
248,240,39317,1,0
248,240,39417,1,0
248,240,39517,1,8
320,224,39717,1,0
320,224,39917,1,0
320,224,40117,1,8
320,224,40217,1,0
320,224,40417,1,8
320,224,40617,1,8
320,224,40717,1,0
312,272,40917,1,8
312,272,41017,1,0
312,272,41117,1,0
312,272,41517,1,8
312,272,41617,1,0
312,272,41817,1,8
312,272,41917,1,0
312,272,42117,1,8
312,272,42217,1,0
312,272,42317,1,0
312,272,42517,1,4
312,272,42917,1,0
312,272,43117,1,0
312,272,43317,1,8
312,272,43617,1,0
312,272,43717,1,0
312,272,43917,1,0
312,272,44117,1,8
312,272,44317,1,0
312,272,44417,1,0
312,272,44517,1,0
312,272,44717,1,0
312,272,44917,1,8
312,272,45217,1,0
312,272,45317,1,0
312,272,45517,1,0
312,272,45717,1,8
312,272,45917,1,8
312,272,46017,1,0
312,272,46117,1,0
312,272,46317,1,0
312,272,46517,1,8
312,272,46817,1,0
312,272,46917,1,0
312,272,47117,1,0
312,272,47317,1,8
312,272,47517,1,0
312,272,47617,1,0
312,272,47717,1,0
312,272,47917,1,0
312,272,48117,1,8
312,272,48317,1,0
312,272,48417,1,0
312,272,48517,1,0
312,272,48717,1,0
312,272,48917,1,8
312,272,49117,1,0
312,272,49217,1,0
312,272,49317,1,0
312,272,49517,1,0
312,272,49717,1,8
312,272,50017,1,0
312,272,50117,1,0
312,272,50317,1,0
312,272,50517,1,8
312,272,50717,1,0
312,272,50817,1,0
312,272,50917,1,0
312,272,51117,1,0
312,272,51317,1,8
312,272,51617,1,0
312,272,51717,1,0
312,272,51917,1,0
312,272,52117,1,8
312,272,52317,1,0
312,272,52417,1,0
312,272,52517,1,0
312,272,52717,1,0
312,272,52917,1,8
312,272,53217,1,0
312,272,53317,1,0
312,272,53517,1,0
296,296,53717,1,8
296,296,53917,1,8
296,296,54017,1,0
296,296,54117,1,0
296,296,54317,1,0
296,296,54517,1,8
296,296,54717,1,0
296,296,54817,1,0
296,296,54917,1,0
296,296,55117,1,0
296,296,55217,1,0
296,296,55317,1,8
296,296,55717,1,0
296,296,55917,1,0
296,296,56117,1,8
296,296,56417,1,0
296,296,56517,1,0
296,296,56717,1,0
296,296,56917,1,8
296,296,57117,1,0
296,296,57217,1,0
296,296,57317,1,0
296,296,57517,1,0
296,296,57717,1,8
296,296,58017,1,0
296,296,58117,1,0
296,296,58317,1,0
296,296,58517,1,8
296,296,58717,1,8
296,296,58817,1,0
296,296,58917,1,0
296,296,59117,1,0
296,296,59317,1,8
296,296,59617,1,0
296,296,59717,1,0
296,296,59917,1,0
296,296,60017,1,0
296,296,60117,1,8
296,296,60317,1,0
296,296,60517,1,0
296,296,60717,1,0
296,296,60917,1,8
296,296,61117,1,0
296,296,61217,1,0
296,296,61317,1,0
296,296,61517,1,0
296,296,61717,1,8
296,296,61917,1,0
296,296,62017,1,0
296,296,62117,1,0
296,296,62317,1,0
296,296,62517,1,8
296,296,62617,1,0
296,296,62817,1,0
296,296,62917,1,0
296,296,63117,1,0
296,296,63317,1,8
296,296,63517,1,0
296,296,63617,1,0
296,296,63717,1,0
296,296,63917,1,0
296,296,64117,1,8
296,296,64217,1,0
296,296,64417,1,0
296,296,64517,1,0
296,296,64717,1,0
296,296,64917,1,8
296,296,65117,1,0
296,296,65217,1,0
296,296,65317,1,0
296,296,65517,1,0
296,296,65717,1,8
296,296,65817,1,0
296,296,66017,1,0
296,296,66117,1,0
296,296,66317,1,0
296,296,66517,1,8
296,296,66717,1,0
296,296,67117,1,8
296,296,67217,1,8
296,296,67317,1,0
296,296,67517,1,0
296,296,67717,1,12
296,296,67917,1,12
296,296,68117,1,12
296,296,68517,1,4
296,296,68717,1,0
296,296,68917,1,8
296,296,69217,1,0
296,296,69317,1,0
296,296,69517,1,0
296,296,69717,1,8
296,296,69917,1,0
296,296,70017,1,0
296,296,70117,1,0
296,296,70317,1,0
296,296,70517,1,8
296,296,70817,1,0
296,296,70917,1,0
296,296,71117,1,0
296,296,71317,1,8
296,296,71517,1,8
296,296,71617,1,8
296,296,71717,1,0
296,296,71917,1,0
296,296,72117,1,8
296,296,72417,1,0
296,296,72517,1,0
296,296,72717,1,0
296,296,72917,1,8
296,296,73117,1,0
296,296,73217,1,0
296,296,73317,1,0
296,296,73517,1,0
296,296,73717,1,8
296,296,74017,1,0
296,296,74117,1,0
296,296,74317,1,0
296,296,74517,1,8
296,296,74717,1,0
296,296,74917,1,0
296,296,75117,1,0
296,296,75317,1,8
296,296,75617,1,0
296,296,75717,1,0
296,296,75917,1,0
296,296,76117,1,8
296,296,76317,1,0
296,296,76417,1,0
296,296,76517,1,0
296,296,76717,1,0
296,296,76917,1,8
296,296,77217,1,0
296,296,77317,1,0
296,296,77517,1,0
296,296,77717,1,8
296,296,77917,1,0
296,296,78017,1,0
296,296,78117,1,0
296,296,78317,1,0
296,296,78517,1,8
296,296,78817,1,0
296,296,78917,1,0
296,296,79117,1,0
296,296,79317,1,8
296,296,79517,1,0
296,296,79617,1,0
296,296,79717,1,8
296,296,79917,1,0
296,296,80117,1,8
296,296,80217,1,0
296,296,80417,1,0
296,296,80517,1,8
296,296,80717,1,0
296,296,80917,1,8
296,296,81117,1,0
296,296,81217,1,0
296,296,81317,1,8
296,296,81417,1,8
296,296,81617,1,8
296,296,81717,1,8
296,296,81917,1,8
296,296,82017,1,8
296,296,82217,1,8
296,296,82317,1,8
296,296,82517,1,8
296,296,82617,1,8
296,296,82717,1,8
296,296,82817,1,8
296,296,82917,1,0
280,256,83117,1,0
280,256,83317,1,8
280,256,83417,1,0
280,256,83617,1,0
280,256,83717,1,0
280,256,83917,1,0
280,256,84117,1,8
280,256,84317,1,0
280,256,84417,1,0
280,256,84517,1,8
280,256,84617,1,0
280,256,84817,1,0
280,256,84917,1,0
280,256,85117,1,0
280,256,85217,1,0
280,256,85317,1,8
280,256,85517,1,0
280,256,85617,1,0
280,256,85717,1,8
280,256,85917,1,0
280,256,86117,1,0
280,256,86317,1,0
280,256,86517,1,8
280,256,86617,1,0
280,256,86817,1,0
280,256,86917,1,0
280,256,87117,1,0
280,256,87317,1,8
280,256,87417,1,0
280,256,87617,1,0
280,256,87717,1,0
280,256,87917,1,0
280,256,88117,1,8
280,256,88217,1,0
280,256,88317,1,0
280,256,88517,1,0
280,256,88717,1,0
280,256,88817,1,0
280,256,88917,1,8
296,296,89317,1,0
280,256,89517,1,0
280,256,89717,1,8
280,256,89817,1,0
280,256,90017,1,0
280,256,90117,1,0
280,256,90317,1,0
280,256,90517,1,8
280,256,90717,1,0
280,256,90817,1,0
280,256,90917,1,8
280,256,91017,1,0
280,256,91217,1,0
280,256,91317,1,0
264,224,91517,1,0
264,224,91617,1,0
264,224,91717,1,8
264,224,91917,1,0
264,224,92117,1,8
280,256,92317,1,0
264,224,92417,1,0
264,224,92517,1,8
264,224,92717,1,0
264,224,92917,1,8
264,224,93017,1,0
264,224,93217,1,0
264,224,93317,1,8
264,224,93517,1,0
264,224,93717,1,8
264,224,93817,1,0
264,224,94017,1,0
264,224,94117,1,0
264,224,94317,1,0
264,224,94517,1,8
264,224,94617,1,0
264,224,94817,1,0
264,224,94917,1,8
264,224,95117,1,0
264,224,95317,1,8
264,224,95417,1,8
264,224,95517,1,0
264,224,95617,1,0
296,296,95717,1,0
280,256,95917,1,0
280,256,96017,1,0
280,256,96117,1,8
280,256,96217,1,0
280,256,96417,1,0
280,256,96517,1,0
280,256,96717,1,0
280,256,96917,1,8
280,256,97117,1,0
280,256,97217,1,0
280,256,97317,1,8
280,256,97417,1,0
280,256,97617,1,0
280,256,97717,1,0
280,256,97917,1,0
280,256,98017,1,0
280,256,98117,1,8
280,256,98317,1,0
280,256,98417,1,0
280,256,98517,1,0
280,256,98717,1,8
280,256,98917,1,0
280,256,99117,1,0
280,256,99317,1,8
280,256,99417,1,0
280,256,99617,1,0
280,256,99717,1,0
280,256,99917,1,0
280,256,100117,1,8
280,256,100317,1,0
280,256,100417,1,0
280,256,100517,1,8
280,256,100717,1,0
280,256,100917,1,8
280,256,101017,1,0
280,256,101217,1,0
280,256,101317,1,8
280,256,101517,1,0
280,256,101617,1,0
280,256,101717,1,8
280,256,102117,1,4
272,296,102317,1,0
272,296,102517,1,8
272,296,102617,1,0
272,296,102817,1,0
272,296,102917,1,0
272,296,103117,1,0
272,296,103317,1,8
272,296,103417,1,0
272,296,103617,1,0
272,296,103717,1,8
272,296,103917,1,0
272,296,104017,1,0
272,296,104117,1,8
272,296,104217,1,0
272,296,104417,1,0
272,296,104517,1,8
272,296,104717,1,0
272,296,104817,1,0
272,296,104917,1,8
272,296,105017,1,0
272,296,105217,1,0
272,296,105317,1,0
224,288,105517,1,0
224,288,105617,1,0
224,288,105717,1,8
224,288,105917,1,0
224,288,106017,1,0
224,288,106117,1,8
224,288,106317,1,0
224,288,106417,1,0
224,288,106517,1,8
224,288,106717,1,0
224,288,106817,1,0
224,288,106917,1,8
224,288,107017,1,8
224,288,107117,1,0
224,288,107217,1,0
224,288,107317,1,8
224,288,107517,1,8
224,288,107617,1,8
224,288,107817,1,8
224,288,107917,1,8
224,288,108117,1,8
224,288,108217,1,8
224,288,108317,1,8
224,288,108417,1,8
224,288,108517,1,0
256,288,108717,1,0
256,288,108917,1,8
256,288,109117,1,0
256,288,109217,1,8
256,288,109317,1,0
256,288,109517,1,0
256,288,109717,1,8
256,288,110017,1,0
256,288,110117,1,0
256,288,110317,1,0
256,288,110517,1,8
256,288,110717,1,0
256,288,110817,1,8
256,288,110917,1,0
256,288,111117,1,0
256,288,111317,1,8
256,288,111617,1,0
256,288,111717,1,0
256,288,111917,1,0
256,288,112117,1,8
256,288,112317,1,0
256,288,112417,1,8
256,288,112517,1,0
256,288,112717,1,0
256,288,112917,1,8
240,320,113217,1,0
240,320,113317,1,0
240,320,113517,1,0
240,320,113717,1,8
240,320,113817,1,0
240,320,114017,1,0
240,320,114117,1,8
240,320,114217,1,0
240,320,114417,1,0
240,320,114517,1,8
240,320,114717,1,0
288,320,114817,1,0
288,320,114917,1,0
288,320,115117,1,0
288,320,115317,1,8
288,320,115517,1,0
288,320,115617,1,8
288,320,115717,1,0
288,320,115917,1,0
288,320,116117,1,8
288,320,116417,1,0
288,320,116517,1,0
288,320,116717,1,0
288,320,116917,1,8
288,320,117117,1,0
288,320,117217,1,8
288,320,117317,1,0
288,320,117517,1,0
288,320,117717,1,8
288,320,118017,1,0
288,320,118117,1,8
288,320,118317,1,0
288,320,118517,1,8
288,320,118717,1,0
288,320,118817,1,0
288,320,118917,1,8
264,288,119117,1,0
264,288,119317,1,8
264,288,119517,1,8
264,288,119617,1,8
320,336,119817,1,8
320,336,119917,1,8
288,320,120117,1,8
288,320,120217,1,8
288,320,120417,1,8
288,320,120517,1,8
320,336,120717,1,8
320,336,120817,1,8
320,336,120917,1,8
320,336,121017,1,8
320,336,121117,1,8
320,336,121217,1,8
320,336,121317,1,0
