osu file format v9

[General]
AudioFilename: Yuria - Remember Memories.mp3
AudioLeadIn: 1004
PreviewTime: 82683
Countdown: 0
SampleSet: Normal
StackLeniency: 0.7
Mode: 0
LetterboxInBreaks: 1

[Editor]
Bookmarks: 42878
DistanceSpacing: 0.8
BeatDivisor: 2
GridSize: 8

[Metadata]
Title:Remember Memories
Artist:YURIA
Creator:roflninja
Version:Normal
Source:Really? Really!
Tags:shuffle! Navel frost-b-spec samiljul

[Difficulty]
HPDrainRate:4
CircleSize:3
OverallDifficulty:5
ApproachRate:5
SliderMultiplier:1.1
SliderTickRate:1

[Events]
//Background and Video events
0,0,"kaede.jpg"
Video,0,"reallyreally (XVid MPEG-4 Codec).avi"
//Break Periods
2,27517,41717
//Storyboard Layer 0 (Background)
//Storyboard Layer 1 (Fail)
//Storyboard Layer 2 (Pass)
//Storyboard Layer 3 (Foreground)
//Storyboard Sound Samples
//Background Colour Transformations
3,100,163,162,255

[TimingPoints]
2117,400,4,2,0,40,1,0
23575,-100,4,2,0,5,0,0
27475,-100,4,1,0,30,0,0
59175,-100,4,1,0,5,0,0
60975,-100,4,1,0,30,0,0
82875,-100,4,1,0,30,0,1
105075,-100,4,1,0,5,0,1
108475,-100,4,1,0,5,0,0

[Colours]
Combo1 : 244,55,55
Combo2 : 71,49,35
Combo3 : 251,175,19
Combo4 : 250,213,143

[HitObjects]
64,96,1317,2,0,B|128:160|168:40|248:144,1,165,2|0
216,248,2517,2,0,B|280:312|320:192|400:296,1,165,2|0
368,136,3717,5,0
280,136,4117,1,0
192,136,4517,1,2
64,136,5117,2,0,B|64:272,2,110,0|0|2
152,40,6517,5,0
240,40,6917,1,0
328,40,7317,1,2
416,40,7717,6,0,B|488:104|368:184|480:216,1,165,0|2
312,240,8917,2,0,B|192:240|192:136,1,165,0|2
320,128,10117,6,0,B|412:36,2,110,0|0|2
320,264,11517,2,0,B|412:356,2,110,0|0|2
208,192,12917,1,2
120,192,13317,1,0
32,192,13717,1,0
32,104,14117,6,0,B|56:24|104:144|176:112,1,165,2|0
312,104,15317,2,0,B|288:24|240:144|168:112,1,165,2|0
168,248,16517,5,0
256,248,16917,1,0
344,248,17317,2,0,B|504:248|504:64,2,275,2|0|2
272,192,19717,5,2
208,128,20117,1,2
144,64,20517,6,0,B|14:64|14:289|144:289,1,330,2|0
232,288,22117,2,2,B|358:288|358:63|228:63,1,330
256,192,23717,12,4,27317
256,40,42917,5,0
256,128,43317,1,8
256,216,43717,1,0
256,304,44117,2,0,B|120:304|120:144,1,220,8|8
120,80,45317,1,0
32,80,45717,5,8
32,80,45917,2,0,B|33:269,1,165,0|8
32,336,46917,6,0,B|176:336,1,110,0|8
232,336,47717,2,0,B|344:336,1,110,0|8
424,320,48517,1,4
472,240,48917,1,8
424,160,49317,6,0,B|424:48,2,110,0|8|0
296,160,50717,1,0
208,48,51317,5,8
144,112,51717,1,0
136,200,52117,1,8
192,272,52517,2,0,B|240:392|392:336,2,220,4|0|4
136,200,54517,5,8
288,112,55317,1,8
352,176,55717,2,0,B|488:176,2,110,4|8|0
264,176,56917,5,8
264,176,57117,2,0,B|144:176|144:64,1,165,0|8
72,40,58117,1,0
72,128,58517,5,8
72,128,58717,2,0,B|72:264,1,110
256,192,59317,12,0,60917
48,48,61517,6,0,B|144:48|144:136,1,110,4|0
136,232,62517,1,8
192,304,62917,1,0
280,320,63317,1,8
280,320,63517,1,0
376,232,64117,5,8
360,144,64517,1,0
288,88,64917,1,8
200,64,65317,6,0,B|64:48,1,110,0|8
24,112,66117,1,0
24,200,66517,2,0,B|24:304|128:304,1,165,8|4
256,304,67717,6,0,B|408:304,2,110,0|8|4
128,304,68917,2,0,B|28:305|28:201,2,165,8|0|0
200,144,70917,6,0,B|200:16,2,110,8|0|8
200,232,72117,1,0
200,320,72517,2,0,B|416:320,1,165,0|4
424,104,74117,5,0
360,40,74517,1,8
272,40,74917,1,0
192,72,75317,2,0,B|128:112|152:216,2,110,8|0|8
264,120,76517,1,4
112,32,77317,5,0
32,72,77717,1,12
16,160,78117,1,0
32,248,78517,2,0,B|80:328|232:328|280:232,2,275,8|4|4
32,72,81317,6,0,B|173:-24|168:296|275:-148|312:144|388:77,1,330,0|4
408,144,82917,6,0,B|504:224,2,110,4|8|0
320,144,84117,2,0,B|224:224,2,110,8|0|8
384,200,85317,5,4
384,240,85517,1,0
384,280,85717,1,8
312,344,86117,2,0,B|184:376|144:256|24:368,1,275,4|0
56,216,87717,5,4
56,128,88117,1,8
112,64,88517,1,0
200,56,88917,1,12
288,56,89317,6,0,B|432:56,2,110,4|8|0
288,144,90517,1,8
352,208,90917,1,0
440,208,91317,1,8
448,120,91717,6,0,B|512:16,2,110,0|8|0
376,176,92917,2,0,B|280:248|176:104|72:232,1,275,8|4
16,288,94517,1,8
80,352,94917,1,0
168,336,95317,1,8
240,280,95717,6,0,B|328:368,2,110,4|8|0
240,192,96917,2,0,B|328:104,2,110,8|0|8
168,144,98117,5,0
232,80,98517,1,8
304,32,98917,2,0,B|496:0|512:168,2,275,4|0|8
232,80,101317,1,0
168,136,101717,1,8
112,200,102117,6,0,B|80:264|144:328|240:288|296:232|368:304,1,330,4|0
456,304,103717,2,0,B|456:72,1,220,0|4
256,192,105317,12,4,108517
