osu file format v5

[General]
AudioFilename: Honey And Clover intro.mp3
AudioLeadIn: 1000
PreviewTime: -1
Countdown: 0
SampleSet: Soft
StackLeniency: 0.7
Mode: 0
LetterboxInBreaks: 1
EditorDistanceSpacing: 1

[Metadata]
Title:Dramatic (TV Size)
Artist:YUKI
Creator:Remco32
Version:Hard
Source:Honey and Clover
Tags:

[Difficulty]
HPDrainRate:6
CircleSize:6
OverallDifficulty:7
SliderMultiplier:1.4
SliderTickRate:1

[Events]
//Background and Video events
0,0,"background.jpg"
1,-273,"Honey And Clover intro.wmv"
//Break Periods
2,10677,21649
//Storyboard Layer 0 (Background)
//Storyboard Layer 1 (Failing)
//Storyboard Layer 2 (Passing)
//Storyboard Layer 3 (Foreground)
//Storyboard Sound Samples
//Background Colour Transformations
3,100,163,162,255

[TimingPoints]
1705,365.853658536585,4,2,0,61,1,0
22192,365.853658536585,4,1,0,49,1,0

[Colours]
Combo1 : 253,47,78
Combo2 : 255,91,255
Combo3 : 0,217,0
Combo4 : 216,254,1

[HitObjects]
224,128,1339,2,0,B|480:128,2,210
64,128,2985,1,0
64,160,3168,2,0,B|64:288,2,70
64,256,3900,1,2
160,256,4265,1,0
160,192,4631,2,2,B|256:64,5,140
352,96,6826,5,0
352,192,7192,1,2
352,288,7558,1,0
256,288,7924,1,2
224,288,8107,1,2
256,192,8656,12,2,10485
416,96,22557,5,0
416,192,22923,1,0
416,224,23106,1,0
352,288,23472,1,0
256,288,23838,1,0
256,288,24204,1,2
160,288,24570,5,0
128,256,24752,2,0,B|128:96,1,140
128,32,25484,1,0
160,32,25667,1,0
256,32,26033,1,0
256,128,26399,1,2
352,128,26765,1,0
256,128,27131,1,2
352,288,27862,6,0,B|224:288,1,70
192,288,28411,1,0
128,288,28594,1,2
128,192,28960,1,2
128,96,29326,1,2
128,96,29692,1,0
128,96,30057,1,2
256,192,30423,12,0,30972
416,96,31887,5,0
416,128,32070,2,0,B|416:352,3,210
224,320,34448,5,0
224,224,34813,2,2,B|64:224,1,140
32,224,35362,1,0
32,128,35728,1,0
64,128,35911,1,0
160,128,36277,2,2,B|384:128,1,210
480,128,37191,1,0
480,160,37374,1,2
480,256,37740,1,2
384,256,38106,1,0
288,256,38472,1,0
288,256,38838,1,2
288,96,39387,6,0,B|288:160|352:224|416:224|480:160|480:96|416:32|320:32|352:128,1,350
256,128,40667,1,0
224,160,40850,2,0,B|224:96|160:32|96:32|32:96|32:160|96:224|192:224|192:160,1,350
224,256,42131,2,0,B|256:352|310:346|384:256,1,210
256,192,42862,12,6,44326
320,320,45240,6,0,B|320:32,2,280
256,320,46887,1,0
192,320,47070,2,0,B|192:-32,4,280
384,256,50728,5,0
384,160,51094,1,2
384,64,51460,1,0
384,160,51826,1,2
352,160,52009,1,2
128,160,52740,5,0
128,192,52923,2,2,B|128:352,1,140
224,320,53655,1,0
224,224,54021,2,2,B|224:64,1,140
320,64,54752,1,0
320,96,54935,1,0
320,192,55301,1,2
320,224,55484,1,2
320,256,55667,2,2,B|192:256|129:241|128:192|128:96,1,280
128,256,56948,5,0
64,192,57313,2,2,B|512:192,1,420
480,128,58594,1,4
480,64,58777,2,2,B|192:64,1,280
128,64,59874,1,2
128,64,60057,2,2,B|128:192,1,70
64,192,60606,1,0
64,256,60789,2,2,B|127:277|497:255|448:32,1,490
352,64,62435,5,0
256,64,62801,1,0
160,64,63167,2,2,B|160:224,3,140
128,288,64631,2,2,B|416:288,2,280
256,192,66460,12,4,67923
224,192,68289,6,4,B|189:237|192:288|160:320|96:256|128:224|96:192|128:160|256:160|256:160|192:96|214:70|224:32|288:96|320:64|320:96|288:160|288:160|384:95|416:160|416:192|384:224|288:192|288:192|320:256|352:288|320:320|263:336|224:371|271:180,1,1120
