osu file format v14

[General]
AudioFilename: RingRinmgRainbow.mp3
AudioLeadIn: 0
PreviewTime: 49039
Countdown: 1
SampleSet: Normal
StackLeniency: 0.7
Mode: 1
LetterboxInBreaks: 0
WidescreenStoryboard: 1

[Editor]
DistanceSpacing: 2
BeatDivisor: 4
GridSize: 32
TimelineZoom: 5.899996

[Metadata]
Title:Ring Ring Rainbow!! (TV size)
TitleUnicode:Ring Ring Rainbow!! (TV size)
Artist:YUIKAORI
ArtistUnicode:ゆいかおり
Creator:Canvas
Version:Muzukashii
Source:城下町のダンデライオン
Tags:リンリンレインボー castle town dandelion 小倉 唯 ogura yui 石原 夏織 ishihara kaori opening tv size Lundlerol Nardoxyribonucleic Charlotte toara_fict
BeatmapID:786377
BeatmapSetID:353897

[Difficulty]
HPDrainRate:5
CircleSize:7
OverallDifficulty:5
ApproachRate:10
SliderMultiplier:1.4
SliderTickRate:1

[Events]
//Background and Video events
0,0,"pussy.jpg",0,40
//Break Periods
//Storyboard Layer 0 (Background)
//Storyboard Layer 1 (Fail)
//Storyboard Layer 2 (Pass)
//Storyboard Layer 3 (Foreground)
//Storyboard Sound Samples

[TimingPoints]
310,331.491712707182,4,1,0,80,1,0
49370,-100,4,1,0,90,0,1
78542,-100,4,1,0,80,0,0

[HitObjects]
192,256,310,5,4,0:0:0:0:
192,256,641,1,4,0:0:0:0:
320,128,972,1,8,0:0:0:0:
320,128,1138,1,8,0:0:0:0:
320,128,1470,1,8,0:0:0:0:
320,128,1801,1,8,0:0:0:0:
192,128,1967,1,0,0:0:0:0:
320,128,2133,1,8,0:0:0:0:
320,128,2464,1,8,0:0:0:0:
192,128,2630,1,0,0:0:0:0:
192,256,2961,1,4,0:0:0:0:
192,256,3127,1,4,0:0:0:0:
192,256,3293,1,4,0:0:0:0:
192,128,3624,1,0,0:0:0:0:
320,128,3790,1,8,0:0:0:0:
320,128,4122,1,8,0:0:0:0:
192,128,4453,1,0,0:0:0:0:
320,128,4619,1,8,0:0:0:0:
192,128,4785,1,0,0:0:0:0:
320,128,5116,1,8,0:0:0:0:
320,128,5282,1,8,0:0:0:0:
320,128,5448,1,8,0:0:0:0:
192,128,5613,1,0,0:0:0:0:
320,128,5945,1,8,0:0:0:0:
320,128,6276,1,8,0:0:0:0:
320,128,6442,1,8,0:0:0:0:
320,128,6774,1,8,0:0:0:0:
320,128,7105,1,8,0:0:0:0:
192,128,7271,1,0,0:0:0:0:
320,128,7437,1,8,0:0:0:0:
192,128,7768,1,0,0:0:0:0:
320,128,7934,1,8,0:0:0:0:
320,128,8265,1,8,0:0:0:0:
192,128,8431,1,0,0:0:0:0:
320,128,8597,1,8,0:0:0:0:
320,128,8928,1,8,0:0:0:0:
320,128,9094,1,8,0:0:0:0:
320,128,9426,1,8,0:0:0:0:
320,128,9757,1,8,0:0:0:0:
192,128,9923,1,0,0:0:0:0:
192,128,10089,1,0,0:0:0:0:
320,128,10420,1,8,0:0:0:0:
192,128,10586,1,0,0:0:0:0:
192,128,10917,1,0,0:0:0:0:
192,128,11083,1,0,0:0:0:0:
320,128,11249,1,8,0:0:0:0:
192,128,11580,1,0,0:0:0:0:
320,128,11746,1,8,0:0:0:0:
320,128,12077,1,8,0:0:0:0:
192,128,12409,1,0,0:0:0:0:
320,128,12575,1,8,0:0:0:0:
192,128,12740,1,0,0:0:0:0:
192,128,13072,1,0,0:0:0:0:
320,128,13238,1,8,0:0:0:0:
320,128,13321,1,8,0:0:0:0:
320,128,13403,1,8,0:0:0:0:
192,256,13569,1,4,0:0:0:0:
192,256,13735,1,4,0:0:0:0:
192,256,13901,1,4,0:0:0:0:
192,128,14564,1,0,0:0:0:0:
192,256,14895,1,4,0:0:0:0:
192,256,15061,1,4,0:0:0:0:
192,256,15227,1,4,0:0:0:0:
320,128,15890,1,8,0:0:0:0:
192,256,16221,1,4,0:0:0:0:
192,256,16387,1,4,0:0:0:0:
192,256,16553,1,4,0:0:0:0:
192,128,17216,1,0,0:0:0:0:
192,256,17547,1,4,0:0:0:0:
192,256,17713,1,4,0:0:0:0:
192,256,17879,1,4,0:0:0:0:
320,128,18542,1,8,0:0:0:0:
192,256,18873,1,4,0:0:0:0:
192,256,19039,1,4,0:0:0:0:
192,256,19205,1,4,0:0:0:0:
192,128,19868,1,0,0:0:0:0:
192,256,20199,1,4,0:0:0:0:
192,256,20365,1,4,0:0:0:0:
192,256,20530,1,4,0:0:0:0:
320,128,21193,1,8,0:0:0:0:
320,128,21525,1,8,0:0:0:0:
192,128,21856,1,0,0:0:0:0:
320,128,22022,1,8,0:0:0:0:
192,128,22188,1,0,0:0:0:0:
320,128,22519,1,8,0:0:0:0:
320,128,22851,1,8,0:0:0:0:
192,128,23182,1,0,0:0:0:0:
320,128,23348,1,8,0:0:0:0:
320,128,23845,1,8,0:0:0:0:
192,256,24177,1,4,0:0:0:0:
320,128,24508,1,8,0:0:0:0:
192,128,24674,1,0,0:0:0:0:
192,128,25006,1,0,0:0:0:0:
320,128,25171,1,8,0:0:0:0:
192,128,25503,1,0,0:0:0:0:
192,128,25669,1,0,0:0:0:0:
320,128,25834,1,8,0:0:0:0:
192,128,26166,1,0,0:0:0:0:
320,128,26497,1,8,0:0:0:0:
320,128,26663,1,8,0:0:0:0:
192,128,26829,1,0,0:0:0:0:
320,128,27160,1,8,0:0:0:0:
192,128,27326,1,0,0:0:0:0:
192,128,27492,1,0,0:0:0:0:
192,128,27658,1,0,0:0:0:0:
320,128,27823,1,8,0:0:0:0:
320,128,28155,1,8,0:0:0:0:
320,128,28486,1,8,0:0:0:0:
192,128,28652,1,0,0:0:0:0:
320,128,28818,1,8,0:0:0:0:
192,128,29149,1,0,0:0:0:0:
320,128,29481,1,8,0:0:0:0:
320,128,30144,1,8,0:0:0:0:
320,128,30475,1,8,0:0:0:0:
192,128,30641,1,0,0:0:0:0:
320,128,30807,1,8,0:0:0:0:
192,128,31138,1,0,0:0:0:0:
320,128,31304,1,8,0:0:0:0:
192,128,31635,1,0,0:0:0:0:
320,128,31801,1,8,0:0:0:0:
192,128,31967,1,0,0:0:0:0:
320,128,32133,1,8,0:0:0:0:
320,128,32464,1,8,0:0:0:0:
192,128,32796,1,0,0:0:0:0:
192,128,32961,1,0,0:0:0:0:
320,128,33127,1,8,0:0:0:0:
192,128,33459,1,0,0:0:0:0:
192,128,33624,1,0,0:0:0:0:
320,128,33790,1,8,0:0:0:0:
192,128,33956,1,0,0:0:0:0:
192,128,34287,1,0,0:0:0:0:
320,128,34453,1,8,0:0:0:0:
192,128,34785,1,0,0:0:0:0:
192,128,34950,1,0,0:0:0:0:
320,128,35282,1,8,0:0:0:0:
192,128,35613,1,0,0:0:0:0:
320,128,35945,1,8,0:0:0:0:
192,128,36276,1,0,0:0:0:0:
320,128,36608,1,8,0:0:0:0:
192,128,36939,1,0,0:0:0:0:
320,128,37105,1,8,0:0:0:0:
320,256,37437,1,12,0:0:0:0:
320,128,38100,1,8,0:0:0:0:
192,128,38597,1,0,0:0:0:0:
192,128,38763,1,0,0:0:0:0:
192,128,39094,1,0,0:0:0:0:
320,128,39426,1,8,0:0:0:0:
192,128,39591,1,0,0:0:0:0:
320,128,39757,1,8,0:0:0:0:
192,128,40089,1,0,0:0:0:0:
320,128,40751,1,8,0:0:0:0:
192,128,41249,1,0,0:0:0:0:
192,128,41414,1,0,0:0:0:0:
320,128,41746,1,8,0:0:0:0:
192,128,41912,1,0,0:0:0:0:
320,128,42243,1,8,0:0:0:0:
320,128,42409,1,8,0:0:0:0:
192,128,42740,1,0,0:0:0:0:
320,128,43072,1,8,0:0:0:0:
192,128,43238,1,0,0:0:0:0:
192,128,43569,1,0,0:0:0:0:
320,128,43735,1,8,0:0:0:0:
192,128,44066,1,0,0:0:0:0:
192,128,44232,1,0,0:0:0:0:
320,128,44398,1,8,0:0:0:0:
192,128,44564,1,0,0:0:0:0:
192,128,44895,1,0,0:0:0:0:
320,128,45061,1,8,0:0:0:0:
192,128,45392,1,0,0:0:0:0:
192,128,45724,1,0,0:0:0:0:
192,128,45890,1,0,0:0:0:0:
320,128,46055,1,0,0:0:0:0:
320,128,46221,1,8,0:0:0:0:
320,128,46387,1,8,0:0:0:0:
192,256,46718,1,4,0:0:0:0:
192,256,47216,1,4,0:0:0:0:
192,256,47713,1,4,0:0:0:0:
192,256,48211,1,4,0:0:0:0:
192,128,48542,1,0,0:0:0:0:
320,128,48707,1,8,0:0:0:0:
192,128,48873,1,0,0:0:0:0:
320,128,49039,1,8,0:0:0:0:
320,128,49122,1,8,0:0:0:0:
320,128,49205,1,8,0:0:0:0:
192,128,49370,1,0,0:0:0:0:
192,128,49702,1,0,0:0:0:0:
320,128,49868,1,8,0:0:0:0:
192,128,50033,1,0,0:0:0:0:
192,128,50365,1,0,0:0:0:0:
320,128,50696,1,8,0:0:0:0:
320,128,50862,1,8,0:0:0:0:
192,128,51028,1,0,0:0:0:0:
320,128,51193,1,8,0:0:0:0:
192,128,51359,1,0,0:0:0:0:
192,128,52022,1,0,0:0:0:0:
192,128,52354,1,0,0:0:0:0:
320,128,52519,1,8,0:0:0:0:
192,128,52685,1,0,0:0:0:0:
192,128,53017,1,0,0:0:0:0:
320,128,53182,1,8,0:0:0:0:
320,128,53348,1,8,0:0:0:0:
320,128,53431,1,8,0:0:0:0:
320,128,53514,1,8,0:0:0:0:
192,128,53680,1,0,0:0:0:0:
320,128,53845,1,8,0:0:0:0:
192,128,54011,1,0,0:0:0:0:
192,256,54674,1,4,0:0:0:0:
320,128,55006,1,8,0:0:0:0:
192,128,55171,1,0,0:0:0:0:
192,128,55337,1,0,0:0:0:0:
320,128,55503,1,8,0:0:0:0:
192,128,55669,1,0,0:0:0:0:
320,128,56000,1,8,0:0:0:0:
192,128,56332,1,0,0:0:0:0:
320,128,56497,1,8,0:0:0:0:
192,128,56663,1,0,0:0:0:0:
192,128,57326,1,0,0:0:0:0:
192,128,57492,1,0,0:0:0:0:
320,128,57658,1,8,0:0:0:0:
192,128,57989,1,0,0:0:0:0:
192,128,58155,1,0,0:0:0:0:
320,128,58321,1,8,0:0:0:0:
192,256,58652,1,4,0:0:0:0:
192,256,59149,1,4,0:0:0:0:
192,128,59481,1,0,0:0:0:0:
320,128,59647,1,8,0:0:0:0:
192,128,59729,1,8,0:0:0:0:
320,128,59812,1,8,0:0:0:0:
192,128,59978,1,0,0:0:0:0:
192,128,60310,1,0,0:0:0:0:
320,128,60476,1,8,0:0:0:0:
192,128,60641,1,0,0:0:0:0:
192,128,60973,1,0,0:0:0:0:
320,128,61138,1,8,0:0:0:0:
320,128,61304,1,8,0:0:0:0:
192,128,61636,1,0,0:0:0:0:
320,128,61801,1,8,0:0:0:0:
192,128,61967,1,0,0:0:0:0:
192,128,62299,1,0,0:0:0:0:
320,128,62464,1,8,0:0:0:0:
192,128,62630,1,8,0:0:0:0:
320,128,62713,1,8,0:0:0:0:
320,128,62796,1,8,0:0:0:0:
192,128,62961,1,0,0:0:0:0:
192,128,63127,1,8,0:0:0:0:
192,128,63293,1,0,0:0:0:0:
192,128,63624,1,0,0:0:0:0:
320,128,63790,1,8,0:0:0:0:
320,128,63956,1,8,0:0:0:0:
192,128,64288,1,8,0:0:0:0:
192,128,64453,1,0,0:0:0:0:
320,128,64619,1,8,0:0:0:0:
192,128,64951,1,0,0:0:0:0:
320,128,65116,1,8,0:0:0:0:
192,256,65282,1,4,0:0:0:0:
320,128,65614,1,8,0:0:0:0:
192,128,65779,1,0,0:0:0:0:
192,128,65945,1,0,0:0:0:0:
320,128,66111,1,8,0:0:0:0:
192,128,66277,1,0,0:0:0:0:
192,128,66442,1,0,0:0:0:0:
320,128,66608,1,8,0:0:0:0:
320,128,66940,1,8,0:0:0:0:
320,128,67105,1,0,0:0:0:0:
320,128,67271,1,8,0:0:0:0:
320,128,67354,1,8,0:0:0:0:
320,128,67437,1,8,0:0:0:0:
192,128,67603,1,0,0:0:0:0:
320,128,67934,1,8,0:0:0:0:
320,128,68597,1,8,0:0:0:0:
320,128,68763,1,8,0:0:0:0:
320,128,69094,1,8,0:0:0:0:
192,128,69426,1,0,0:0:0:0:
320,128,69592,1,8,0:0:0:0:
320,128,69923,1,8,0:0:0:0:
192,128,70089,1,0,0:0:0:0:
192,128,70172,1,0,0:0:0:0:
320,128,70255,1,0,0:0:0:0:
320,128,70420,1,8,0:0:0:0:
192,256,70586,1,4,0:0:0:0:
320,128,71249,1,8,0:0:0:0:
192,256,71912,1,4,0:0:0:0:
192,256,72575,1,4,0:0:0:0:
192,128,73238,1,0,0:0:0:0:
192,128,73403,1,0,0:0:0:0:
192,128,73735,1,0,0:0:0:0:
192,128,73901,1,0,0:0:0:0:
192,128,74232,1,0,0:0:0:0:
192,128,74398,1,0,0:0:0:0:
192,128,74729,1,0,0:0:0:0:
192,128,74895,1,0,0:0:0:0:
320,256,75227,1,12,0:0:0:0:
320,256,75558,1,12,0:0:0:0:
192,128,75890,1,0,0:0:0:0:
192,128,76055,1,0,0:0:0:0:
192,128,76387,1,0,0:0:0:0:
192,128,76553,1,0,0:0:0:0:
192,128,76884,1,0,0:0:0:0:
192,128,77050,1,0,0:0:0:0:
192,128,77381,1,0,0:0:0:0:
192,128,77547,1,0,0:0:0:0:
320,256,77879,1,12,0:0:0:0:
320,256,78210,1,12,0:0:0:0:
192,128,78542,1,0,0:0:0:0:
320,128,78873,1,8,0:0:0:0:
192,128,79039,1,0,0:0:0:0:
320,128,79205,1,8,0:0:0:0:
320,128,79536,1,8,0:0:0:0:
192,128,79702,1,0,0:0:0:0:
320,128,79868,1,8,0:0:0:0:
320,128,80199,1,8,0:0:0:0:
192,128,80365,1,0,0:0:0:0:
192,128,80696,1,0,0:0:0:0:
320,128,80862,1,8,0:0:0:0:
320,128,81193,1,8,0:0:0:0:
192,128,81359,1,0,0:0:0:0:
320,128,81524,1,8,0:0:0:0:
192,128,81690,1,0,0:0:0:0:
320,128,81856,1,8,0:0:0:0:
320,128,82187,1,8,0:0:0:0:
192,128,82353,1,0,0:0:0:0:
320,128,82519,1,8,0:0:0:0:
192,128,82850,1,0,0:0:0:0:
320,128,83016,1,8,0:0:0:0:
192,128,83182,1,0,0:0:0:0:
320,128,83348,1,8,0:0:0:0:
320,128,83680,1,8,0:0:0:0:
192,128,83845,1,0,0:0:0:0:
320,128,84177,1,8,0:0:0:0:
192,128,84508,1,8,0:0:0:0:
192,128,84674,1,0,0:0:0:0:
320,128,84840,1,8,0:0:0:0:
192,256,85171,1,4,0:0:0:0:
192,256,85834,1,4,0:0:0:0:
192,256,86497,1,4,0:0:0:0:
