osu file format v14

[General]
AudioFilename: Rainbow.mp3
AudioLeadIn: 1000
PreviewTime: 48956
Countdown: 0
SampleSet: Soft
StackLeniency: 0.7
Mode: 0
LetterboxInBreaks: 0
WidescreenStoryboard: 0

[Editor]
DistanceSpacing: 2
BeatDivisor: 4
GridSize: 4
TimelineZoom: 3.099999

[Metadata]
Title:Ring Ring Rainbow!! (TV size)
TitleUnicode:Ring Ring Rainbow!! (TV size)
Artist:YUIKAORI
ArtistUnicode:ゆいかおり
Creator:Enjoy
Version:Insane
Source:城下町のダンデライオン
Tags:リンリンレインボー castle town dandelion 小倉 唯 ogura yui 石原 夏織 ishihara kaori opening tv size fycho chaoslitz mackenzie crystal Joukamachi no danderaion Alex Li
BeatmapID:737579
BeatmapSetID:330887

[Difficulty]
HPDrainRate:6.5
CircleSize:4
OverallDifficulty:7.5
ApproachRate:9
SliderMultiplier:1.8
SliderTickRate:1

[Events]
//Background and Video events
0,0,"p2253553991_meitu_1.jpg",0,0
Video,0,"Rainbow.avi"
//Break Periods
//Storyboard Layer 0 (Background)
//Storyboard Layer 1 (Fail)
//Storyboard Layer 2 (Pass)
//Storyboard Layer 3 (Foreground)
//Storyboard Sound Samples

[TimingPoints]
310,331.491712707182,4,2,1,70,1,0
310,-100,4,2,1,70,0,0
972,-133.333333333333,4,2,1,60,0,0
2961,-100,4,2,1,70,0,0
3624,-133.333333333333,4,2,1,60,0,0
5613,-100,4,2,1,70,0,0
13569,-111.111111111111,4,2,1,60,0,0
24177,-100,4,2,1,70,0,0
37437,-133.333333333333,4,2,1,50,0,0
42740,-100,4,2,1,60,0,0
45392,-100,4,2,1,30,0,0
45724,-100,4,2,1,40,0,0
46055,-100,4,2,1,50,0,0
46387,-100,4,2,1,60,0,0
46718,-100,4,2,1,70,0,0
49370,-100,4,2,1,80,0,1
59315,-100,4,2,1,60,0,0
59978,-100,4,2,1,80,0,1
66774,-100,4,2,1,60,0,1
70586,-125,4,2,1,50,0,0
73238,-100,4,2,1,60,0,0
78542,-100,4,2,1,70,0,0
84094,-100,4,2,1,50,0,0
85171,-100,4,2,1,50,0,0
88486,-100,4,2,1,5,0,0

[Colours]
Combo1 : 128,128,255
Combo2 : 255,0,128
Combo3 : 0,255,255
Combo4 : 255,128,128
Combo5 : 192,192,192
Combo6 : 128,255,128

[HitObjects]
116,156,310,5,4,0:0:0:0:
324,84,641,1,4,0:0:0:0:
324,84,972,22,0,P|316:113|312:156,1,67.5000025749208,8|8,0:1|0:1,0:0:0:0:
344,232,1304,1,0,0:0:0:0:
420,176,1470,2,0,L|432:88,1,67.5000025749208,8|2,0:1|0:0,0:0:0:0:
344,232,1801,2,0,L|336:304,1,67.5000025749208,8|2,0:1|0:0,0:0:0:0:
212,272,2133,2,0,P|184:216|216:152,1,135.000005149842,8|8,0:1|0:1,0:0:0:0:
304,104,2630,2,0,L|392:92,1,67.5000025749208,8|2,0:1|0:0,0:0:0:0:
436,228,2961,21,4,0:0:0:0:
324,252,3127,1,4,0:0:0:0:
212,272,3293,1,4,0:0:0:0:
212,272,3624,38,0,P|176:264|132:276,1,67.5000025749208,8|8,0:1|0:1,0:0:0:0:
176,344,3956,1,2,0:0:0:0:
208,188,4122,1,8,0:1:0:0:
52,216,4287,1,2,0:0:0:0:
52,216,4453,2,0,L|48:296,1,67.5000025749208,8|0,0:1|0:0,0:0:0:0:
128,180,4785,69,8,0:1:0:0:
228,108,4950,1,2,0:0:0:0:
258,122,5033,1,2,0:0:0:0:
280,147,5116,1,2,0:0:0:0:
289,179,5199,1,2,0:0:0:0:
284,212,5282,2,0,L|328:200,1,33.7500012874604,8|8,0:0|0:0,0:0:0:0:
344,276,5448,2,0,L|404:264,1,33.7500012874604,8|8,0:0|0:0,0:0:0:0:
456,192,5613,70,0,L|452:292,1,90,4|0,0:0|0:0,0:0:0:0:
352,120,5945,2,0,L|356:24,1,90,12|0,0:0|0:0,0:0:0:0:
208,184,6276,1,2,0:0:0:0:
348,264,6442,1,0,0:0:0:0:
280,148,6608,1,8,0:0:0:0:
192,284,6774,38,0,B|120:276|120:276|76:288|76:288|4:280,1,180
44,176,7271,1,8,0:0:0:0:
208,184,7437,1,0,0:0:0:0:
208,184,7519,1,8,0:0:0:0:
208,184,7602,1,2,0:0:0:0:
88,256,7768,1,0,0:0:0:0:
176,92,7934,1,8,0:0:0:0:
288,212,8100,1,0,0:0:0:0:
400,92,8265,54,0,P|408:48|400:0,1,90,4|0,0:0|0:0,0:0:0:0:
272,104,8597,2,0,P|264:152|276:216,1,90,12|0,0:0|0:0,0:0:0:0:
420,256,8928,1,2,0:0:0:0:
268,316,9094,1,0,0:0:0:0:
348,152,9260,1,8,0:0:0:0:
176,92,9426,54,0,L|168:276,1,180
268,316,9923,1,8,0:0:0:0:
360,184,10089,1,0,0:0:0:0:
360,184,10171,1,8,0:0:0:0:
360,184,10254,1,2,0:0:0:0:
248,140,10420,1,0,0:0:0:0:
424,248,10586,1,8,0:0:0:0:
388,100,10751,1,0,0:0:0:0:
244,236,10917,6,0,P|199:243|136:236,1,90,4|0,0:0|0:0,0:0:0:0:
84,96,11249,2,0,P|128:88|188:96,1,90,12|0,0:0|0:0,0:0:0:0:
284,160,11580,1,2,0:0:0:0:
284,29,11746,1,0,0:0:0:0:
396,94,11912,1,8,0:0:0:0:
284,160,12077,38,0,B|200:200|176:144|92:172,1,180,4|8,0:0|0:0,0:0:0:0:
148,268,12575,1,8,0:0:0:0:
284,160,12740,2,0,P|288:68|212:28,1,180,4|0,0:0|0:0,0:0:0:0:
83,135,13238,1,8,0:0:0:0:
68,177,13321,1,8,0:0:0:0:
76,221,13403,1,8,0:0:0:0:
105,254,13486,1,8,0:0:0:0:
148,268,13569,53,8,0:1:0:0:
268,208,13735,1,8,0:1:0:0:
252,76,13901,2,8,P|204:32|108:52,1,161.999995056153,8|2,0:1|0:0,0:1:0:0:
83,135,14398,1,0,0:0:0:0:
179,192,14564,2,0,L|172:112,1,80.9999975280763,2|0,0:0|0:0,0:0:0:0:
320,288,14895,53,8,0:1:0:0:
284,160,15061,1,8,0:1:0:0:
440,112,15227,2,0,B|448:160|448:160|440:184|440:184|452:224|436:284,1,161.999995056153,8|2,0:1|0:0,0:0:0:0:
224,248,15890,1,8,0:0:0:0:
280,40,16221,21,8,0:1:0:0:
284,160,16387,1,8,0:1:0:0:
172,112,16553,2,0,B|104:96|52:120|52:120|32:104|28:76,1,161.999995056153,8|2,0:1|0:0,0:0:0:0:
84,16,17050,1,0,0:0:0:0:
172,112,17216,2,0,P|216:120|280:104,1,80.9999975280763,2|0,0:0|0:0,0:0:0:0:
400,40,17547,53,8,0:1:0:0:
332,152,17713,1,8,0:1:0:0:
436,232,17879,2,0,B|464:240|484:232|484:232|472:292|480:352,1,161.999995056153,8|2,0:1|0:0,0:0:0:0:
272,280,18542,1,8,0:0:0:0:
72,148,18873,21,8,0:1:0:0:
200,116,19039,1,8,0:1:0:0:
144,236,19205,1,8,0:1:0:0:
212,292,19370,2,0,P|253:298|316:280,1,80.9999975280763,0|2,0:0|0:0,0:0:0:0:
416,160,19702,2,0,P|376:152|324:164,1,80.9999975280763,0|2,0:0|0:0,0:0:0:0:
252,196,20033,1,0,0:0:0:0:
126,269,20199,53,8,0:1:0:0:
126,123,20365,1,8,0:1:0:0:
252,196,20530,2,0,B|252:264|252:264|244:296|244:296|244:360,1,161.999995056153,8|2,0:1|0:0,0:0:0:0:
372,128,21193,2,0,L|376:48,1,80.9999975280763,8|0,0:0|0:0,0:0:0:0:
436,172,21525,6,0,P|356:204|300:156,1,161.999995056153,4|8,0:0|0:0,0:0:0:0:
256,88,22022,1,0,0:0:0:0:
160,232,22188,1,2,0:0:0:0:
160,232,22354,1,2,0:0:0:0:
272,300,22519,1,8,0:0:0:0:
252,172,22685,1,0,0:0:0:0:
112,304,22851,6,0,L|28:312,1,80.9999975280763,8|8,0:0|0:0,0:0:0:0:
176,148,23182,1,2,0:0:0:0:
240,280,23348,2,0,P|316:308|400:240,1,161.999995056153,8|2,0:0|0:0,0:0:0:0:
404,112,23845,1,8,0:0:0:0:
372,120,23928,1,8,0:0:0:0:
340,128,24011,1,8,0:0:0:0:
308,136,24094,1,8,0:0:0:0:
276,144,24177,70,0,L|176:136,1,90,4|0,0:0|0:0,0:0:0:0:
108,196,24508,1,8,0:0:0:0:
204,296,24674,2,0,P|312:288|328:212,1,180
276,144,25171,1,8,0:0:0:0:
256,240,25337,1,0,0:0:0:0:
144,108,25503,37,2,0:0:0:0:
96,240,25669,1,0,0:0:0:0:
196,168,25834,1,8,0:0:0:0:
76,256,26000,1,0,0:0:0:0:
204,332,26166,2,0,L|320:320|320:320,1,90,2|0,0:0|0:0,0:0:0:0:
376,200,26497,2,0,P|328:196|276:212,1,90,8|0,0:0|0:0,0:0:0:0:
204,332,26829,21,2,0:0:0:0:
116,244,26995,2,0,P|106:199|128:128,1,90,0|8,0:0|0:0,0:0:0:0:
208,76,27326,1,0,0:0:0:0:
304,248,27492,1,2,0:0:0:0:
188,200,27658,1,0,0:0:0:0:
320,120,27823,1,8,0:0:0:0:
188,200,27989,1,0,0:0:0:0:
320,276,28155,22,0,P|360:288|420:280,1,90,2|0,0:0|0:0,0:0:0:0:
456,128,28486,1,8,0:0:0:0:
344,200,28652,1,0,0:0:0:0:
244,112,28818,2,0,P|244:64|256:16,1,90,2|0,0:0|0:0,0:0:0:0:
392,80,29149,1,8,0:0:0:0:
344,200,29315,1,0,0:0:0:0:
344,200,29398,1,8,0:0:0:0:
344,200,29481,22,0,P|260:244|196:188,1,180,4|8,0:0|0:0,0:0:0:0:
152,104,29978,1,0,0:0:0:0:
272,164,30144,1,2,0:0:0:0:
352,76,30309,1,0,0:0:0:0:
424,172,30475,2,0,P|436:216|432:272,1,90,8|0,0:0|0:0,0:0:0:0:
260,343,30807,22,0,P|263:253|272:164,1,180,4|8,0:0|0:0,0:0:0:0:
152,72,31304,2,0,P|88:128|112:224,1,180,4|0,0:0|0:0,0:0:0:0:
160,296,31801,1,8,0:0:0:0:
340,168,31967,1,0,0:0:0:0:
340,168,32050,1,8,0:0:0:0:
340,168,32133,22,0,P|244:156|156:156,2,180,4|8|2,0:0|0:0|0:0,0:0:0:0:
376,260,32961,1,0,0:0:0:0:
256,156,33127,2,0,P|255:109|264:56,1,90,8|0,0:0|0:0,0:0:0:0:
440,136,33459,1,2,0:0:0:0:
376,260,33624,1,0,0:0:0:0:
232,136,33790,1,8,0:0:0:0:
136,248,33956,2,0,P|128:152|124:64,1,180
260,120,34453,2,0,P|260:168|240:228,1,90,8|0,0:0|0:0,0:0:0:0:
64,300,34785,53,8,0:0:0:0:
144,356,34950,2,0,P|224:360|280:280,1,180,8|8,0:0|0:0,0:0:0:0:
192,160,35448,1,2,0:0:0:0:
184,264,35613,1,8,0:0:0:0:
160,116,35779,1,2,0:0:0:0:
300,172,35945,6,0,B|360:184|360:184|416:168|416:168|484:180,1,180,8|8,0:0|0:0,0:0:0:0:
412,332,36442,1,4,0:0:0:0:
280,312,36608,1,8,0:0:0:0:
280,312,36691,1,0,0:0:0:0:
280,312,36774,38,0,L|272:360,1,45,2|2,0:0|0:0,0:0:0:0:
300,172,36939,2,0,L|308:120,1,45,2|2,0:0|0:0,0:0:0:0:
216,228,37105,2,0,L|168:216,1,45,8|0,0:0|0:0,0:0:0:0:
360,256,37271,2,0,L|412:268,1,45,8|0,0:0|0:0,0:0:0:0:
200,304,37437,6,0,P|184:272|216:168,1,135.000005149842,4|2,0:0|0:0,0:0:0:0:
268,128,37934,1,0,0:0:0:0:
336,172,38100,2,0,P|408:172|480:144,1,135.000005149842,8|2,0:0|0:0,0:0:0:0:
480,232,38597,1,0,0:0:0:0:
404,260,38763,1,2,0:0:0:0:
324,260,38928,2,0,L|312:336,1,67.5000025749208,8|2,0:0|0:0,0:0:0:0:
240,244,39260,1,0,0:0:0:0:
168,204,39426,2,0,P|168:168|176:128,1,67.5000025749208,8|0,0:0|0:0,0:0:0:0:
276,96,39757,2,0,P|288:128|288:184,1,67.5000025749208,2|0,0:0|0:0,0:0:0:0:
280,204,40006,1,0,0:0:0:0:
280,204,40089,22,0,P|344:204|412:180,1,135.000005149842,4|2,0:0|0:0,0:0:0:0:
468,124,40586,1,0,0:0:0:0:
436,48,40751,1,8,0:0:0:0:
356,36,40917,2,0,P|272:37|212:56,1,135.000005149842
156,100,41414,1,4,0:0:0:0:
120,172,41580,2,0,P|112:208|108:252,1,67.5000025749208,8|2,0:0|0:0,0:0:0:0:
152,308,41912,1,0,0:0:0:0:
228,336,42077,2,0,P|264:339|312:328,1,67.5000025749208,8|2,0:0|0:0,0:0:0:0:
400,244,42409,2,0,P|360:240|304:248,1,67.5000025749208,8|2,0:0|0:0,0:0:0:0:
212,260,42740,5,4,0:0:0:0:
276,112,42906,1,0,0:0:0:0:
332,241,43072,1,8,0:0:0:0:
196,148,43238,2,0,P|104:176|0:152,1,180,4|0,0:0|0:0,0:0:0:0:
128,44,43735,2,0,L|188:64,1,45,8|0,0:0|0:0,0:0:0:0:
276,112,43901,2,0,L|328:96,1,45
424,48,44066,5,4,0:0:0:0:
352,168,44232,1,0,0:0:0:0:
480,224,44398,1,8,0:0:0:0:
372,312,44564,2,0,B|342:312|300:284|300:284|252:276|192:300,1,180,4|0,0:0|0:0,0:0:0:0:
116,244,45061,2,0,L|128:184,1,45,8|0,0:0|0:0,0:0:0:0:
196,104,45227,2,0,L|244:120,1,45,8|8,0:0|0:0,0:0:0:0:
352,152,45392,5,4,0:0:0:0:
352,152,45558,1,8,0:0:0:0:
212,260,45724,1,8,0:0:0:0:
268,132,45890,1,8,0:0:0:0:
300,304,46055,1,8,0:0:0:0:
300,304,46221,1,8,0:0:0:0:
160,160,46387,1,8,0:0:0:0:
72,368,46553,1,8,0:0:0:0:
212,260,46718,70,0,P|280:208|384:252,1,180,4|8,0:0|0:0,0:0:0:0:
460,168,47216,1,4,0:0:0:0:
428,164,47713,6,0,P|364:128|400:28,1,180,4|8,0:0|0:0,0:0:0:0:
288,156,48210,1,4,0:0:0:0:
284,176,48542,1,2,0:0:0:0:
280,192,48624,1,2,0:0:0:0:
276,208,48707,5,8,0:0:0:0:
140,288,48873,1,2,0:0:0:0:
264,332,49039,1,8,0:0:0:0:
176,176,49205,1,2,0:0:0:0:
368,208,49370,6,0,P|420:148|372:64,1,180,4|8,0:0|0:0,0:0:0:0:
232,68,49868,1,0,0:0:0:0:
276,208,50033,1,2,0:0:0:0:
344,136,50199,1,0,0:0:0:0:
176,176,50365,2,0,P|168:216|164:272,1,90,8|0,0:0|0:0,0:0:0:0:
272,336,50696,6,0,P|356:332|388:224,1,180,2|8,0:0|0:0,0:0:0:0:
344,136,51193,1,0,0:0:0:0:
344,136,51276,1,8,0:0:0:0:
344,136,51359,1,2,0:0:0:0:
312,260,51525,1,0,0:0:0:0:
176,176,51691,1,8,0:0:0:0:
184,308,51856,1,0,0:0:0:0:
296,164,52022,6,0,P|292:60|224:40,1,180,4|8,0:0|0:0,0:0:0:0:
96,128,52519,1,0,0:0:0:0:
236,116,52685,1,2,0:0:0:0:
104,44,52851,1,0,0:0:0:0:
176,176,53017,2,0,P|184:224|184:276,1,90,8|0,0:0|0:0,0:0:0:0:
332,328,53348,6,0,P|424:264|400:200,1,180,2|8,0:0|0:0,0:0:0:0:
332,140,53845,1,0,0:0:0:0:
332,140,53928,1,8,0:0:0:0:
332,140,54011,1,2,0:0:0:0:
244,276,54177,1,0,0:0:0:0:
352,256,54343,1,8,0:0:0:0:
224,156,54508,1,0,0:0:0:0:
140,296,54674,6,0,B|104:280|80:248|80:248|101:193|100:128,1,180,4|8,0:0|0:0,0:0:0:0:
48,64,55171,1,0,0:0:0:0:
184,16,55337,1,2,0:0:0:0:
24,96,55503,1,0,0:0:0:0:
184,188,55669,2,0,P|200:144|200:96,1,90,8|0,0:0|0:0,0:0:0:0:
104,260,56000,6,0,B|108:296|120:320|120:320|172:296|248:304,1,180,2|8,0:0|0:0,0:0:0:0:
336,364,56497,1,0,0:0:0:0:
336,364,56580,1,0,0:0:0:0:
336,364,56663,1,2,0:0:0:0:
388,260,56829,1,0,0:0:0:0:
234,302,56995,1,8,0:0:0:0:
416,252,57160,1,0,0:0:0:0:
224,116,57326,5,4,0:0:0:0:
176,264,57492,1,2,0:0:0:0:
344,192,57658,1,8,0:0:0:0:
200,232,57823,1,0,0:0:0:0:
328,276,57989,5,4,0:0:0:0:
304,112,58155,1,2,0:0:0:0:
245,302,58321,1,8,0:0:0:0:
344,192,58486,1,0,0:0:0:0:
184,188,58652,5,4,0:0:0:0:
184,188,58818,1,2,0:0:0:0:
328,276,58984,1,8,0:0:0:0:
328,276,59149,1,8,0:0:0:0:
312,116,59315,5,2,0:0:0:0:
296,83,59398,1,2,0:0:0:0:
271,57,59481,1,2,0:0:0:0:
240,40,59564,1,2,0:0:0:0:
205,33,59647,2,0,L|128:44,1,45,8|8,0:0|0:0,0:0:0:0:
120,124,59812,2,0,L|88:164,1,45,8|8,0:0|0:0,0:0:0:0:
60,248,59978,22,0,B|80:280|76:304|76:304|132:276|193:285,1,180,4|8,0:0|0:0,0:0:0:0:
272,348,60475,1,0,0:0:0:0:
328,200,60641,1,2,0:0:0:0:
192,284,60807,1,0,0:0:0:0:
132,148,60972,1,8,0:0:0:0:
228,200,61138,1,0,0:0:0:0:
324,96,61304,6,0,B|400:88|400:88|432:96|432:96|508:88,1,180,2|8,0:0|0:0,0:0:0:0:
432,220,61801,1,0,0:0:0:0:
432,220,61884,1,8,0:0:0:0:
432,220,61967,1,2,0:0:0:0:
324,96,62133,1,0,0:0:0:0:
312,256,62298,1,8,0:0:0:0:
388,144,62464,1,0,0:0:0:0:
216,176,62630,6,0,B|184:204|184:204|168:276|188:340,1,180,4|8,0:0|0:0,0:0:0:0:
312,256,63127,1,0,0:0:0:0:
324,96,63293,1,2,0:0:0:0:
216,176,63459,2,0,P|168:178|120:160,1,90,0|8,0:0|0:0,0:0:0:0:
80,80,63790,1,0,0:0:0:0:
64,248,63956,6,0,P|140:304|244:276,1,180,2|8,0:0|0:0,0:0:0:0:
312,256,64453,1,0,0:0:0:0:
312,256,64536,1,8,0:0:0:0:
312,256,64619,1,2,0:0:0:0:
200,156,64785,1,0,0:0:0:0:
312,256,64950,1,8,0:0:0:0:
164,308,65116,1,0,0:0:0:0:
324,168,65282,6,0,B|348:128|348:128|335:56|288:4,1,180,4|8,0:0|0:0,0:0:0:0:
160,172,65779,1,0,0:0:0:0:
324,168,65945,1,2,0:0:0:0:
220,60,66111,1,0,0:0:0:0:
256,228,66276,2,0,L|248:332,1,90,8|0,0:0|0:0,0:0:0:0:
160,172,66608,5,4,0:0:0:0:
148,328,66774,1,8,0:0:0:0:
160,172,66939,1,8,0:0:0:0:
24,232,67105,1,0,0:0:0:0:
120,84,67271,1,8,0:0:0:0:
316,92,67437,5,8,0:0:0:0:
360,97,67519,1,8,0:0:0:0:
393,126,67602,1,8,0:0:0:0:
404,169,67685,1,8,0:0:0:0:
389,210,67768,1,8,0:0:0:0:
353,236,67851,1,8,0:0:0:0:
308,244,67934,5,4,0:0:0:0:
200,96,68100,2,0,P|188:188|184:280,1,180,2|0,0:0|0:0,0:0:0:0:
353,236,68597,1,8,0:0:0:0:
496,144,68763,2,0,P|432:92|360:128,1,135,8|2,0:0|0:0,0:0:0:0:
316,160,69094,6,0,P|268:160|216:152,1,90,8|0,0:0|0:0,0:0:0:0:
116,88,69426,1,8,0:0:0:0:
104,232,69591,1,8,0:0:0:0:
220,128,69757,1,0,0:0:0:0:
300,264,69923,2,0,P|312:306|312:356,1,90,4|0,0:0|0:0,0:0:0:0:
163,354,70254,1,8,0:0:0:0:
124,331,70337,1,8,0:0:0:0:
102,293,70420,1,8,0:0:0:0:
103,248,70503,1,8,0:0:0:0:
128,212,70586,6,0,P|200:196|288:184,2,144,4|0|4,0:0|0:0|0:0,0:0:0:0:
269,185,71912,1,4,0:0:0:0:
269,185,72575,1,4,0:0:0:0:
269,185,73238,5,8,0:1:0:0:
352,288,73403,1,8,0:1:0:0:
272,160,73735,5,8,0:1:0:0:
220,328,73901,1,8,0:1:0:0:
276,136,74232,5,8,0:1:0:0:
88,284,74398,1,8,0:1:0:0:
280,112,74729,5,8,0:1:0:0:
20,144,74895,1,8,0:1:0:0:
284,88,75227,5,4,0:0:0:0:
128,200,75392,1,2,0:0:0:0:
176,52,75558,1,4,0:0:0:0:
224,244,75724,1,2,0:0:0:0:
288,64,75890,5,8,0:1:0:0:
408,220,76055,1,8,0:1:0:0:
400,240,76387,5,8,0:1:0:0:
192,280,76553,1,8,0:1:0:0:
184,300,76884,5,8,0:1:0:0:
132,108,77050,1,8,0:1:0:0:
120,88,77381,5,8,0:1:0:0:
316,104,77547,1,8,0:1:0:0:
328,84,77879,5,8,0:1:0:0:
308,276,78044,1,8,0:1:0:0:
340,305,78127,1,8,0:1:0:0:
384,310,78209,1,8,0:0:0:0:
422,286,78292,1,8,0:0:0:0:
438,245,78375,1,8,0:0:0:0:
426,203,78458,1,8,0:0:0:0:
392,172,78542,6,0,P|344:176|296:184,1,90,4|0,0:0|0:0,0:0:0:0:
128,232,78873,2,0,P|140:272|148:320,1,90,8|0,0:0|0:0,0:0:0:0:
220,116,79205,1,2,0:0:0:0:
220,253,79370,1,0,0:0:0:0:
101,184,79536,1,8,0:0:0:0:
256,92,79702,1,2,0:0:0:0:
292,288,79868,6,0,P|212:332|144:268,1,180,4|8,0:0|0:0,0:0:0:0:
101,184,80365,1,0,0:0:0:0:
101,184,80448,1,8,0:0:0:0:
101,184,80530,1,2,0:0:0:0:
220,253,80696,1,0,0:0:0:0:
320,116,80862,2,0,P|268:125|224:140,1,90,8|0,0:0|0:0,0:0:0:0:
392,220,81193,5,4,0:0:0:0:
440,96,81359,1,0,0:0:0:0:
368,228,81525,1,8,0:0:0:0:
468,84,81691,1,0,0:0:0:0:
504,220,81856,2,0,P|512:264|512:312,1,90,2|0,0:0|0:0,0:0:0:0:
356,132,82188,2,0,P|355:92|368:28,1,90,8|2,0:0|0:0,0:0:0:0:
412,208,82519,6,0,P|304:212|264:148,1,180,4|8,0:0|0:0,0:0:0:0:
148,96,83017,2,0,P|160:204|168:300,1,180,0|2,0:0|0:0,0:0:0:0:
60,220,83514,1,8,0:0:0:0:
148,96,83680,1,0,0:0:0:0:
284,160,83845,6,0,P|329:158|400:144,1,90,4|0,0:0|0:0,0:0:0:0:
373,151,84094,1,8,0:0:0:0:
373,151,84177,1,2,0:0:0:0:
232,92,84343,1,8,0:0:0:0:
176,220,84508,1,2,0:0:0:0:
296,260,84674,1,8,0:0:0:0:
168,132,84840,1,8,0:0:0:0:
88,312,85006,1,8,0:0:0:0:
32,100,85171,5,4,0:0:0:0:
60,352,85834,1,4,0:0:0:0:
256,192,86497,1,4,0:0:0:0:
256,192,86580,12,0,88486,0:0:0:0:
