osu file format v14

[General]
AudioFilename: Yui - Again.mp3
AudioLeadIn: 1004
PreviewTime: 48695
Countdown: 0
SampleSet: Soft
StackLeniency: 0.7
Mode: 0
LetterboxInBreaks: 0
WidescreenStoryboard: 0

[Editor]
DistanceSpacing: 1.2
BeatDivisor: 4
GridSize: 32
TimelineZoom: 1.4

[Metadata]
Title:again
TitleUnicode:again
Artist:YUI
ArtistUnicode:YUI
Creator:DarknessAngel
Version:Insane
Source:鋼の錬金術師 FULLMETAL ALCHEMIST
Tags:Full Metal Alchemist: Brotherhood FMA2 FMA bones opening Yia Loneight M_o_m_o Konei
BeatmapID:454593
BeatmapSetID:37401

[Difficulty]
HPDrainRate:8
CircleSize:4
OverallDifficulty:7
ApproachRate:9
SliderMultiplier:1.8
SliderTickRate:2

[Events]
//Background and Video events
Video,0,"Vedio.avi"
0,0,"BG.jpg",0,0
//Break Periods
//Storyboard Layer 0 (Background)
//Storyboard Layer 1 (Fail)
//Storyboard Layer 2 (Pass)
//Storyboard Layer 3 (Foreground)
//Storyboard Sound Samples

[TimingPoints]
698,428.571428571429,4,2,1,40,1,0
698,-133.333333333333,4,2,1,40,0,0
12055,-83.3333333333333,4,2,1,60,0,0
12269,-83.3333333333333,4,1,1,70,0,0
12698,-100,4,2,1,70,0,0
15055,-100,4,2,1,50,0,0
15698,-100,4,2,1,70,0,0
16769,-100,4,2,1,50,0,0
16983,-100,4,2,1,70,0,0
18055,-100,4,2,1,60,0,0
21376,-100,4,2,2,40,0,0
47412,-100,4,2,2,50,0,0
48269,-100,4,1,1,50,0,0
48698,-100,4,1,2,80,0,0
48912,-100,4,1,1,50,0,0
49126,-100,4,2,20,70,0,0
50412,-100,4,1,1,80,0,0
50626,-100,4,1,1,50,0,0
50840,-100,4,2,20,70,0,0
52126,-100,4,1,1,80,0,0
52340,-100,4,1,1,50,0,0
52555,-100,4,2,20,70,0,0
55555,-100,4,1,1,80,0,0
55769,-100,4,1,1,50,0,0
55983,-100,4,2,20,70,0,0
57269,-100,4,1,1,80,0,0
57483,-100,4,1,1,50,0,0
57698,-100,4,2,20,70,0,0
58983,-100,4,1,1,80,0,0
59198,-100,4,1,1,50,0,0
59412,-100,4,2,20,70,0,0
61769,-100,4,2,1,55,0,0
62412,-100,4,2,20,80,0,1
67340,-100,4,2,20,55,0,1
67555,-100,4,2,20,80,0,1
68948,-100,4,2,20,55,0,1
69269,-100,4,2,20,80,0,1
72269,-100,4,2,21,70,0,1
72376,-100,4,2,20,80,0,1
73340,-100,4,2,20,55,0,1
73769,-100,4,2,20,80,0,1
74198,-100,4,2,20,55,0,1
74412,-100,4,2,20,80,0,1
74519,-100,4,2,20,55,0,1
75055,-100,4,2,20,80,0,1
75483,-100,4,2,1,55,0,1
76019,-100,4,2,1,55,0,0
76126,-100,4,2,20,80,0,1
81055,-100,4,2,20,55,0,1
81483,-100,4,2,20,80,0,1
82555,-100,4,2,20,55,0,1
82983,-100,4,2,20,80,0,1
84698,-100,4,2,20,70,0,1
86412,-100,4,1,1,70,0,0

[Colours]
Combo1 : 253,159,32
Combo2 : 129,82,31
Combo3 : 235,219,27
Combo4 : 202,88,211
SliderBorder : 255,255,255

[HitObjects]
241,62,483,5,0,0:0:0:0:
160,76,698,2,0,P|86:100|22:106,1,135.000005149842,2|0,0:0|0:0,0:0:0:0:
211,141,1340,2,0,P|253:146|284:140,1,67.5000025749208
324,75,1769,1,0,0:0:0:0:
426,297,2198,2,0,L|450:322,2,33.7500012874604,0|0|2,0:0|0:0|0:0,0:0:0:0:
356,255,2626,1,0,0:0:0:0:
284,293,2840,1,0,0:0:0:0:
215,248,3055,2,0,P|147:235|81:249,1,135.000005149842
277,82,3912,6,0,L|310:70,1,33.7500012874604
401,66,4126,2,0,L|333:91,1,67.5000025749208,2|0,0:0|0:0,0:0:0:0:
206,139,4555,2,0,L|269:115,1,67.5000025749208
331,176,4983,1,0,0:0:0:0:
273,24,5198,1,0,0:0:0:0:
331,176,5412,1,0,0:0:0:0:
24,314,5840,5,0,0:0:0:0:
16,280,6055,1,2,0:0:0:0:
6,186,6483,1,2,0:0:0:0:
37,96,6912,1,2,0:0:0:0:
331,176,7340,6,0,L|337:209,1,33.7500012874604
356,284,7555,2,0,L|281:306,1,67.5000025749208,2|0,0:0|0:0,0:0:0:0:
164,257,7983,2,0,L|265:228,2,101.250003862381
401,83,9055,1,0,0:0:0:0:
327,115,9269,2,0,L|303:51,1,67.5000025749208,2|0,0:0|0:0,0:0:0:0:
428,158,9698,2,0,L|451:221,1,67.5000025749208
469,257,10019,2,0,P|428:291|374:306,1,101.250003862381
304,282,10555,1,0,0:0:0:0:
234,323,10769,5,0,0:0:0:0:
290,200,10983,1,2,0:0:0:0:
155,215,11198,1,0,0:0:0:0:
234,323,11412,1,0,0:0:0:0:
36,166,12055,6,0,L|36:53,1,107.999996704102,0|2,0:0|0:0,0:0:0:0:
48,60,12698,6,0,P|143:62|236:24,1,180,4|8,0:0|0:0,0:0:0:0:
443,135,13340,2,0,P|385:126|310:149,1,135,2|0,0:0|0:0,0:0:0:0:
268,179,13769,2,0,P|226:188|171:175,1,90,2|8,0:0|0:0,0:0:0:0:
340,301,14198,2,0,P|382:292|437:305,1,90,2|0,0:0|0:0,0:0:0:0:
374,195,14626,5,0,0:0:0:0:
232,289,14840,1,8,0:0:0:0:
83,208,15055,1,8,0:0:0:0:
65,176,15162,1,8,0:0:0:0:
52,142,15269,1,8,0:0:0:0:
53,106,15376,1,8,0:0:0:0:
57,70,15483,1,8,0:0:0:0:
161,39,15698,2,0,P|156:86|135:128,1,90,8|0,0:0|0:0,0:0:0:0:
0,296,16126,6,0,P|96:281|181:297,1,180,2|8,0:0|0:0,0:0:0:0:
341,206,16769,1,2,1:2:0:0:
341,206,16876,1,8,0:0:0:0:
341,206,16983,2,0,L|316:306,1,90,0|2,0:0|0:0,0:0:0:0:
228,207,17412,1,8,0:0:0:0:
300,109,17626,2,0,P|348:104|394:113,1,90,4|0,0:0|0:0,0:0:0:0:
259,25,18055,5,8,0:0:0:0:
147,159,18269,1,8,0:0:0:0:
60,49,18483,1,8,0:0:0:0:
228,207,18698,1,2,0:0:0:0:
137,347,18912,1,8,0:0:0:0:
40,208,19126,1,8,0:0:0:0:
300,109,19340,1,8,0:0:0:0:
457,215,19555,5,2,0:0:0:0:
457,215,19662,1,8,0:0:0:0:
457,215,19769,2,0,P|464:263|453:312,1,90,8|8,0:0|0:0,0:0:0:0:
338,348,20198,1,8,0:0:0:0:
338,348,20305,1,8,0:0:0:0:
338,348,20412,1,2,0:0:0:0:
196,211,20626,1,8,0:0:0:0:
55,310,20840,2,0,L|36:351,2,45,8|8|8,0:0|0:0|0:0,0:0:0:0:
78,215,21269,6,0,P|78:163|54:116,1,90,4|0,0:0|0:0,0:0:0:0:
19,60,21698,1,0,0:0:0:0:
19,60,21912,1,8,0:0:0:0:
187,130,22340,1,0,0:0:0:0:
256,88,22555,1,0,0:0:0:0:
325,130,22769,1,0,0:0:0:0:
434,215,22983,6,0,P|434:163|458:116,1,90,8|0,0:0|0:0,0:0:0:0:
493,60,23412,1,0,0:0:0:0:
493,60,23626,1,8,0:0:0:0:
325,254,24055,1,0,0:0:0:0:
256,296,24269,1,0,0:0:0:0:
187,254,24483,1,0,0:0:0:0:
187,254,24590,1,0,0:0:0:0:
187,254,24698,6,0,P|141:247|94:251,2,90,8|0|0,0:0|0:0|0:0,0:0:0:0:
214,178,25340,2,0,P|174:147|137:131,1,90,8|0,0:0|0:0,0:0:0:0:
295,178,25769,1,0,0:0:0:0:
295,178,26198,6,0,P|310:131|338:97,1,90,0|8,0:0|0:0,0:0:0:0:
401,53,26626,1,0,0:0:0:0:
479,72,26840,1,0,0:0:0:0:
505,148,27055,1,8,0:0:0:0:
473,222,27269,2,0,P|441:250|397:267,1,90
317,280,27698,1,8,0:0:0:0:
236,274,27912,5,0,0:0:0:0:
236,274,28019,1,0,0:0:0:0:
236,274,28126,2,0,P|190:275|144:289,1,90,8|0,0:0|0:0,0:0:0:0:
75,324,28555,1,0,0:0:0:0:
75,324,28769,1,8,0:0:0:0:
10,149,29198,1,0,0:0:0:0:
73,98,29412,1,0,0:0:0:0:
134,150,29626,1,0,0:0:0:0:
276,110,29840,6,0,P|322:109|368:95,1,90,8|0,0:0|0:0,0:0:0:0:
437,60,30269,1,0,0:0:0:0:
437,60,30483,1,8,0:0:0:0:
502,235,30912,1,0,0:0:0:0:
439,286,31126,1,0,0:0:0:0:
378,234,31340,5,0,0:0:0:0:
378,234,31448,1,0,0:0:0:0:
378,234,31555,2,0,P|324:228|277:237,2,90,8|0|0,0:0|0:0|0:0,0:0:0:0:
331,300,32198,2,0,P|286:305|242:299,1,90,8|0,0:0|0:0,0:0:0:0:
166,270,32626,1,0,0:0:0:0:
56,150,33055,6,0,P|43:193|55:246,1,90,0|8,0:0|0:0,0:0:0:0:
119,198,33483,1,0,0:0:0:0:
129,117,33698,2,0,P|100:85|52:70,1,90,0|8,0:0|0:0,0:0:0:0:
119,198,34126,2,0,P|209:209|299:198,1,180,0|8,0:0|0:0,0:0:0:0:
499,38,34983,5,10,0:0:0:0:
409,30,35198,1,0,0:0:0:0:
358,104,35412,1,0,0:0:0:0:
387,188,35626,1,8,0:0:0:0:
406,199,35733,1,0,0:0:0:0:
483,244,35948,1,0,0:0:0:0:
502,255,36055,1,0,0:0:0:0:
445,324,36269,1,0,0:0:0:0:
366,280,36483,1,8,0:0:0:0:
285,321,36698,5,8,0:0:0:0:
216,262,36912,1,0,0:0:0:0:
128,283,37126,1,0,0:0:0:0:
79,207,37340,1,8,0:0:0:0:
138,138,37555,1,0,0:0:0:0:
220,172,37769,1,0,0:0:0:0:
242,172,37876,1,0,0:0:0:0:
264,172,37983,1,0,0:0:0:0:
341,126,38198,1,8,0:0:0:0:
415,75,38412,5,10,0:0:0:0:
484,131,38626,2,0,P|491:179|480:224,1,90
439,298,39055,1,10,0:0:0:0:
251,329,39483,2,0,L|279:367,2,45
167,294,39912,2,0,P|119:287|73:294,1,90,8|8,0:0|0:0,0:0:0:0:
149,126,40555,5,0,0:0:0:0:
234,153,40769,2,0,P|301:152|363:117,1,135,8|0,0:0|0:0,0:0:0:0:
372,101,41198,2,0,L|443:175,1,90,0|8,0:0|0:0,0:0:0:0:
251,329,41840,5,10,0:0:0:0:
170,289,42055,2,0,P|126:278|76:284,1,90
21,215,42483,1,8,0:0:0:0:
59,133,42698,1,0,0:0:0:0:
79,123,42805,1,0,0:0:0:0:
99,114,42912,1,0,0:0:0:0:
120,106,43019,1,0,0:0:0:0:
141,98,43126,1,0,0:0:0:0:
223,132,43340,1,8,0:0:0:0:
285,67,43555,6,0,L|386:55,1,90,8|0,0:0|0:0,0:0:0:0:
439,118,43983,1,0,0:0:0:0:
374,180,44198,2,0,P|334:238|318:307,1,135,8|0,0:0|0:0,0:0:0:0:
321,326,44626,2,0,L|234:349,1,90
143,353,45055,1,8,0:0:0:0:
61,248,45269,5,10,0:0:0:0:
108,171,45483,1,0,0:0:0:0:
49,102,45698,1,0,0:0:0:0:
108,34,45912,1,10,0:0:0:0:
420,113,46340,1,2,0:0:0:0:
364,184,46555,1,0,0:0:0:0:
419,254,46769,1,10,0:0:0:0:
151,105,47412,5,0,0:0:0:0:
18,250,47626,1,8,0:0:0:0:
183,125,48055,5,8,0:0:0:0:
143,317,48269,1,6,0:0:0:0:
120,84,48698,5,2,0:0:0:0:
408,223,48912,1,14,0:0:0:0:
464,125,49126,5,0,0:0:0:0:
367,77,49340,1,2,0:0:0:0:
331,71,49448,1,0,0:0:0:0:
295,76,49555,2,0,L|249:89,1,45
218,178,49769,2,0,L|172:186,1,45,2|0,0:0|0:0,0:0:0:0:
86,164,49983,2,0,L|47:189,1,45
1,266,50198,1,2,0:0:0:0:
120,84,50412,5,2,0:0:0:0:
392,300,50626,1,14,0:0:0:0:
461,217,50840,5,0,0:0:0:0:
461,217,50948,2,0,L|507:210,2,45,0|2|0,0:0|0:0|0:0,0:0:0:0:
405,197,51269,2,0,L|360:203,1,45
296,283,51483,2,0,L|248:299,1,45,2|0,0:0|0:0,0:0:0:0:
183,227,51698,2,0,P|139:239|92:264,1,90,0|2,0:0|0:0,0:0:0:0:
86,95,52126,5,2,0:0:0:0:
405,197,52340,1,14,0:0:0:0:
426,90,52555,5,0,0:0:0:0:
396,69,52662,1,0,0:0:0:0:
361,60,52769,2,0,L|311:55,1,45,2|0,0:0|0:0,0:0:0:0:
231,59,52983,2,0,P|276:71|317:98,1,90,0|2,0:0|0:0,0:0:0:0:
405,197,53412,1,0,0:0:0:0:
319,307,53626,1,2,0:0:0:0:
284,318,53733,1,0,0:0:0:0:
248,322,53840,1,4,0:0:0:0:
256,192,53948,12,8,55126,0:0:0:0:
392,106,55555,5,2,0:0:0:0:
120,278,55769,1,14,0:0:0:0:
76,179,55983,5,0,0:0:0:0:
87,144,56090,1,0,0:0:0:0:
99,109,56198,2,0,L|116:64,1,45,2|0,0:0|0:0,0:0:0:0:
187,120,56412,2,0,L|204:75,1,45
270,136,56626,2,0,L|287:91,1,45,2|0,0:0|0:0,0:0:0:0:
352,154,56840,2,0,P|394:146|443:154,1,90,0|2,0:0|0:0,0:0:0:0:
320,315,57269,5,2,0:0:0:0:
7,235,57483,1,14,0:0:0:0:
45,133,57698,5,0,0:0:0:0:
78,119,57805,1,0,0:0:0:0:
113,220,58019,1,0,0:0:0:0:
143,238,58126,2,0,L|184:262,1,45
270,221,58340,2,0,L|311:245,1,45,2|0,0:0|0:0,0:0:0:0:
406,219,58555,1,0,0:0:0:0:
406,219,58769,1,2,0:0:0:0:
409,80,58983,5,2,0:0:0:0:
156,308,59198,1,14,0:0:0:0:
58,262,59412,5,0,0:0:0:0:
36,233,59519,1,0,0:0:0:0:
101,146,59733,1,0,0:0:0:0:
91,111,59840,2,0,L|76:60,1,45
166,88,60055,2,0,L|151:37,1,45,2|0,0:0|0:0,0:0:0:0:
240,65,60269,2,0,P|281:47|344:35,1,90,0|2,0:0|0:0,0:0:0:0:
347,295,60698,6,0,P|265:340|176:345,1,180,4|8,0:0|0:0,0:0:0:0:
461,219,61340,1,4,0:0:0:0:
461,219,61769,6,0,L|418:193,1,45,10|8,0:0|0:0,0:0:0:0:
250,88,61983,2,0,L|226:136,1,45,10|8,0:0|0:0,0:0:0:0:
145,298,62198,2,0,L|99:278,1,45,10|8,0:0|0:0,0:0:0:0:
7,232,62412,6,0,P|4:139|55:57,1,180,4|8,0:0|0:0,0:0:0:0:
345,140,63055,2,0,P|348:233|297:315,1,180,2|2,0:0|0:0,0:0:0:0:
212,252,63698,1,8,0:0:0:0:
229,117,63912,5,2,0:0:0:0:
254,91,64019,1,0,0:0:0:0:
287,76,64126,2,0,P|348:59|393:68,2,90,0|2|8,0:0|0:0|0:0,0:0:0:0:
139,166,64769,2,0,B|92:168|92:168|37:153,1,90,2|0,0:0|0:0,0:0:0:0:
323,283,65198,2,0,B|370:281|370:281|425:296,1,90,2|8,0:0|0:0,0:0:0:0:
476,211,65626,6,0,L|486:162,1,45,2|0,0:0|0:0,0:0:0:0:
500,57,65840,2,0,L|457:147,1,90,0|2,0:0|0:0,0:0:0:0:
374,203,66269,2,0,L|430:122,1,90,8|2,0:0|0:0,0:0:0:0:
415,21,66698,2,0,L|387:121,1,90,0|2,0:0|0:0,0:0:0:0:
294,157,67126,1,8,0:0:0:0:
209,90,67340,6,0,L|155:98,1,45,10|8,0:0|0:0,0:0:0:0:
78,124,67555,2,0,P|33:157|6:193,1,90,4|2,0:0|0:0,0:0:0:0:
109,229,67983,1,8,0:0:0:0:
209,90,68198,1,4,0:0:0:0:
445,307,68519,1,0,0:0:0:0:
411,318,68626,2,0,P|363:325|311:314,1,90,2|8,0:0|0:0,0:0:0:0:
179,273,69055,1,8,0:0:0:0:
149,252,69162,1,8,0:0:0:0:
116,240,69269,6,0,P|28:265|2:355,1,180,4|8,0:0|0:0,0:0:0:0:
116,240,69912,2,0,P|91:152|1:126,1,180,2|2,0:0|0:0,0:0:0:0:
112,78,70555,2,0,P|154:99|203:103,1,90,8|2,0:0|0:0,0:0:0:0:
314,92,70983,6,0,L|290:183,1,90,0|2,0:0|0:0,0:0:0:0:
345,301,71412,2,0,L|367:213,1,90,8|2,0:0|0:0,0:0:0:0:
424,301,71733,2,0,L|400:214,1,90
291,179,72055,2,0,P|390:188|485:158,1,180,2|2,0:0|0:0,0:0:0:0:
369,58,72698,5,0,0:0:0:0:
214,150,72912,1,2,0:0:0:0:
58,59,73126,1,8,0:0:0:0:
20,160,73340,5,10,0:0:0:0:
20,160,73448,1,8,0:0:0:0:
20,160,73555,1,8,0:0:0:0:
126,143,73769,1,2,0:0:0:0:
90,244,73983,1,8,0:0:0:0:
173,313,74198,5,10,0:0:0:0:
207,303,74305,1,8,0:0:0:0:
241,294,74412,1,4,0:0:0:0:
275,285,74519,1,8,0:0:0:0:
310,276,74626,1,8,0:0:0:0:
344,265,74733,1,8,0:0:0:0:
379,257,74840,1,12,3:0:0:0:
470,113,75055,1,4,0:0:0:0:
173,313,75483,6,0,L|125:327,1,45,10|8,0:0|0:0,0:0:0:0:
303,195,75698,2,0,L|346:182,1,45,10|8,0:0|0:0,0:0:0:0:
212,75,75912,2,0,L|168:87,1,45,10|8,0:0|0:0,0:0:0:0:
12,133,76126,6,0,P|-7:227|30:306,1,180,4|8,0:0|0:0,0:0:0:0:
303,195,76769,2,0,P|209:176|130:213,1,180,2|2,0:0|0:0,0:0:0:0:
115,102,77412,1,8,0:0:0:0:
258,51,77626,5,2,0:0:0:0:
285,73,77733,1,0,0:0:0:0:
312,95,77840,2,0,P|380:126|454:126,1,135
481,93,78269,2,0,L|496:146,1,45,8|0,0:0|0:0,0:0:0:0:
512,227,78483,2,0,P|449:294|359:329,1,180,2|2,0:0|0:0,0:0:0:0:
249,330,79126,1,8,0:0:0:0:
215,316,79233,1,0,0:0:0:0:
181,303,79340,2,0,L|136:283,1,45,2|0,0:0|0:0,0:0:0:0:
73,244,79555,6,0,L|54:138,1,90,0|2,0:0|0:0,0:0:0:0:
171,61,79983,2,0,L|192:153,1,90,8|2,0:0|0:0,0:0:0:0:
439,244,80412,2,0,L|458:138,1,90,0|2,0:0|0:0,0:0:0:0:
341,61,80840,2,0,L|320:153,1,90,8|10,0:0|0:0,0:0:0:0:
301,218,81162,5,8,0:0:0:0:
301,218,81269,2,0,P|255:233|210:237,1,90,12|0,0:0|0:0,0:0:0:0:
134,162,81698,1,8,0:0:0:0:
292,327,81912,2,0,P|379:315|475:329,1,180,4|0,0:0|0:0,0:0:0:0:
490,221,82555,1,8,0:0:0:0:
494,185,82662,1,8,0:0:0:0:
500,149,82769,1,8,0:0:0:0:
506,113,82876,1,8,0:0:0:0:
483,85,82983,6,0,L|461:219,1,135,4|0,0:0|0:0,0:0:0:0:
453,253,83412,1,8,0:0:0:0:
335,179,83626,2,0,P|285:163|239:164,1,90,2|0,0:0|0:0,0:0:0:0:
111,286,84055,2,0,P|154:301|199:303,1,90,2|8,0:0|0:0,0:0:0:0:
59,192,84483,1,2,0:0:0:0:
256,60,84698,5,12,3:0:0:0:
353,105,84912,1,0,0:0:0:0:
371,135,85019,1,0,0:0:0:0:
388,166,85126,2,0,L|419:215,1,45
347,266,85340,2,0,L|378:315,1,45
449,350,85555,1,0,0:0:0:0:
304,187,85769,1,0,0:0:0:0:
512,145,85983,1,0,0:0:0:0:
118,53,86412,5,4,0:0:0:0:
