osu file format v14

[General]
AudioFilename: Yui - Again.mp3
AudioLeadIn: 1004
PreviewTime: 48695
Countdown: 0
SampleSet: Soft
StackLeniency: 0.7
Mode: 0
LetterboxInBreaks: 0
WidescreenStoryboard: 0

[Editor]
DistanceSpacing: 0.6
BeatDivisor: 4
GridSize: 32
TimelineZoom: 1.3

[Metadata]
Title:again
TitleUnicode:again
Artist:YUI
ArtistUnicode:YUI
Creator:DarknessAngel
Version:Hard
Source:鋼の錬金術師 FULLMETAL ALCHEMIST
Tags:Full Metal Alchemist: Brotherhood FMA2 FMA bones opening Yia Loneight M_o_m_o Konei
BeatmapID:122422
BeatmapSetID:37401

[Difficulty]
HPDrainRate:6
CircleSize:4
OverallDifficulty:6
ApproachRate:8
SliderMultiplier:1.5
SliderTickRate:2

[Events]
//Background and Video events
Video,0,"Vedio.avi"
0,0,"BG.jpg",0,0
//Break Periods
//Storyboard Layer 0 (Background)
//Storyboard Layer 1 (Fail)
//Storyboard Layer 2 (Pass)
//Storyboard Layer 3 (Foreground)
//Storyboard Sound Samples

[TimingPoints]
698,428.571428571429,4,2,1,40,1,0
698,-133.333333333333,4,2,1,40,0,0
5840,-200,4,2,1,40,0,0
7340,-133.333333333333,4,2,1,40,0,0
12269,-133.333333333333,4,1,1,70,0,0
12698,-100,4,2,1,70,0,0
14626,-100,4,2,1,50,0,0
14840,-100,4,2,1,70,0,0
15269,-100,4,2,1,50,0,0
15698,-100,4,2,1,70,0,0
16769,-100,4,2,1,50,0,0
16876,-100,4,2,1,70,0,0
18055,-100,4,2,1,60,0,0
21912,-100,4,2,2,40,0,0
47412,-100,4,2,2,50,0,0
48269,-100,4,1,1,50,0,0
48698,-57.1428571428571,4,1,1,80,0,0
48912,-57.1428571428571,4,1,1,50,0,0
49126,-100,4,2,20,70,0,0
50412,-57.1428571428571,4,1,1,80,0,0
50626,-57.1428571428571,4,1,1,50,0,0
50840,-100,4,2,20,70,0,0
52126,-57.1428571428571,4,1,1,80,0,0
52340,-57.1428571428571,4,1,1,50,0,0
52555,-100,4,2,20,70,0,0
55126,-100,4,2,20,50,0,0
55555,-57.1428571428571,4,1,1,80,0,0
55769,-100,4,1,1,50,0,0
55983,-100,4,2,20,70,0,0
57269,-57.1428571428571,4,1,1,80,0,0
57483,-100,4,1,1,50,0,0
57698,-100,4,2,20,70,0,0
58983,-57.1428571428571,4,1,1,80,0,0
59198,-100,4,1,1,50,0,0
59412,-100,4,2,20,70,0,0
61769,-100,4,1,1,55,0,0
62412,-100,4,2,20,80,0,1
67340,-100,4,2,20,55,0,1
67555,-100,4,2,20,80,0,1
69055,-100,4,2,20,55,0,1
69269,-100,4,2,20,80,0,1
74198,-100,4,2,1,80,0,1
74840,-100,4,2,1,60,0,1
74948,-100,4,2,1,80,0,1
75912,-100,4,2,1,60,0,1
76019,-100,4,2,1,80,0,0
76126,-100,4,2,20,80,0,1
81055,-100,4,2,20,55,0,1
81269,-100,4,2,20,80,0,1
82769,-100,4,2,20,55,0,1
82983,-100,4,2,20,80,0,1
84269,-100,4,2,21,70,0,1
84376,-100,4,2,20,80,0,1
84698,-100,4,2,20,70,0,1
84805,-100,4,2,20,80,0,1
86412,-100,4,1,1,70,0,0

[Colours]
Combo1 : 253,159,32
Combo2 : 129,82,31
Combo3 : 235,219,27
Combo4 : 202,88,211
SliderBorder : 255,255,255

[HitObjects]
109,121,483,5,0,0:0:0:0:
190,154,698,2,0,P|150:196|93:209,1,112.500004291535,2|0,0:0|0:0,0:0:0:0:
177,71,1340,2,0,P|210:71|243:87,1,56.2500021457673
310,108,1769,1,0,0:0:0:0:
382,310,2198,2,0,L|408:337,2,28.1250010728836,0|0|2,0:0|0:0|0:0,0:0:0:0:
305,274,2626,1,0,0:0:0:0:
228,309,2840,1,0,0:0:0:0:
153,269,3055,2,0,P|92:257|41:270,1,112.500004291535
106,86,3912,6,0,L|138:74,1,28.1250010728836
172,63,4126,2,0,P|207:60|239:60,1,56.2500021457673,2|0,0:0|0:0,0:0:0:0:
308,87,4555,2,0,P|336:86|364:83,1,56.2500021457673
425,25,4983,1,0,0:0:0:0:
465,99,5198,1,0,0:0:0:0:
510,28,5412,1,0,0:0:0:0:
459,224,5840,6,0,L|441:264,1,37.5,0|2,0:0|0:0,0:0:0:0:
357,197,6483,1,2,0:0:0:0:
350,210,6912,1,2,0:0:0:0:
152,324,7340,5,0,0:0:0:0:
86,270,7555,2,0,P|72:235|65:203,1,56.2500021457673,2|0,0:0|0:0,0:0:0:0:
151,209,7983,1,0,0:0:0:0:
108,135,8198,2,0,P|50:132|1:157,1,112.500004291535
230,235,9055,5,0,0:0:0:0:
266,158,9269,2,0,P|322:127|372:127,1,112.500004291535,2|0,0:0|0:0,0:0:0:0:
439,173,9912,2,0,P|393:204|333:204,2,112.500004291535
464,92,10983,1,2,0:0:0:0:
403,33,11198,1,0,0:0:0:0:
318,30,11412,1,0,0:0:0:0:
318,30,12055,5,0,0:0:0:0:
464,92,12269,1,0,0:0:0:0:
199,133,12698,6,0,P|129:154|57:133,1,150,4|8,0:0|0:0,0:0:0:0:
199,63,13340,2,0,P|220:133|199:205,1,150,2|2,0:0|0:0,0:0:0:0:
144,277,13983,1,8,0:0:0:0:
86,346,14198,2,0,P|65:275|86:204,1,150,2|8,0:0|0:0,0:0:0:0:
144,277,14840,2,0,L|66:277,1,75,8|0,0:0|0:0,0:0:0:0:
218,192,15269,2,0,L|293:192,1,75,8|8,0:0|0:0,0:0:0:0:
443,277,15698,2,0,L|368:277,1,75,8|0,0:0|0:0,0:0:0:0:
313,133,16126,6,0,P|383:154|455:133,1,150,2|8,0:0|0:0,0:0:0:0:
313,63,16769,2,0,P|292:133|313:205,1,150,10|2,0:0|0:0,0:0:0:0:
368,277,17412,1,8,0:0:0:0:
426,346,17626,2,0,P|446:275|425:204,1,150,4|8,0:0|0:0,0:0:0:0:
368,277,18269,2,0,L|443:277,1,75,8|8,0:0|0:0,0:0:0:0:
334,197,18698,2,0,L|387:143,1,75,2|8,0:0|0:0,0:0:0:0:
256,157,19126,2,0,L|256:82,1,75,8|8,0:0|0:0,0:0:0:0:
175,181,19555,5,2,0:0:0:0:
334,197,19769,1,8,0:0:0:0:
247,319,19983,1,8,0:0:0:0:
89,207,20198,1,8,0:0:0:0:
247,236,20412,1,2,0:0:0:0:
197,95,20626,1,8,0:0:0:0:
165,239,20840,1,8,0:0:0:0:
131,139,21055,1,8,0:0:0:0:
236,161,21269,1,4,0:0:0:0:
236,161,21912,5,8,0:0:0:0:
351,65,22340,1,0,0:0:0:0:
293,113,22555,2,0,L|346:169,1,75
399,218,22983,1,8,0:0:0:0:
463,257,23198,2,0,P|472:220|465:183,1,75
399,218,23626,2,0,L|284:322,1,150,8|0,0:0|0:0,0:0:0:0:
212,319,24269,1,0,0:0:0:0:
138,305,24483,6,0,L|106:323,2,37.5,0|0|8,0:0|0:0|0:0,0:0:0:0:
188,248,24912,1,0,0:0:0:0:
114,235,25126,1,0,0:0:0:0:
40,246,25340,2,0,P|64:179|138:163,1,150,8|0,0:0|0:0,0:0:0:0:
286,166,26198,2,0,P|246:175|208:170,1,75,0|8,0:0|0:0,0:0:0:0:
245,103,26626,2,0,P|285:94|323:99,1,75
390,77,27055,1,8,0:0:0:0:
373,150,27269,2,0,P|361:228|393:295,1,150
249,344,28126,5,8,0:0:0:0:
249,344,28555,2,0,L|172:344,1,75,0|8,0:0|0:0,0:0:0:0:
58,247,29198,1,0,0:0:0:0:
54,172,29412,1,0,0:0:0:0:
94,108,29626,1,0,0:0:0:0:
166,88,29840,1,8,0:0:0:0:
237,112,30055,2,0,P|276:119|312:111,1,75
379,84,30483,2,0,P|388:162|416:238,1,150,8|0,0:0|0:0,0:0:0:0:
461,285,31126,1,0,0:0:0:0:
387,301,31340,6,0,L|350:308,1,37.5
312,313,31555,2,0,P|273:318|235:314,1,75,8|0,0:0|0:0,0:0:0:0:
179,267,31983,1,0,0:0:0:0:
204,196,32198,2,0,P|275:174|349:198,1,150,8|0,0:0|0:0,0:0:0:0:
229,100,33055,2,0,P|198:116|157:124,1,75,0|8,0:0|0:0,0:0:0:0:
84,111,33483,2,0,P|91:147|107:181,1,75
181,197,33912,1,8,0:0:0:0:
132,254,34126,2,0,P|80:298|-1:318,1,150,0|8,0:0|0:0,0:0:0:0:
256,288,34983,5,10,0:0:0:0:
331,254,35198,1,0,0:0:0:0:
394,306,35412,1,0,0:0:0:0:
469,272,35626,2,0,L|486:237,1,37.5,8|0,0:0|0:0,0:0:0:0:
403,225,35948,2,0,L|420:190,1,37.5
339,172,36269,1,0,0:0:0:0:
396,112,36483,1,8,0:0:0:0:
340,50,36698,6,0,P|303:37|265:37,1,75,8|0,0:0|0:0,0:0:0:0:
215,100,37126,2,0,P|252:113|290:113,1,75,0|8,0:0|0:0,0:0:0:0:
339,172,37555,1,0,0:0:0:0:
274,223,37769,1,0,0:0:0:0:
262,232,37876,1,0,0:0:0:0:
250,241,37983,1,0,0:0:0:0:
185,292,38198,1,8,0:0:0:0:
174,210,38412,5,10,0:0:0:0:
109,260,38626,1,0,0:0:0:0:
98,178,38840,1,0,0:0:0:0:
33,230,39055,1,10,0:0:0:0:
163,129,39483,1,0,0:0:0:0:
175,120,39590,1,0,0:0:0:0:
187,112,39698,1,0,0:0:0:0:
253,63,39912,2,0,L|317:17,1,75,8|8,0:0|0:0,0:0:0:0:
455,103,40555,5,0,0:0:0:0:
420,177,40769,2,0,P|408:231|432:306,1,112.5,8|0,0:0|0:0,0:0:0:0:
428,298,41198,2,0,P|468:300|508:297,2,75
348,276,41840,5,10,0:0:0:0:
272,310,42055,1,0,0:0:0:0:
192,287,42269,2,0,P|154:278|117:281,1,75,0|8,0:0|0:0,0:0:0:0:
37,296,42698,1,0,0:0:0:0:
33,281,42805,1,0,0:0:0:0:
30,266,42912,1,0,0:0:0:0:
27,251,43019,1,0,0:0:0:0:
24,236,43126,2,0,P|23:196|26:155,1,75,0|8,0:0|0:0,0:0:0:0:
96,197,43555,6,0,P|99:160|98:123,1,75,8|0,0:0|0:0,0:0:0:0:
28,79,43983,1,0,0:0:0:0:
99,37,44198,2,0,P|141:36|176:43,1,75,8|0,0:0|0:0,0:0:0:0:
181,54,44519,2,0,P|179:91|182:128,1,75
186,143,44840,1,0,0:0:0:0:
244,201,45055,1,8,0:0:0:0:
321,173,45269,5,10,0:0:0:0:
377,232,45483,1,0,0:0:0:0:
336,303,45698,1,0,0:0:0:0:
255,283,45912,1,10,0:0:0:0:
433,81,46340,1,2,0:0:0:0:
395,154,46555,1,0,0:0:0:0:
477,152,46769,1,10,0:0:0:0:
97,262,47412,5,0,0:0:0:0:
25,130,47626,1,8,0:0:0:0:
274,189,48055,5,8,0:0:0:0:
296,337,48269,1,6,0:0:0:0:
88,272,48698,5,2,0:0:0:0:
295,185,48912,1,14,0:0:0:0:
367,238,49126,5,0,0:0:0:0:
429,173,49340,1,2,0:0:0:0:
433,150,49448,1,0,0:0:0:0:
436,127,49555,1,0,0:0:0:0:
439,104,49662,1,0,0:0:0:0:
442,81,49769,1,2,0:0:0:0:
510,34,49983,1,0,0:0:0:0:
357,73,50198,1,2,0:0:0:0:
509,186,50412,5,2,0:0:0:0:
311,301,50626,1,14,0:0:0:0:
241,243,50840,6,0,L|226:207,2,37.5,0|0|2,0:0|0:0|0:0,0:0:0:0:
186,315,51269,1,0,0:0:0:0:
163,318,51376,1,0,0:0:0:0:
140,322,51483,1,2,0:0:0:0:
118,327,51590,1,0,0:0:0:0:
95,331,51698,1,0,0:0:0:0:
5,250,51912,1,2,0:0:0:0:
98,83,52126,5,2,0:0:0:0:
316,165,52340,1,14,0:0:0:0:
369,91,52555,6,0,L|395:56,1,37.5
389,113,52769,2,0,L|423:85,1,37.5,2|0,0:0|0:0,0:0:0:0:
407,140,52983,2,0,P|439:120|476:109,1,75,0|2,0:0|0:0,0:0:0:0:
472,199,53412,1,0,0:0:0:0:
404,275,53626,6,0,L|366:298,1,37.5,2|0,0:0|0:0,0:0:0:0:
306,324,53840,2,0,P|267:320|225:326,1,75,4|2,0:0|0:0,0:0:0:0:
129,354,54269,1,8,0:0:0:0:
26,209,54483,2,0,P|108:219|185:204,1,150,4|2,0:0|0:0,0:0:0:0:
251,117,55126,2,0,L|257:80,2,37.5,8|8|10,0:0|0:0|0:0,0:0:0:0:
357,272,55555,5,2,0:0:0:0:
498,106,55769,1,14,0:0:0:0:
434,41,55983,5,0,0:0:0:0:
362,96,56198,1,2,0:0:0:0:
357,118,56305,1,0,0:0:0:0:
352,140,56412,1,0,0:0:0:0:
347,162,56519,1,0,0:0:0:0:
342,183,56626,1,2,0:0:0:0:
265,230,56840,1,0,0:0:0:0:
430,174,57055,1,2,0:0:0:0:
277,70,57269,5,2,0:0:0:0:
152,261,57483,1,14,0:0:0:0:
71,220,57698,6,0,L|32:221,2,37.5,0|0|2,0:0|0:0|0:0,0:0:0:0:
147,172,58126,1,0,0:0:0:0:
145,149,58233,1,0,0:0:0:0:
143,126,58340,1,2,0:0:0:0:
140,103,58448,1,0,0:0:0:0:
138,80,58555,1,0,0:0:0:0:
44,126,58769,1,2,0:0:0:0:
152,261,58983,5,2,0:0:0:0:
351,132,59198,1,14,0:0:0:0:
423,184,59412,5,0,0:0:0:0:
429,205,59519,1,0,0:0:0:0:
366,268,59733,1,0,0:0:0:0:
375,288,59840,2,0,L|394:328,2,37.5,0|0|2,0:0|0:0|0:0,0:0:0:0:
292,325,60269,1,0,0:0:0:0:
252,244,60483,1,2,0:0:0:0:
307,128,60698,6,0,P|379:108|456:117,1,150,4|8,0:0|0:0,0:0:0:0:
366,31,61340,1,4,0:0:0:0:
95,322,61769,2,0,L|79:289,3,37.5
48,218,62198,2,0,L|54:168,1,37.5
85,103,62412,6,0,P|158:82|239:91,1,150,4|8,0:0|0:0,0:0:0:0:
422,227,63055,2,0,P|349:248|268:239,1,150,2|2,0:0|0:0,0:0:0:0:
223,168,63698,1,8,0:0:0:0:
365,75,63912,1,2,0:0:0:0:
428,138,64126,2,0,P|467:136|510:118,2,75,0|2|8,0:0|0:0|0:0,0:0:0:0:
299,120,64769,2,0,P|274:78|260:46,1,75,2|0,0:0|0:0,0:0:0:0:
428,138,65198,2,0,P|453:180|467:212,1,75,2|8,0:0|0:0,0:0:0:0:
444,291,65626,5,2,0:0:0:0:
426,305,65733,1,0,0:0:0:0:
408,319,65840,1,0,0:0:0:0:
324,285,66055,1,2,0:0:0:0:
242,322,66269,1,8,0:0:0:0:
175,261,66483,1,2,0:0:0:0:
95,303,66698,2,0,P|55:306|10:300,1,75,0|2,0:0|0:0,0:0:0:0:
1,214,67126,1,8,0:0:0:0:
83,113,67340,6,0,L|125:115,1,37.5,10|8,0:0|0:0,0:0:0:0:
193,115,67555,2,0,P|232:103|269:76,2,75,4|0|8,0:0|0:0|0:0,0:0:0:0:
311,149,68198,1,4,0:0:0:0:
95,303,68519,1,0,0:0:0:0:
116,296,68626,2,0,P|156:289|198:290,1,75,2|8,0:0|0:0,0:0:0:0:
301,307,69055,5,10,0:0:0:0:
321,316,69162,1,8,0:0:0:0:
342,323,69269,2,0,P|426:338|502:315,1,150,4|8,0:0|0:0,0:0:0:0:
340,209,69912,2,0,P|256:194|180:217,1,150,2|2,0:0|0:0,0:0:0:0:
138,138,70555,1,8,0:0:0:0:
183,60,70769,1,2,0:0:0:0:
267,90,70983,6,0,P|310:99|352:92,1,75,0|2,0:0|0:0,0:0:0:0:
412,40,71412,1,8,0:0:0:0:
475,104,71626,1,2,0:0:0:0:
479,126,71733,1,0,0:0:0:0:
398,174,71948,1,0,0:0:0:0:
403,195,72055,2,0,L|425:271,2,75,2|8|0,0:0|0:0|0:0,0:0:0:0:
500,225,72698,5,0,0:0:0:0:
344,315,72912,1,2,0:0:0:0:
187,227,73126,2,0,P|113:209|40:229,2,150,8|0|8,0:0|0:0|0:0,0:0:0:0:
246,162,74198,5,2,0:0:0:0:
151,128,74412,2,0,P|151:88|139:43,1,75,4|2,0:0|0:0,0:0:0:0:
322,239,74840,2,0,P|322:279|334:324,1,75,12|4,3:0|0:0,0:0:0:0:
411,86,75483,5,2,0:0:0:0:
315,42,75698,1,8,0:0:0:0:
210,55,75912,1,8,0:0:0:0:
56,192,76126,6,0,P|83:260|152:286,1,150,4|8,0:0|0:0,0:0:0:0:
288,176,76769,2,0,P|217:154|151:190,1,150,2|2,0:0|0:0,0:0:0:0:
226,240,77412,1,8,0:0:0:0:
316,308,77626,5,2,0:0:0:0:
337,313,77733,1,0,0:0:0:0:
359,316,77840,2,0,P|419:320|479:304,1,112.5
479,287,78269,2,0,L|488:245,1,37.5,8|0,0:0|0:0,0:0:0:0:
508,171,78483,2,0,P|487:134|463:112,1,75,2|0,0:0|0:0,0:0:0:0:
290,51,78912,2,0,P|307:83|334:109,1,75,2|8,0:0|0:0,0:0:0:0:
348,127,79233,6,0,L|394:115,2,37.5,0|2|0,0:0|0:0|0:0,0:0:0:0:
334,145,79555,2,0,L|252:168,1,75,0|2,0:0|0:0,0:0:0:0:
173,179,79983,1,8,0:0:0:0:
143,264,80198,1,2,0:0:0:0:
53,253,80412,1,0,0:0:0:0:
33,165,80626,1,2,0:0:0:0:
109,117,80840,1,8,0:0:0:0:
173,179,81055,6,0,L|205:199,1,37.5,10|8,0:0|0:0,0:0:0:0:
269,235,81269,2,0,P|311:242|356:241,2,75,4|0|8,0:0|0:0|0:0,0:0:0:0:
381,147,81912,2,0,P|419:144|457:147,1,75,4|0,0:0|0:0,0:0:0:0:
294,72,82340,2,0,P|256:75|218:72,1,75,0|8,0:0|0:0,0:0:0:0:
132,95,82769,5,10,0:0:0:0:
117,112,82876,1,8,0:0:0:0:
106,131,82983,2,0,P|83:184|86:248,1,112.5,4|0,0:0|0:0,0:0:0:0:
91,259,83412,2,0,L|21:289,1,75,8|2,0:0|0:0,0:0:0:0:
2,200,83840,1,0,0:0:0:0:
189,168,84055,2,0,P|262:159|338:174,1,150,2|2,0:0|0:0,0:0:0:0:
428,253,84698,1,8,0:0:0:0:
256,192,84805,12,4,86412,0:0:0:0:
