osu file format v14

[General]
AudioFilename: Yui - Again.mp3
AudioLeadIn: 1000
PreviewTime: 62060
Countdown: 0
SampleSet: Soft
StackLeniency: 0.7
Mode: 0
LetterboxInBreaks: 0
WidescreenStoryboard: 1

[Editor]
DistanceSpacing: 1
BeatDivisor: 4
GridSize: 4
TimelineZoom: 1.2

[Metadata]
Title:again
TitleUnicode:again
Artist:YUI
ArtistUnicode:YUI
Creator:-[ Asuna ]-
Version:Normal
Source:鋼の錬金術師
Tags:Full Metal Alchemist: Brotherhood Haganenorenkinjutsushi Gero Xinely Pho pkhg FMA FMOST1 Hisashi Kondo Ayumi Hamasaki Holydays in the Sun
BeatmapID:599267
BeatmapSetID:262627

[Difficulty]
HPDrainRate:3
CircleSize:3
OverallDifficulty:4
ApproachRate:5
SliderMultiplier:1.4
SliderTickRate:2

[Events]
//Background and Video events
0,0,"BG.jpg",0,0
Video,-320,"Fullmetal Alchemist Brotherhood Opening 1 HD.flv"
//Break Periods
2,12653,16610
//Storyboard Layer 0 (Background)
//Storyboard Layer 1 (Fail)
//Storyboard Layer 2 (Pass)
//Storyboard Layer 3 (Foreground)
//Storyboard Sound Samples

[TimingPoints]
-1261,428.571428571429,4,2,8,35,1,0
21024,-100,4,2,8,40,0,0
34738,-100,4,2,8,40,0,0
48453,-100,4,2,8,50,0,0
62167,-100,4,2,8,70,0,1
69024,-100,4,2,8,55,0,1
69131,-100,4,2,8,70,0,1
75453,-100,4,2,8,70,0,0
75881,-100,4,2,8,70,0,1
84453,-100,4,2,8,70,0,0
84560,-100,4,2,8,40,0,0
86596,-100,4,2,8,30,0,0
87881,-100,4,2,8,15,0,0
88739,-100,4,2,8,5,0,0

[Colours]
Combo1 : 30,51,91
Combo2 : 184,37,37
Combo3 : 189,163,15
Combo4 : 176,176,176

[HitObjects]
152,180,453,6,0,B|205:187|205:187|293:153,1,140,2|0,0:3|0:0,0:0:0:0:
324,97,1096,2,0,L|340:28,2,70,2|0|0,0:0|0:0|0:0,0:0:0:0:
432,188,1953,1,0,0:0:0:0:
432,188,2167,6,0,L|408:328,1,140,2|0,0:3|0:0,0:0:0:0:
348,292,2810,2,0,P|292:268|216:280,1,140,2|0,0:0|0:0,0:0:0:0:
80,316,3667,1,0,0:0:0:0:
80,316,3881,6,0,P|72:244|104:184,1,140,2|0,0:3|0:0,0:0:0:0:
172,196,4524,2,0,P|229:206|300:168,1,140,2|0,0:0|0:0,0:0:0:0:
356,128,5167,1,0,0:0:0:0:
496,116,5596,6,0,L|490:190,2,70,2|2|0,0:3|0:0|0:0,0:0:0:0:
452,60,6239,1,2,0:0:0:0:
310,62,6667,2,0,P|278:110|304:188,1,140,2|0,0:0|0:0,0:0:0:0:
284,252,7310,6,0,P|210:280|152:260,1,140,2|0,0:3|0:0,0:0:0:0:
104,216,7953,2,0,P|92:140|128:88,1,140,2|0,0:0|0:0,0:0:0:0:
264,108,8810,1,0,0:0:0:0:
264,108,9024,6,0,P|320:128|396:108,1,140,2|0,0:3|0:0,0:0:0:0:
460,76,9667,2,0,L|480:216,1,140,2|0,0:0|0:0,0:0:0:0:
488,284,10310,1,0,0:0:0:0:
356,320,10739,6,0,P|300:296|220:316,1,140,2|0,0:3|0:0,0:0:0:0:
168,356,11381,2,0,P|188:288|168:216,1,140,0|0,0:0|0:0,0:0:0:0:
128,168,12024,1,4,0:3:0:0:
240,84,12453,5,4,0:0:0:0:
472,344,17810,6,0,L|488:260,1,70,8|8,0:0|0:0,0:0:0:0:
436,224,18239,2,0,L|456:136,1,70,8|2,0:0|0:0,0:0:0:0:
400,108,18667,2,0,L|420:32,2,70,0|2|0,0:0|0:0|0:0,0:0:0:0:
344,152,19310,6,0,P|285:158|220:108,1,140,8|8,0:0|0:0,0:0:0:0:
204,180,19953,2,0,P|206:248|156:304,1,140,8|8,0:0|0:0,0:0:0:0:
92,296,20596,2,0,L|16:288,1,70,8|8,0:0|0:0,0:0:0:0:
36,220,21024,6,0,P|56:168|32:88,1,140,12|0,0:0|0:0,0:0:0:0:
92,48,21667,2,0,B|136:60|136:60|180:36|180:36|236:48,1,140,2|0,0:0|0:0,0:0:0:0:
292,64,22310,1,0,0:0:0:0:
428,100,22739,6,0,P|400:172|344:196,1,140,2|0,0:0|0:0,0:0:0:0:
280,216,23381,2,0,P|288:276|348:324,1,140,2|0,0:0|0:0,0:0:0:0:
476,276,24239,1,0,0:0:0:0:
476,276,24453,6,0,L|480:128,1,140,2|0,0:0|0:0,0:0:0:0:
448,72,25096,2,0,P|400:48|316:72,1,140,2|0,0:0|0:0,0:0:0:0:
240,184,25953,1,0,0:0:0:0:
240,184,26167,6,0,B|188:196|188:196|164:156|112:144,1,140,2|0,0:0|0:0,0:0:0:0:
52,156,26810,2,0,P|32:236|68:288,1,140,2|0,0:0|0:0,0:0:0:0:
120,320,27453,1,0,0:0:0:0:
248,272,27881,6,0,B|292:300|348:272|348:272|380:288,1,140,2|0,0:0|0:0,0:0:0:0:
448,292,28524,2,0,P|484:228|464:160,1,140,2|0,0:0|0:0,0:0:0:0:
328,176,29381,1,0,0:0:0:0:
328,176,29596,6,0,B|328:144|328:144|360:84|360:84|360:40,1,140,2|0,0:0|0:0,0:0:0:0:
292,60,30239,2,0,P|228:84|160:68,1,140,2|0,0:0|0:0,0:0:0:0:
28,120,31096,1,0,0:0:0:0:
28,120,31310,6,0,B|8:184|8:184|16:264,1,140,2|0,0:0|0:0,0:0:0:0:
52,316,31953,2,0,B|72:340|112:348|112:348|148:328|184:344,2,140,2|0|0,0:0|0:0|0:0,0:0:0:0:
76,252,33024,6,0,P|128:228|216:252,1,140,2|0,0:0|0:0,0:0:0:0:
272,268,33667,2,0,P|292:200|272:136,1,140,2|0,0:0|0:0,0:0:0:0:
252,68,34310,1,0,0:0:0:0:
388,32,34739,6,0,P|373:99|405:160,1,140,12|0,0:0|0:0,0:0:0:0:
448,216,35381,2,0,P|380:201|319:233,1,140,2|0,0:0|0:0,0:0:0:0:
184,268,36239,1,2,0:0:0:0:
184,268,36453,6,0,P|176:199|209:138,1,140,2|0,0:0|0:0,0:0:0:0:
268,176,37096,2,0,P|328:192|400:160,1,140,2|0,0:0|0:0,0:0:0:0:
320,44,37953,1,0,0:0:0:0:
320,44,38167,6,0,P|248:36|192:68,1,140,10|0,0:0|0:0,0:0:0:0:
172,136,38810,2,0,P|156:192|88:232,1,140,2|0,0:0|0:0,0:0:0:0:
44,176,39453,2,0,L|32:96,2,70,0|2|2,0:0|0:0|0:0,0:0:0:0:
64,312,40310,5,0,0:0:0:0:
64,312,40524,2,0,P|128:332|208:308,1,140,2|0,0:0|0:0,0:0:0:0:
252,272,41167,2,0,P|240:236|248:196,1,70,2|0,0:0|0:0,0:0:0:0:
296,156,41596,6,0,P|316:88|280:24,1,140,10|0,0:0|0:0,0:0:0:0:
216,44,42239,2,0,P|144:60|84:36,1,140,2|0,0:0|0:0,0:0:0:0:
0,148,43096,1,2,0:0:0:0:
0,148,43310,6,0,P|68:140|132:172,1,140,2|0,0:0|0:0,0:0:0:0:
180,220,43953,2,0,P|170:151|204:91,1,140,2|0,0:0|0:0,0:0:0:0:
240,32,44596,2,0,P|204:36|168:32,1,70,0|2,0:0|0:0,0:0:0:0:
100,32,45024,6,0,P|64:28|24:32,2,70,10|0|0,0:0|0:0|0:0,0:0:0:0:
136,92,45667,2,0,B|136:128|136:128|96:184|96:184|96:224,1,140,2|0,0:0|0:0,0:0:0:0:
100,288,46310,2,0,P|166:270|229:298,1,140,0|2,0:0|0:0,0:0:0:0:
352,364,47167,5,0,0:0:0:0:
352,364,47381,2,0,B|368:328|368:328|356:264|356:264|356:228,1,140,2|2,0:0|0:0,0:0:0:0:
356,160,48024,1,12,0:0:0:0:
224,128,48453,5,8,0:0:0:0:
224,128,48667,2,0,P|280:56|472:236,1,420,8|0,0:0|0:0,0:0:0:0:
460,272,50167,5,8,0:0:0:0:
460,272,50381,2,0,B|356:252|268:336|268:336|244:244|244:244|184:276|132:248,1,420,8|0,0:0|0:0,0:0:0:0:
80,204,51881,5,8,0:0:0:0:
80,204,52096,2,0,B|86:148|39:100|39:100|116:108|181:176|181:176|180:96|236:52,1,420,8|0,0:0|0:0,0:0:0:0:
296,88,53596,6,0,P|327:102|362:104,1,70,4|0,0:0|0:0,0:0:0:0:
432,96,54024,1,8,0:0:0:0:
468,156,54239,2,0,P|428:212|356:224,1,140,4|0,0:0|0:0,0:0:0:0:
292,212,54881,2,0,P|276:248|277:279,1,70,8|0,0:0|0:0,0:0:0:0:
280,348,55310,5,8,0:0:0:0:
280,348,55524,2,0,B|180:316|72:340|72:340|112:232|84:132,1,420,8|0,0:0|0:0,0:0:0:0:
64,68,57024,5,8,0:0:0:0:
64,68,57239,2,0,B|160:12|248:112|248:112|316:32|316:32|332:96|384:104,1,420,8|0,0:0|0:0,0:0:0:0:
436,152,58739,5,8,0:0:0:0:
436,152,58953,2,0,B|408:208|464:280|464:280|424:352|348:320|348:320|348:216|272:184,1,420,8|0,0:0|0:0,0:0:0:0:
228,164,60453,1,4,0:0:0:0:
212,304,60881,5,8,0:0:0:0:
152,344,61096,2,0,P|116:352|72:344,2,70,4|0|0,0:0|0:0|0:0,0:0:0:0:
148,272,61739,2,0,P|144:235|148:200,1,70,2|2,0:0|0:0,0:0:0:0:
176,136,62167,6,0,P|254:121|297:75,1,140,4|8,0:0|0:0,0:0:0:0:
339,24,62810,2,0,P|333:90|368:152,1,140,2|0,0:0|0:0,0:0:0:0:
408,208,63453,1,8,0:0:0:0:
320,316,63881,6,0,P|248:300|184:320,1,140,10|8,0:0|0:0,0:0:0:0:
120,344,64524,2,0,P|52:320|32:252,1,140,2|2,0:0|0:0,0:0:0:0:
40,192,65167,2,0,P|76:184|112:188,1,70,8|0,0:0|0:0,0:0:0:0:
176,200,65596,6,0,P|208:136|200:68,2,140,10|8|2,0:0|0:0|0:0,0:0:0:0:
120,240,66667,1,0,0:0:0:0:
108,308,66881,2,0,P|128:320|180:316,1,70,8|2,0:0|0:0,0:0:0:0:
240,344,67310,6,0,P|312:308|372:320,1,140,6|8,0:0|0:0,0:0:0:0:
428,356,67953,2,0,P|408:268|428:220,1,140,6|0,0:0|0:0,0:0:0:0:
364,192,68596,2,0,P|328:188|292:192,1,70,8|8,0:0|0:0,0:0:0:0:
228,208,69024,6,0,P|196:144|216:72,1,140,6|8,0:0|0:0,0:0:0:0:
280,72,69667,2,0,P|348:92|416:72,1,140,0|0,0:0|0:0,0:0:0:0:
472,36,70310,2,0,P|492:76|492:108,1,70,8|0,0:0|0:0,0:0:0:0:
456,160,70739,6,0,P|436:228|464:300,2,140,10|8|2,0:0|0:0|0:0,0:0:0:0:
492,100,71810,1,0,0:0:0:0:
444,48,72024,2,0,P|376:28|312:48,1,140,8|10,0:0|0:0,0:0:0:0:
276,108,72667,6,0,P|270:144|250:175,1,70,0|8,0:0|0:0,0:0:0:0:
220,236,73096,2,0,P|292:224|356:252,1,140,0|0,0:0|0:0,0:0:0:0:
408,292,73739,2,0,L|476:264,1,70,8|0,0:0|0:0,0:0:0:0:
480,196,74167,6,0,L|456:52,1,140,4|2,0:0|0:0,0:0:0:0:
401,100,74810,2,0,P|340:130|276:108,1,140,4|2,0:0|0:0,0:0:0:0:
224,60,75453,1,8,0:0:0:0:
156,68,75667,1,8,0:0:0:0:
108,116,75881,6,0,L|120:256,1,140,6|8,0:0|0:0,0:0:0:0:
156,316,76524,2,0,P|236:340|296:316,1,140,2|2,0:0|0:0,0:0:0:0:
336,272,77167,2,0,L|320:192,1,70,8|0,0:0|0:0,0:0:0:0:
312,136,77596,6,0,P|388:164|444:152,1,140,10|8,0:0|0:0,0:0:0:0:
512,132,78239,2,0,P|467:184|460:256,1,140,2|0,0:0|0:0,0:0:0:0:
476,320,78881,1,8,0:0:0:0:
344,276,79310,6,0,P|296:224|230:216,1,140,10|8,0:0|0:0,0:0:0:0:
160,232,79953,1,0,0:0:0:0:
108,280,80167,2,0,L|124:348,2,70,2|0|8,0:0|0:0|0:0,0:0:0:0:
48,244,80810,1,0,0:0:0:0:
20,180,81024,6,4,P|21:147|40:106,1,70,6|0,0:0|0:0,0:0:0:0:
84,64,81453,1,8,0:0:0:0:
152,72,81667,2,0,P|223:86|282:59,2,140,6|2|8,0:0|0:0|0:0,0:0:0:0:
92,108,82739,6,0,B|78:137|78:137|89:204|89:204|77:242,1,140,6|8,0:0|0:0,0:0:0:0:
73,313,83381,2,0,P|143:317|202:277,1,140,2|2,0:0|0:0,0:0:0:0:
252,235,84024,1,8,0:0:0:0:
348,132,84453,6,0,P|416:120|480:152,2,140,10|2|8,0:0|0:0|0:0,0:0:0:0:
292,176,85524,2,0,L|227:140,1,70,8|2,0:0|0:0,0:0:0:0:
113,68,86167,5,4,0:0:0:0:
256,192,86381,12,0,89274,0:0:0:0:
