osu file format v14

[General]
AudioFilename: Yui - Again.mp3
AudioLeadIn: 1000
PreviewTime: 62060
Countdown: 0
SampleSet: Soft
StackLeniency: 0.7
Mode: 0
LetterboxInBreaks: 0
WidescreenStoryboard: 0

[Editor]
DistanceSpacing: 1.2
BeatDivisor: 4
GridSize: 4
TimelineZoom: 1.1

[Metadata]
Title:again
TitleUnicode:again
Artist:YUI
ArtistUnicode:YUI
Creator:-[ Asuna ]-
Version:Hard
Source:鋼の錬金術師
Tags:Full Metal Alchemist: Brotherhood Haganenorenkinjutsushi Gero Xinely Pho pkhg FMA FMOST1 Hisashi Kondo Ayumi Hamasaki Holydays in the Sun
BeatmapID:599265
BeatmapSetID:262627

[Difficulty]
HPDrainRate:5
CircleSize:4
OverallDifficulty:6
ApproachRate:7
SliderMultiplier:1.6
SliderTickRate:2

[Events]
//Background and Video events
0,0,"BG.jpg",0,0
Video,-320,"Fullmetal Alchemist Brotherhood Opening 1 HD.flv"
//Break Periods
2,12653,16910
//Storyboard Layer 0 (Background)
//Storyboard Layer 1 (Fail)
//Storyboard Layer 2 (Pass)
//Storyboard Layer 3 (Foreground)
//Storyboard Sound Samples

[TimingPoints]
-1261,428.571428571429,4,2,5,25,1,0
453,-104.712041884817,4,2,8,50,0,0
18881,-104.712041884817,4,2,5,45,0,0
19310,-104.712041884817,4,2,5,50,0,0
21024,-119.047619047619,4,2,8,30,0,0
21131,-119.047619047619,4,2,5,40,0,0
34738,-105.263157894737,4,2,8,30,0,0
34846,-105.263157894737,4,2,5,40,0,0
38167,-105.263157894737,4,2,8,50,0,0
38274,-105.263157894737,4,2,5,50,0,0
41596,-105.263157894737,4,2,8,50,0,0
41703,-105.263157894737,4,2,5,50,0,0
45024,-105.263157894737,4,2,8,50,0,0
45131,-105.263157894737,4,2,5,50,0,0
48453,-105.263157894737,4,2,5,60,0,0
62167,-89.2857142857143,4,2,5,70,0,1
63881,-89.2857142857143,4,2,8,70,0,1
63989,-89.2857142857143,4,2,5,70,0,1
65596,-89.2857142857143,4,2,8,70,0,1
65703,-89.2857142857143,4,2,5,70,0,1
70739,-89.2857142857143,4,2,8,70,0,1
70846,-89.2857142857143,4,2,5,70,0,1
72453,-89.2857142857143,4,2,8,70,0,1
72560,-89.2857142857143,4,2,5,70,0,1
75453,-89.2857142857143,4,2,5,70,0,0
75881,-89.2857142857143,4,2,5,70,0,1
77596,-89.2857142857143,4,2,8,70,0,1
77703,-89.2857142857143,4,2,5,70,0,1
79310,-89.2857142857143,4,2,8,70,0,1
79417,-89.2857142857143,4,2,5,70,0,1
84453,-89.2857142857143,4,2,8,70,0,0
84560,-89.2857142857143,4,2,5,50,0,0
86596,-89.2857142857143,4,2,5,30,0,0
87881,-89.2857142857143,4,2,5,15,0,0
88739,-89.2857142857143,4,2,5,5,0,0

[Colours]
Combo1 : 30,51,91
Combo2 : 184,37,37
Combo3 : 189,163,15
Combo4 : 176,176,176

[HitObjects]
144,344,239,5,0,0:0:0:0:
144,344,453,2,0,P|112:272|140:204,1,152.799997260437,2|0,0:3|0:0,0:0:0:0:
184,128,1096,2,0,L|240:180,1,76.3999986302185,2|0,0:0|0:0,0:0:0:0:
236,272,1524,2,0,P|316:236|328:160,1,152.799997260437
288,96,2167,6,0,L|224:52,1,76.3999986302185,2|0,0:3|0:0,0:0:0:0:
136,24,2596,1,0,0:0:0:0:
52,60,2810,2,0,P|40:100|44:140,1,76.3999986302185,2|0,0:0|0:0,0:0:0:0:
56,224,3239,2,0,P|88:208|128:208,1,76.3999986302185
204,256,3667,1,0,0:0:0:0:
204,256,3774,1,0,0:0:0:0:
204,256,3881,6,0,P|236:276|280:272,1,76.3999986302185,2|0,0:3|0:0,0:0:0:0:
360,244,4310,2,0,P|364:284|348:328,2,76.3999986302185,0|2|0,0:0|0:0|0:0,0:0:0:0:
288,184,4953,1,0,0:0:0:0:
196,200,5167,2,0,P|176:136|216:60,1,152.799997260437,0|2,0:0|0:3,0:0:0:0:
292,16,5810,5,2,0:0:0:0:
292,108,6024,1,0,0:0:0:0:
212,62,6239,2,0,P|174:56|138:65,1,76.3999986302185,2|0,0:0|0:0,0:0:0:0:
64,120,6667,2,0,B|68:136|68:136|112:164|108:188,1,76.3999986302185,2|0,0:0|0:0,0:0:0:0:
24,220,7096,1,0,0:0:0:0:
24,220,7203,1,0,0:0:0:0:
24,220,7310,6,0,P|48:252|88:268,1,76.3999986302185,2|0,0:3|0:0,0:0:0:0:
168,240,7739,1,0,0:0:0:0:
236,300,7953,2,0,P|308:320|376:288,1,152.799997260437,2|0,0:0|0:0,0:0:0:0:
448,228,8596,2,0,P|428:180|404:164,1,76.3999986302185
380,80,9024,6,0,P|344:100|324:132,1,76.3999986302185,2|0,0:3|0:0,0:0:0:0:
328,220,9453,1,0,0:0:0:0:
264,284,9667,2,0,P|184:304|124:264,1,152.799997260437,2|0,0:0|0:0,0:0:0:0:
140,176,10310,2,0,P|144:136|132:96,1,76.3999986302185
204,40,10739,5,2,0:3:0:0:
248,120,10953,1,0,0:0:0:0:
312,56,11167,2,0,P|383:38|444:80,1,152.799997260437
472,168,11810,1,0,0:0:0:0:
472,168,11917,1,0,0:0:0:0:
472,168,12024,1,4,0:3:0:0:
360,312,12453,5,4,0:0:0:0:
348,112,17810,5,8,0:0:0:0:
344,204,18024,1,8,0:0:0:0:
264,160,18239,1,8,0:0:0:0:
264,160,18453,2,0,P|232:180|212:216,1,76.5000014591217,2|0,0:0|0:0,0:0:0:0:
140,268,18881,2,0,P|100:268|64:252,1,76.5000014591217,2|0,0:0|0:0,0:0:0:0:
120,176,19310,6,0,L|128:120,2,38.1999993151093,8|0|0,0:0|0:0|0:0,0:0:0:0:
212,188,19739,1,8,0:0:0:0:
268,260,19953,2,0,L|264:300,2,38.1999993151093,8|0|0,0:0|0:0|0:0,0:0:0:0:
212,188,20381,1,8,0:0:0:0:
268,116,20596,1,8,0:0:0:0:
268,116,20703,1,8,0:0:0:0:
268,116,20810,1,8,0:0:0:0:
176,104,21024,6,0,P|125:166|131:223,1,134.399995898438,12|0,0:0|0:0,0:0:0:0:
199,260,21667,2,0,P|262:278|290:337,1,134.399995898438,2|0,0:0|0:0,0:0:0:0:
211,340,22310,1,0,0:0:0:0:
139,308,22524,1,0,0:0:0:0:
127,228,22739,6,0,P|184:180|243:192,1,134.399995898438,2|0,0:0|0:0,0:0:0:0:
304,236,23381,2,0,L|376:112,1,135.000005149842,2|0,0:0|0:0,0:0:0:0:
360,40,24024,1,0,0:0:0:0:
284,64,24239,1,0,0:0:0:0:
284,64,24346,1,0,0:0:0:0:
284,64,24453,6,0,P|244:72|208:68,1,67.5000025749208,2|0,0:0|0:0,0:0:0:0:
140,52,24881,1,0,0:0:0:0:
64,84,25096,2,0,P|40:152|56:212,1,134.399995898438,2|0,0:0|0:0,0:0:0:0:
108,276,25739,1,0,0:0:0:0:
172,224,25953,1,0,0:0:0:0:
224,288,26167,6,0,P|288:316|352:304,1,135.000005149842,2|0,0:0|0:0,0:0:0:0:
416,260,26810,1,2,0:0:0:0:
360,200,27024,2,0,P|340:132|360:68,1,135.000005149842,0|2,0:0|0:0,0:0:0:0:
424,28,27667,1,0,0:0:0:0:
424,28,27774,1,0,0:0:0:0:
424,28,27881,6,0,L|448:104,1,67.5000025749208,2|0,0:0|0:0,0:0:0:0:
436,172,28310,1,0,0:0:0:0:
360,201,28524,2,0,P|288:208|224:200,1,134.399995898438,2|0,0:0|0:0,0:0:0:0:
148,184,29167,1,0,0:0:0:0:
80,140,29381,1,0,0:0:0:0:
153,104,29596,6,0,P|209:137|226:200,1,134.399995898438,2|0,0:0|0:0,0:0:0:0:
176,264,30239,2,0,P|232:308|292:304,1,134.399995898438,2|0,0:0|0:0,0:0:0:0:
364,264,30881,1,0,0:0:0:0:
424,212,31096,1,0,0:0:0:0:
424,212,31203,1,0,0:0:0:0:
424,212,31310,6,0,L|432:132,1,67.5000025749208,2|0,0:0|0:0,0:0:0:0:
444,64,31739,1,0,0:0:0:0:
368,96,31953,2,0,P|292:112|232:84,1,134.399995898438,2|0,0:0|0:0,0:0:0:0:
196,24,32596,2,0,P|160:20|124:24,1,67.5000025749208
72,80,33024,6,0,L|64:220,1,135.000005149842,2|0,0:0|0:0,0:0:0:0:
94,290,33667,1,2,0:0:0:0:
152,232,33881,2,0,L|160:92,1,135.000005149842,0|2,0:0|0:0,0:0:0:0:
216,40,34524,1,0,0:0:0:0:
236,36,34631,1,0,0:0:0:0:
260,32,34739,6,4,L|412:48,1,151.999995941162,12|0,0:0|0:0,0:0:0:0:
440,136,35381,1,2,0:0:0:0:
440,136,35489,2,0,P|428:176|432:216,1,76.5000014591217
440,256,35810,2,0,P|476:268|514:264,2,75.9999979705811,0|0|2,0:0|0:0|0:0,0:0:0:0:
352,284,36453,6,0,L|292:340,2,75.9999979705811,2|0|0,0:0|0:0|0:0,0:0:0:0:
364,192,37096,2,0,L|332:44,1,151.999995941162,2|0,0:0|0:0,0:0:0:0:
244,20,37739,2,0,P|196:24|164:20,1,76.5000014591217,0|2,0:0|0:0,0:0:0:0:
80,36,38167,6,0,P|41:32|4:36,2,75.9999979705811,10|0|0,0:0|0:0|0:0,0:0:0:0:
144,100,38810,2,0,P|176:176|164:248,1,151.999995941162,2|0,0:0|0:0,0:0:0:0:
132,328,39453,1,0,0:0:0:0:
224,348,39667,1,2,0:0:0:0:
312,316,39881,6,0,L|336:164,1,151.999995941162,2|0,0:0|0:0,0:0:0:0:
420,124,40524,2,0,L|396:276,1,151.999995941162,2|0,0:0|0:0,0:0:0:0:
372,364,41167,2,0,L|312:316,1,75.9999979705811,2|0,0:0|0:0,0:0:0:0:
252,248,41596,6,0,P|176:264|104:244,1,151.999995941162,10|0,0:0|0:0,0:0:0:0:
28,292,42239,2,0,P|16:224|68:160,1,151.999995941162,2|0,0:0|0:0,0:0:0:0:
152,128,42881,2,0,P|184:104|200:72,1,75.9999979705811,0|2,0:0|0:0,0:0:0:0:
276,20,43310,6,0,L|300:92,1,75.9999979705811,2|0,0:0|0:0,0:0:0:0:
376,144,43739,1,0,0:0:0:0:
452,96,43953,2,0,P|460:172|408:228,1,151.999995941162,2|0,0:0|0:0,0:0:0:0:
320,228,44596,1,0,0:0:0:0:
284,144,44810,1,2,0:0:0:0:
296,52,45024,6,0,P|332:40|380:48,2,75.9999979705811,10|0|0,0:0|0:0|0:0,0:0:0:0:
212,92,45667,2,0,P|136:120|64:96,1,151.999995941162,2|0,0:0|0:0,0:0:0:0:
12,168,46310,2,0,L|24:248,1,75.9999979705811
44,332,46739,6,0,P|116:360|184:336,1,151.999995941162,2|0,0:0|0:0,0:0:0:0:
236,260,47381,1,2,0:0:0:0:
312,312,47596,1,0,0:0:0:0:
368,240,47810,1,2,0:0:0:0:
391,147,48024,2,0,P|425:165|449:194,1,75.9999979705811,12|0,0:0|0:0,0:0:0:0:
452,288,48453,5,8,0:0:0:0:
452,288,48667,1,8,0:0:0:0:
296,192,49096,1,0,0:0:0:0:
116,212,49524,1,0,0:0:0:0:
284,288,49953,1,0,0:0:0:0:
240,368,50167,5,8,0:0:0:0:
240,368,50381,1,8,0:0:0:0:
208,188,50810,1,0,0:0:0:0:
108,340,51239,1,0,0:0:0:0:
284,288,51667,1,0,0:0:0:0:
360,340,51881,5,8,0:0:0:0:
360,340,52096,1,8,0:0:0:0:
176,340,52524,1,0,0:0:0:0:
20,244,52953,1,0,0:0:0:0:
160,128,53381,1,0,0:0:0:0:
253,145,53596,6,0,L|261:57,1,75.9999979705811,4|0,0:0|0:0,0:0:0:0:
173,37,54024,1,8,0:0:0:0:
160,128,54239,2,0,L|145:289,1,151.999995941162,4|0,0:0|0:0,0:0:0:0:
69,329,54881,2,0,L|21:329,2,37.9999989852906,8|0|0,0:0|0:0|0:0,0:0:0:0:
152,364,55310,5,8,0:0:0:0:
152,364,55524,1,8,0:0:0:0:
324,296,55953,1,0,0:0:0:0:
224,144,56381,1,0,0:0:0:0:
384,56,56810,1,0,0:0:0:0:
436,132,57024,5,8,0:0:0:0:
436,132,57239,1,8,0:0:0:0:
340,288,57667,1,0,0:0:0:0:
164,328,58096,1,0,0:0:0:0:
252,168,58524,1,0,0:0:0:0:
212,84,58739,5,8,0:0:0:0:
212,84,58953,1,8,0:0:0:0:
100,228,59381,1,0,0:0:0:0:
32,60,59810,1,0,0:0:0:0:
212,84,60239,1,0,0:0:0:0:
164,160,60453,6,0,P|200:172|244:168,1,75.9999979705811,4|0,0:0|0:0,0:0:0:0:
300,104,60881,1,8,0:0:0:0:
388,128,61096,2,0,P|396:208|340:264,1,151.999995941162,4|0,0:0|0:0,0:0:0:0:
284,320,61739,2,0,L|248:332,1,37.9999989852906,2|0,0:0|0:0,0:0:0:0:
148,304,61953,2,0,L|188:292,1,37.9999989852906,2|0,0:0|0:0,0:0:0:0:
240,240,62167,6,0,L|220:148,1,90,4|0,0:0|0:0,0:0:0:0:
128,96,62596,1,8,0:0:0:0:
228,52,62810,2,0,P|284:112|220:152,1,180,2|0,0:0|0:0,0:0:0:0:
128,96,63453,1,8,0:0:0:0:
44,164,63667,1,0,0:0:0:0:
44,164,63774,1,0,0:0:0:0:
44,164,63881,6,0,L|40:260,1,90,10|0,0:0|0:0,0:0:0:0:
88,352,64310,1,8,0:0:0:0:
152,264,64524,1,2,0:0:0:0:
152,264,64631,2,0,L|160:164,1,90
160,148,64953,1,2,0:0:0:0:
232,68,65167,2,0,P|276:61|317:76,1,90,8|0,0:0|0:0,0:0:0:0:
408,132,65596,6,0,P|444:216|424:304,1,179.2000021875,10|8,0:0|0:0,0:0:0:0:
324,340,66239,1,0,0:0:0:0:
244,268,66453,2,0,L|284:188,1,90,2|0,0:0|0:0,0:0:0:0:
176,176,66881,1,8,0:0:0:0:
80,220,67096,1,2,0:0:0:0:
32,308,67310,6,0,P|72:344|112:352,1,90,6|0,0:0|0:0,0:0:0:0:
196,292,67739,1,8,0:0:0:0:
304,300,67953,2,0,P|316:212|256:152,1,179.2000021875,6|0,0:0|0:0,0:0:0:0:
156,196,68596,1,8,0:0:0:0:
132,182,68703,1,8,0:0:0:0:
116,160,68810,1,8,0:0:0:0:
116,132,68917,1,8,0:0:0:0:
120,104,69024,6,0,P|136:64|180:28,1,90,6|0,0:0|0:0,0:0:0:0:
276,8,69453,1,8,0:0:0:0:
384,24,69667,1,0,0:0:0:0:
384,24,69881,2,0,L|400:116,1,90,2|0,0:0|0:0,0:0:0:0:
344,204,70310,2,0,P|296:216|256:208,1,90,8|0,0:0|0:0,0:0:0:0:
156,168,70739,6,0,P|104:96|120:12,2,179.2000021875,10|8|2,0:0|0:0|0:0,0:0:0:0:
252,116,71810,1,0,0:0:0:0:
360,116,72024,2,0,P|400:132|436:164,1,90,8|0,0:0|0:0,0:0:0:0:
348,228,72453,6,0,P|348:280|376:324,2,89.60000109375,10|0|8,0:0|0:0|0:0,0:0:0:0:
240,212,73096,1,0,0:0:0:0:
240,212,73310,2,0,P|196:224|164:256,1,90,2|0,0:0|0:0,0:0:0:0:
76,316,73739,2,0,L|28:232,1,90,8|0,0:0|0:0,0:0:0:0:
52,132,74167,6,0,L|96:116,3,45,4|0|0|0,0:0|0:0|0:0|0:0,0:0:0:0:
148,100,74596,1,2,0:0:0:0:
252,76,74810,6,0,L|264:32,2,45,4|0|0,0:0|0:0|0:0,0:0:0:0:
300,172,75239,1,2,0:0:0:0:
196,152,75453,1,8,0:0:0:0:
184,176,75560,1,8,0:0:0:0:
180,204,75667,1,8,0:0:0:0:
184,232,75774,1,8,0:0:0:0:
192,258,75881,6,0,P|236:248|276:264,1,89.60000109375,6|0,0:0|0:0,0:0:0:0:
228,360,76310,1,8,0:0:0:0:
124,340,76524,2,0,P|88:260|128:172,1,179.2000021875,2|2,0:0|0:0,0:0:0:0:
216,128,77167,2,0,P|260:144|308:136,1,89.60000109375,8|0,0:0|0:0,0:0:0:0:
356,128,77489,1,0,0:0:0:0:
408,112,77596,6,0,L|440:296,1,179.2000021875,10|8,0:0|0:0,0:0:0:0:
332,312,78239,2,0,P|244:288|164:324,1,179.2000021875,2|0,0:0|0:0,0:0:0:0:
116,224,78881,1,8,0:0:0:0:
56,364,79096,1,0,0:0:0:0:
4,268,79310,6,0,L|8:168,1,90,10|0,0:0|0:0,0:0:0:0:
124,72,79739,2,0,L|120:172,1,90,8|0,0:0|0:0,0:0:0:0:
168,256,80167,2,0,P|212:272|256:268,1,90,2|0,0:0|0:0,0:0:0:0:
356,228,80596,2,0,L|372:132,1,90,8|0,0:0|0:0,0:0:0:0:
464,88,81024,6,0,P|500:124|508:168,1,90,6|0,0:0|0:0,0:0:0:0:
460,260,81453,1,8,0:0:0:0:
356,228,81667,2,0,L|304:152,1,90,6|0,0:0|0:0,0:0:0:0:
212,96,82096,2,0,P|168:108|120:92,1,89.60000109375,2|8,0:0|0:0,0:0:0:0:
52,172,82524,1,8,0:0:0:0:
52,172,82631,1,8,0:0:0:0:
52,172,82739,6,0,P|61:226|92:259,1,90,6|0,0:0|0:0,0:0:0:0:
192,240,83167,1,8,0:0:0:0:
288,292,83381,2,0,L|276:340,2,45,2|0|2,0:0|0:0|0:0,0:0:0:0:
192,240,83810,1,2,0:0:0:0:
192,240,84024,2,0,L|176:152,1,90,8|0,0:0|0:0,0:0:0:0:
224,52,84453,6,0,P|272:32|352:56,1,134.400001640625,10|0,0:0|0:0,0:0:0:0:
388,88,84881,2,0,L|372:136,3,44.800000546875,2|0|0|0,0:0|0:0|0:0|0:0,0:0:0:0:
356,180,85310,1,8,0:0:0:0:
280,256,85524,1,8,0:0:0:0:
228,164,85739,2,0,P|136:136|64:172,1,179.2000021875,2|4,0:0|0:0,0:0:0:0:
256,192,86381,12,0,89274,0:0:0:0:
