osu file format v5

[General]
AudioFilename: 12 Tokyo.mp3
AudioLeadIn: 2000
PreviewTime: -1
Countdown: 1
SampleSet: Soft
StackLeniency: 0.7
Mode: 0
LetterboxInBreaks: 1

[Metadata]
Title:Tokyo
Artist:YUI
Creator:Pink_popo
Version:WEird
Source:
Tags:

[Difficulty]
HPDrainRate:5
CircleSize:5
OverallDifficulty:5
SliderMultiplier:1.4
SliderTickRate:1

[Events]
//Background and Video events
//Break Periods
//Storyboard Layer 0 (Background)
//Storyboard Layer 1 (Failing)
//Storyboard Layer 2 (Passing)
//Storyboard Layer 3 (Foreground)
//Storyboard Sound Samples
//Background Colour Transformations
3,100,163,162,255

[TimingPoints]
1045.8111921316,427.380867583161,4,2,0,39,1

[HitObjects]
128,160,191,1,0
32,64,618,1,0
288,96,1473,1,0
96,160,2755,1,0
256,0,3610,1,0
160,192,4464,1,0
64,0,5319,1,0
192,160,6174,1,0
128,160,7029,1,0
320,256,7883,1,0
160,128,8738,1,0
224,288,9593,1,0
352,128,10448,1,0
160,128,11302,1,0
96,96,11730,1,0
96,192,12157,1,0
192,192,12585,1,0
160,192,13867,1,0
0,0,14721,1,0
128,192,15576,1,0
224,160,16004,1,0
288,96,16431,1,0
384,160,16858,1,0
320,160,17286,1,0
224,224,17713,1,0
192,96,18141,1,0
224,320,18995,1,0
192,128,19850,1,0
224,320,20705,1,0
192,96,21560,1,0
224,288,22414,1,0
192,96,23269,1,0
224,320,24124,1,0
192,96,24979,1,0
224,320,25833,1,0
224,224,26261,1,0
160,160,26688,1,0
224,224,27116,1,0
160,160,27543,1,0
256,256,27970,1,0
160,160,28398,1,0
320,320,29252,1,0
160,160,30107,1,0
320,320,30962,1,0
160,160,31817,1,0
320,320,32671,1,0
160,160,33526,1,0
224,224,33954,1,0
160,160,34381,1,0
320,320,35236,1,0
160,160,36091,1,0
320,320,36945,1,0
288,96,37800,1,0
352,32,39510,1,0
480,192,40364,1,0
256,192,41219,1,0
64,288,42074,1,0
128,64,42929,1,0
416,256,38655,2,0,B|64:96,6,280
288,224,43783,1,0
448,32,44638,1,0
256,160,45493,1,0
32,64,46348,1,0
32,320,47202,1,0
256,256,48057,1,0
416,96,48912,1,0
320,96,49339,1,0
256,96,49767,1,0
192,96,50194,1,0
192,224,51476,1,0
384,64,52331,1,0
288,96,52758,1,0
224,128,53186,1,0
128,128,53613,1,0
96,128,54895,5,0
128,224,55323,1,0
224,192,55750,1,0
224,128,56605,5,0
96,96,57032,1,0
96,352,57887,5,0
128,256,58314,5,0
160,64,59169,5,0
32,160,59596,5,0
224,128,60451,1,0
160,128,60879,1,0
160,128,61306,1,0
160,128,61733,1,0
32,128,62161,1,0
416,96,63443,1,0
160,160,64298,5,0
160,160,65152,1,0
96,128,66007,1,0
288,64,66862,1,0
96,128,67717,1,0
288,224,68571,1,0
160,160,68999,1,0
160,160,69426,1,0
160,160,69854,1,0
160,160,70281,1,0
160,160,70708,1,0
32,96,71136,1,0
256,224,71991,1,0
96,128,72845,1,0
256,224,73700,1,0
224,96,74555,1,0
512,192,75837,5,0
352,128,76264,1,0
128,64,77119,1,0
320,192,77974,1,0
96,96,78829,1,0
256,256,79683,1,0
192,0,80538,5,0
256,224,81393,1,0
64,64,82248,1,0
320,128,83102,1,0
64,160,83957,1,0
320,224,84812,5,0
352,192,85667,1,0
96,128,86521,1,0
352,224,87376,1,0
96,256,88231,1,0
352,128,89513,1,0
192,128,89941,1,0
160,352,90795,1,0
128,96,91650,1,0
192,256,92077,1,0
160,96,92505,1,0
192,256,93360,1,0
192,192,93787,1,0
128,160,94214,1,0
256,224,94642,1,0
160,160,95069,1,0
