osu file format v9

[General]
AudioFilename: YUI_01.To Mother.mp3
AudioLeadIn: 0
PreviewTime: -1
Countdown: 0
SampleSet: Soft
StackLeniency: 0.7
Mode: 0
LetterboxInBreaks: 1

[Editor]
Bookmarks: 36113
DistanceSpacing: 0.8
BeatDivisor: 4
GridSize: 8

[Metadata]
Title:To Mother
Artist:YUI
Creator:UI Hirasawa
Version:Hard
Source:
Tags:

[Difficulty]
HPDrainRate:6
CircleSize:4
OverallDifficulty:5
ApproachRate:5
SliderMultiplier:1.2
SliderTickRate:1

[Events]
//Background and Video events
0,0,"To_Mother_LE.jpg"
//Break Periods
2,69809,80272
//Storyboard Layer 0 (Background)
//Storyboard Layer 1 (Fail)
//Storyboard Layer 2 (Pass)
//Storyboard Layer 3 (Foreground)
//Storyboard Sound Samples
//Background Colour Transformations
3,100,163,162,255

[TimingPoints]
0,697.836706210747,4,2,0,100,1,0
44138,-133.333333333333,4,2,0,100,0,0
44836,-100,4,2,0,100,0,0
46231,-83.3333333333333,4,2,0,100,0,0
46755,-100,4,2,0,100,0,0

[Colours]
Combo1 : 255,102,255
Combo2 : 129,252,129
Combo3 : 114,114,252
Combo4 : 252,129,129
Combo5 : 255,203,125

[HitObjects]
112,192,11688,1,0
112,192,12037,2,0,B|256:192,1,120
280,192,13084,2,0,B|312:120|264:64,1,120
224,72,14131,1,0
224,72,14480,2,0,B|96:72,1,120
56,72,15526,1,0
56,144,16224,6,0,B|56:208,1,60
56,204,16922,1,0
128,208,17271,2,0,B|256:208,1,120
320,208,18318,1,0
392,208,18667,1,0
392,208,19016,2,0,B|464:208,2,60
392,280,20062,6,0,B|320:280,1,60
280,280,20760,2,0,B|216:280,1,60
144,280,21458,1,0
144,280,21632,1,0
144,280,21807,1,0
144,280,21981,1,0
144,280,22156,1,0
144,184,22854,5,0
192,184,23203,2,0,B|264:184,1,60
296,184,23900,2,0,B|368:184,2,60
296,112,24947,1,0
296,112,25296,1,0
296,112,25645,2,0,B|176:112,1,120
128,112,26692,1,0
128,208,27390,5,0
128,208,27739,2,0,B|272:208,1,120
248,208,28785,1,0
320,208,29134,1,0
320,208,29483,1,0
392,208,29832,2,0,B|416:144|384:80|384:80,1,120
388,90,30879,2,0,B|264:88,1,120
224,88,31926,5,0
176,144,32623,2,0,B|136:208|192:280,1,120
248,264,34019,2,0,B|368:264,1,120
368,192,35066,1,0
368,192,35240,1,0
368,192,35415,1,0
368,120,35764,2,0,B|368:32,1,90
296,32,36810,1,0
296,32,37159,2,0,B|296:160,1,120
296,224,38555,5,0
224,224,38904,1,0
200,224,39078,1,0
176,224,39253,1,0
104,224,39602,2,0,B|64:176|104:112,1,120
103,112,40648,1,0
176,112,40997,1,0
200,112,41172,1,0
224,112,41346,1,0
320,112,42044,5,0
392,112,42393,2,0,B|440:192|384:240,1,120
398,224,43440,1,0
304,224,44138,2,0,B|208:224,1,90
144,224,45184,1,0
144,224,45533,1,0
144,224,45882,1,0
72,224,46231,2,0,B|72:128,1,90
144,136,46929,5,0
144,136,47103,1,0
144,136,47278,1,0
144,136,47452,1,0
144,136,47627,1,0
216,136,47976,6,0,B|352:136,1,120
336,136,49023,1,0
408,136,49546,2,0,B|408:240,1,90
408,224,50418,1,0
328,224,51116,5,0
256,224,51465,2,0,B|152:224,1,90
120,224,52163,1,0
120,224,52512,1,0
72,224,52861,2,0,B|32:168|80:96,1,120
70,111,53907,2,0,B|176:112,1,90
184,112,54605,2,0,B|248:112,1,60
296,112,55303,5,0
320,112,55478,1,0
344,112,55652,1,0
416,112,56001,2,0,B|416:192,1,60
416,248,56699,1,0
344,248,57048,1,0
320,248,57222,1,0
296,248,57397,1,0
224,248,57745,2,0,B|144:248,1,60
88,248,58443,1,0
88,128,59141,6,0,B|160:128,1,60
208,128,59839,1,0
272,128,60188,2,0,B|352:128,1,60
384,128,60886,1,0
384,152,61060,1,0
384,176,61235,1,0
384,248,61584,2,0,B|304:248,1,60
256,248,62281,5,0
184,248,62630,1,0
160,248,62805,1,0
136,248,62979,1,0
64,248,63328,2,0,B|32:176|80:112,1,120
66,132,64200,2,0,B|176:136|176:136,1,90
208,136,65073,1,0
280,136,65596,6,0,B|376:136,1,90
416,136,66468,1,0
416,160,66643,1,0
416,184,66817,1,0
416,256,67166,1,0
392,256,67515,2,0,B|256:256,1,120
256,192,68562,12,0,69609
56,192,81472,5,0
56,192,81821,2,0,B|120:192,1,60
116,192,82519,2,0,B|200:192,1,60
224,192,83217,1,0
296,192,83565,2,0,B|344:128|280:64,1,120
295,81,84612,1,0
224,80,85136,1,0
224,152,86008,5,0
176,152,86357,2,0,B|112:152,1,60
72,152,87055,2,0,B|8:152,1,60
8,224,87927,2,0,B|104:224,1,90
98,224,88799,2,0,B|176:224,1,60
256,192,89497,12,0,90544
248,192,91242,5,0
272,192,91416,1,0
296,192,91591,1,0
368,192,91939,1,0
368,96,92637,5,0
320,96,92986,2,0,B|248:96,1,60
208,96,93684,1,0
168,64,93859,1,0
128,96,94033,1,0
128,152,94382,2,0,B|128:272,1,120
200,272,95429,5,0
248,272,95778,2,0,B|328:272|320:272,1,60
360,272,96475,1,0
432,272,97173,1,0
432,272,97348,1,0
432,272,97522,1,0
432,200,97871,2,0,B|432:120,1,60
432,140,98569,2,0,B|432:48,1,90
360,48,99616,6,0,B|296:48,1,60
240,48,100314,2,0,B|184:48,2,30
240,112,101011,2,0,B|240:240,1,120
360,232,102407,5,0
408,232,102756,1,0
456,232,103105,1,0
