osu file format v7

[General]
AudioFilename: YUI - Summer Song.mp3
AudioLeadIn: 0
PreviewTime: 51776
Countdown: 0
SampleSet: Soft
StackLeniency: 0.4
Mode: 0
LetterboxInBreaks: 0
SkinPreference:Default

[Editor]
DistanceSpacing: 0.899999976158142
BeatDivisor: 4
GridSize: 16

[Metadata]
Title:Summer Song
Artist:YUI
Creator:VanMoNky
Version:Junior
Source:Summer Song
Tags:sunflower himawari season spring autumn fall winter j-pop monkey yellow orange girlish fun cheerful

[Difficulty]
HPDrainRate:3
CircleSize:4
OverallDifficulty:3
SliderMultiplier:1.8
SliderTickRate:2

[Events]
//Background and Video events
0,0,"background.jpg"
//Break Periods
2,7232,7815
2,71955,79204
2,154176,161426
//Storyboard Layer 0 (Background)
//Storyboard Layer 1 (Fail)
//Storyboard Layer 2 (Pass)
//Storyboard Layer 3 (Foreground)
//Storyboard Sound Samples
//Background Colour Transformations
3,100,251,198,166

[TimingPoints]
644,555.555555555556,4,2,1,100,1,0
4968,-100,4,2,0,100,0,0
31630,-100,4,2,1,100,0,0
40378,-100,4,2,0,100,0,0
49532,-100,4,2,1,0,0,0
49673,-100,4,2,1,30,0,0
50090,-100,4,2,1,60,0,0
50506,-100,4,2,1,60,0,0
50715,-100,4,2,1,100,0,0
51571,-100,4,2,0,100,0,0
51755,-100,4,1,0,80,0,1
71755,-100,4,2,0,100,0,0
71756,-100,4,2,0,100,0,1
71757,-100,4,2,0,100,0,0
98284,-100,4,2,1,100,0,0
107033,-100,4,2,0,100,0,0
116199,-100,4,1,0,80,0,1
134117,-100,4,2,1,100,0,0
136333,-100,4,2,0,100,0,0
162578,-200,4,2,0,60,0,0
171604,-200,4,2,1,90,0,0
177020,-200,4,2,1,100,0,0
178270,-100,4,2,1,100,0,0
180643,-100,4,1,0,80,0,1
189531,-100,4,1,0,80,0,0
189532,-100,4,1,0,80,0,1
198544,-200,4,2,1,100,0,0
200782,-200,4,2,1,40,0,0

[Colours]
Combo1 : 255,128,0
Combo2 : 242,242,0

[HitObjects]
176,192,3977,1,8
256,192,4255,1,8
336,192,4532,2,0,B|336:256,2,45,8|2|2
336,112,5088,6,0,B|336:80|288:48|240:80|240:112,2,135,4|2|0
96,112,6755,1,2
176,112,7032,1,0
416,272,9255,5,2
368,336,9532,2,0,B|368:368|416:400|464:368|464:336,2,135,4|2|0
416,96,11199,1,2
432,176,11477,2,0,B|336:176,1,90,0|4
336,96,12032,6,0,B|240:96,1,90,2|0
272,176,12588,2,0,B|176:176,1,90,4|0
176,96,13143,2,0,B|80:96,2,90,2|4|0
48,192,14255,5,2
64,272,14532,1,0
144,304,14810,2,0,B|168:288|208:248|256:288|272:304|272:304|352:304,2,180,0|2|0
208,352,16199,1,0
288,368,16477,6,0,B|400:368,1,90,0|2
288,272,17171,1,0
376,192,17588,2,0,B|280:192,2,90,0|2|0
448,192,18421,5,0
480,112,18699,1,0
448,32,18977,1,2
416,112,19255,2,0,B|320:112,1,90,0|0
160,112,20088,1,2
240,112,20366,1,0
200,272,20921,5,0
200,192,21199,1,2
112,192,21477,2,0,B|48:184|24:240|48:296|112:288,2,180,0|2|2
176,240,22866,1,4
176,320,23144,5,0
248,280,23421,1,2
352,352,23838,2,0,B|352:208,1,135
384,144,24532,2,0,B|480:144,2,90,2|0|0
304,144,25366,5,0
344,72,25644,1,2
224,72,26060,1,0
96,72,26477,2,0,B|16:56|-40:160|16:248|112:232,1,270,2|0
96,152,27588,5,0
160,200,27866,1,2
160,280,28144,1,0
96,328,28421,1,0
256,368,28977,2,0,B|256:256,1,90,2|0
256,96,29810,6,0,B|256:288,1,180,2|0
336,272,30644,1,0
336,192,30921,1,2
336,112,31199,1,0
336,32,31477,1,0
416,32,31755,5,4
464,96,32032,1,0
416,160,32310,2,0,B|416:288,1,90,2|2
416,336,32866,5,4
336,368,33144,1,0
256,336,33421,2,0,B|256:208,1,90,2|2
256,160,33977,5,4
176,128,34255,1,0
96,160,34532,2,0,B|96:288,1,90,2|2
56,320,35088,5,4
136,320,35366,1,0
208,352,35644,2,0,B|208:272,1,45,8|2
320,352,36199,5,4
400,352,36477,1,0
448,288,36755,2,0,L|440:280|448:272|440:264|448:256|440:248|448:240|440:232|448:224|440:216,2,90,2|2|4
368,288,37588,1,0
288,288,37866,6,0,L|296:280|288:272|296:264|288:256|296:248|288:240|296:232|288:224|296:216,2,90,2|2|4
208,288,38699,1,0
128,288,38977,6,0,L|120:280|128:272|120:264|128:256|120:248|128:240|120:232|128:224|120:216,2,90,2|2|4
48,288,39810,1,0
48,208,40088,2,0,L|48:160,1,45,8|2
48,48,40644,5,4
128,32,40921,1,0
96,112,41199,1,2
176,96,41477,1,0
208,16,41755,2,0,B|256:32|272:96|256:160|208:176,1,180,0|2
304,192,42588,1,0
336,32,43144,5,0
320,112,43421,1,2
400,112,43699,1,0
416,32,43977,2,0,B|480:40|504:136|448:176,1,180,0|2
464,256,44810,1,0
448,336,45088,1,4
384,288,45366,5,2
320,144,45921,1,2
256,96,46199,1,0
192,144,46477,1,2
256,208,46755,12,0,49532
16,192,49810,6,0,B|80:192,1,45
160,192,50227,6,0,B|224:192,1,45
304,192,50644,6,0,B|384:192,1,45,2|8
448,192,51060,6,0,B|528:192,1,45,2|8
448,96,51477,5,8
368,32,51755,6,0,B|304:-16|280:112|256:-16|192:32,1,180,4|8
128,64,52588,1,0
128,64,52727,2,0,B|128:160,2,90,0|0|8
48,32,53560,1,0
48,32,53838,1,0
48,160,54255,5,0
80,240,54532,2,0,B|32:240|32:304|80:304|80:304|80:368,1,135,8|0
80,336,55088,1,0
144,288,55366,2,0,B|224:288|176:224|272:240,1,135,0|0
256,352,56060,5,0
256,352,56199,2,2,B|400:352,1,135,2|10
448,288,56894,1,0
392,224,57171,5,0
392,224,57310,2,2,B|248:224,1,135,2|10
224,144,58005,1,0
256,64,58282,5,0
256,64,58421,2,0,B|400:64,1,135,0|10
368,144,59116,6,2,B|192:144,1,135,2|0
176,80,59810,1,4
80,144,60227,1,4
176,208,60644,6,0,B|136:208|136:208|128:240|80:264|24:240|16:208,1,180,4|8
16,304,61477,1,0
16,304,61616,1,0
96,336,61894,2,0,B|192:336,1,90,0|8
272,352,62449,2,0,B|368:352,1,90,0|0
480,352,63144,5,0
424,296,63421,2,0,B|424:128,1,135,8|0
424,161,63977,1,0
424,80,64255,2,0,B|360:80,1,45
379,80,64671,1,0
304,48,64949,5,0
304,48,65088,2,2,B|160:48,1,135,2|10
112,112,65782,1,0
160,176,66060,5,0
160,176,66199,2,2,B|304:176,1,135,2|10
336,256,66894,1,0
304,336,67171,5,0
304,336,67310,2,0,B|160:336,1,135,0|6
96,368,68005,1,0
96,288,68282,1,6
176,256,68560,1,0
256,240,68838,1,6
320,192,69116,1,0
320,192,69255,1,2
256,144,69532,1,4
256,208,70088,12,4,71755
256,192,80644,5,4
256,272,80921,2,0,B|368:272,2,90,0|2|0
256,272,81616,1,0
256,144,82032,2,0,B|64:144,2,180,2|0|0
256,144,83421,5,2
256,64,83699,1,0
256,64,83838,1,0
256,64,84255,2,0,B|336:48|384:136|336:248|256:224,1,270,2|0
256,144,85366,5,0
184,96,85644,1,2
120,40,85921,1,0
56,96,86199,2,0,C|56:288,1,180,0|2
56,276,87032,2,0,B|64:384|192:352,1,180
185,353,87866,6,0,B|208:296|152:280,2,90,2|0|0
185,353,88699,2,0,B|377:353,1,180,2|2
365,353,89532,1,4
448,320,89810,6,0,B|448:112,1,180
448,140,90505,1,2
384,240,90921,2,0,B|384:128,3,90,0|2|0|0
448,112,92032,5,0
384,80,92310,1,2
320,112,92588,1,0
320,112,92727,1,0
384,16,93144,2,0,B|192:16,1,180,2|0
128,16,93977,5,0
176,80,94255,1,0
96,88,94532,1,2
48,24,94810,1,0
16,96,95088,2,0,B|16:160|64:176|96:176|96:176|96:256,1,180,0|2
96,229,95921,2,0,B|96:272|96:272|64:272|24:320|64:368|96:368,1,180
160,320,96755,6,0,L|176:304|192:320|208:304|224:320|240:304|256:320|272:304|288:320,1,180,2|0
368,336,97588,2,0,L|464:336,2,90,0|2|0
400,256,98421,5,4
480,256,98699,1,0
440,184,98977,2,0,L|440:136,4,45,2|2|2|2|4
360,184,99810,5,0
288,224,100088,2,0,L|288:272,4,45,2|2|2|2|4
208,224,100921,5,0
128,192,101199,2,0,L|128:144,4,45,2|2|2|2|4
48,192,102032,5,0
48,272,102310,2,0,L|48:320,1,45,8|2
48,192,102866,5,4
48,112,103144,1,0
128,80,103421,2,0,L|128:176,2,90,2|2|4
208,112,104255,5,0
288,80,104532,2,0,L|288:176,2,90,2|2|4
368,112,105366,5,0
448,80,105644,2,0,L|448:176,2,90,2|2|4
368,112,106477,5,0
368,192,106755,2,8,L|368:240,1,45,8|2
480,272,107310,5,4
448,352,107588,1,0
368,384,107866,1,2
288,352,108144,1,0
256,280,108421,2,0,B|200:304|208:360|208:360|112:360,1,180,0|2
128,360,109255,1,0
32,224,109810,5,0
112,192,110088,1,2
112,112,110366,1,0
32,80,110644,2,0,B|56:40|112:16|160:32|192:80,1,180,0|2
184,69,111338,2,0,B|234:70,3,45,0|0|0|4
304,48,112032,5,0
384,64,112310,1,2
448,112,112588,1,0
464,192,112866,2,0,B|464:400,1,180,0|4
384,352,113699,5,0
400,272,113977,1,0
352,208,114255,1,0
296,144,114532,1,4
216,144,114810,1,0
160,208,115088,1,0
112,272,115366,1,0
128,352,115644,2,0,B|64:368|8:320|32:240,1,180,4|4
30,245,116477,5,0
30,245,116755,2,0,B|32:112,1,90,8|0
64,80,117310,1,0
128,32,117588,2,0,B|176:32,1,45,0|8
240,80,118005,1,0
304,32,118282,2,0,B|464:32,1,135
440,112,118977,6,0,B|280:112,1,135,8|0
305,112,119532,1,0
336,192,119810,1,0
336,192,119949,1,8
416,192,120227,1,0
464,304,120644,6,2,B|448:368|368:368,1,90,2|2
403,364,121060,1,8
384,288,121338,1,2
272,352,121755,6,2,B|256:288|176:288,1,90,2|2
211,291,122171,1,8
192,368,122449,1,2
64,368,122866,6,0,B|64:256,1,90,0|0
64,278,123282,2,2,B|64:128,1,135,2|0
64,143,123977,2,2,B|64:96,1,45,2|4
144,64,124394,1,4
224,96,124671,1,4
336,32,125088,6,0,B|448:32,2,90,4|0|8
368,112,125921,2,0,B|432:112,1,45
400,192,126338,2,0,B|528:192,3,90,0|8|0|0
400,272,127588,5,0
400,352,127866,2,0,B|256:352,1,135,8|0
265,352,128421,1,0
264,272,128699,1,0
264,272,128838,1,0
264,192,129116,1,0
176,192,129394,5,0
176,192,129532,2,2,B|176:336,1,135,2|10
96,352,130227,1,0
16,328,130505,5,0
16,328,130644,2,2,B|16:184,1,135,2|10
96,160,131338,1,0
32,112,131616,5,0
32,112,131755,2,0,B|56:80|96:72|136:80|160:120,1,135,0|6
224,80,132449,2,0,B|320:0,1,90,0|6
352,80,133005,2,0,B|272:144,1,90,0|6
352,176,133560,2,0,B|416:128,1,45,0|2
416,224,133977,1,4
256,208,134532,12,4,136199
256,192,136477,5,0
256,112,136755,1,2
256,32,137032,1,0
256,32,137171,1,0
368,72,137588,2,0,B|464:56|464:160|416:192,1,180,2|0
256,192,138699,5,0
256,272,138977,1,2
256,352,139255,1,0
256,352,139394,1,0
144,312,139810,2,0,B|48:328|48:224|96:192,1,180,2|0
32,144,140644,5,2
96,96,140921,1,0
160,144,141199,1,2
224,96,141477,2,0,B|288:96,1,45,0|2
336,144,141894,2,0,B|400:144,1,45,2|0
384,64,142310,5,2
448,112,142588,2,0,B|472:168|432:216|404:227|336:216,1,180
272,192,143421,1,4
192,160,143699,2,0,B|136:136|88:168|64:208|88:272,1,180,0|2
160,240,144532,2,0,B|208:272,1,45,0|2
256,368,145088,1,4
336,352,145366,5,0
400,304,145643,1,2
464,256,145921,2,0,B|464:336,4,45,0|2|0|2|0
464,176,146755,1,2
464,96,147032,2,0,B|464:16,2,45,0|2|0
392,128,147588,5,0
336,64,147866,1,2
256,96,148143,2,0,B|256:16,4,45,0|2|0|2|0
256,176,148977,1,2
216,248,149255,5,0
296,248,149532,1,0
296,328,149810,1,0
216,328,150088,1,2
96,352,150505,1,2
48,288,150782,6,0,B|48:208,1,45,2|0
96,176,151199,1,2
48,112,151477,1,0
128,80,151755,2,0,B|128:32|192:0|256:32|256:96,1,180,0|4
256,160,152588,2,0,B|336:160,4,45,0|2|0|2|0
256,240,153421,2,0,B|256:320,4,45,2|0|0|2|6
256,192,162866,6,0,B|256:288,1,90,0|2
256,320,163699,1,0
256,320,163838,2,0,B|336:320,4,45,0|0|2|0|0
192,320,165366,5,0
160,352,165643,2,0,B|128:360|104:344|104:320,1,67.5,2|0
80,320,166199,1,0
128,272,166477,1,0
128,256,166616,2,0,B|128:184,1,45,2|0
48,192,167171,5,0
48,192,167310,2,0,B|48:112,1,67.5,0|2
64,96,168005,1,0
144,64,168282,5,0
144,64,168421,2,0,B|144:144,1,67.5,0|2
160,176,169116,2,0,B|192:192|240:176,1,67.5,0|2
272,176,169810,5,0
272,176,169949,1,0
304,144,170227,2,0,B|304:64,3,45,2|0|0|0
480,32,171755,6,0,B|480:128,1,90,0|2
480,160,172588,1,0
480,160,172727,2,0,B|480:240,4,45,0|0|2|0|0
416,160,174255,1,0
416,160,174532,2,0,B|416:288,1,90,2|0
384,288,175366,2,0,B|304:288,1,67.5,0|0
272,288,176060,5,0
272,288,176199,2,0,B|272:208,1,67.5,0|2
240,192,176893,1,0
208,176,177171,5,0
208,176,177310,2,0,B|208:96,1,67.5,0|2
176,80,178005,1,0
64,32,178421,6,0,L|48:48|48:48|64:48|48:64|48:64|64:64|48:80|48:80|64:80|48:96|48:96|64:96|48:112|48:112|64:112,1,180,4|8
48,192,179255,1,0
48,192,179393,1,0
48,192,179532,1,0
256,208,179671,12,4,180643
256,272,180921,5,0
256,352,181199,1,8
328,312,181477,1,0
328,312,181616,2,0,B|448:312,1,90
480,256,182171,2,0,B|480:136,1,90,8|0
416,112,182727,2,0,B|432:64|384:48|336:64|352:112,1,135
350,108,183421,2,0,B|368:160|320:176|272:160|288:112,1,135,8|0
286,117,183977,1,0
288,32,184255,2,0,B|208:32|224:112|160:80,1,135,0|0
96,48,184949,5,0
64,80,185088,2,2,B|64:224,1,135,2|10
32,288,185782,1,0
112,320,186060,5,0
144,352,186199,2,2,B|288:352,1,135,2|10
352,304,186893,1,0
464,352,187310,6,0,B|464:240,1,90,0|0
432,240,187727,2,2,B|432:64,1,135,2|2
384,48,188421,2,0,B|320:48,1,45,0|2
304,128,188838,1,4
256,64,189116,1,4
144,32,189532,6,0,B|80:32|32:64|32:176,1,180,4|8
112,160,190366,1,0
112,160,190505,1,0
64,224,190782,2,0,B|64:320,1,90,0|8
128,352,191338,2,0,B|224:352,1,90,0|0
336,352,192032,5,0
280,296,192310,2,0,B|304:264|336:256|384:272|400:296,1,135,8|0
397,293,192866,1,0
480,320,193143,2,0,B|480:256,1,45
480,192,193560,1,0
448,112,193838,5,0
448,112,193977,2,2,B|432:48|352:48,1,90,2|2
387,51,194393,1,8
368,128,194671,1,2
304,80,194949,5,0
304,80,195088,2,2,B|288:144|208:144,1,90,2|2
243,140,195505,1,8
224,64,195782,1,2
160,112,196060,5,0
160,112,196199,2,0,B|176:64|128:48|80:64|96:112,1,135,0|6
112,192,196893,1,4
144,272,197171,1,2
216,304,197449,1,4
296,304,197727,1,2
368,272,198005,1,0
368,272,198143,1,2
400,192,198421,1,4
256,208,198977,12,0,200782
