osu file format v6

[General]
AudioFilename: YUI - Ruido.mp3
AudioLeadIn: 1996
PreviewTime: 20433
Countdown: 1
SampleSet: Soft
StackLeniency: 0.4
Mode: 0
LetterboxInBreaks: 1

[Editor]
DistanceSpacing: 0.800000011920929
BeatDivisor: 8
GridSize: 16

[Metadata]
Title:Ruido
Artist:YUI
Creator:VanMoNky
Version:Senior
Source:Can't Buy My Love
Tags:rock japan j-rock monkey

[Difficulty]
HPDrainRate:5
CircleSize:5
OverallDifficulty:6
SliderMultiplier:1.5
SliderTickRate:2

[Events]
//Background and Video events
0,0,"bg.jpg"
//Break Periods
2,18118,19365
//Storyboard Layer 0 (Background)
//Storyboard Layer 1 (Fail)
//Storyboard Layer 2 (Pass)
//Storyboard Layer 3 (Foreground)
//Storyboard Sound Samples
//Background Colour Transformations
3,100,64,0,64

[TimingPoints]
440,416.146483562214,4,2,0,30,1,0
6890,-100,4,1,0,70,0,0
20206,-100,4,1,0,39,0,0
25131,-100,4,1,0,69,0,0
27004,-100,4,1,0,40,0,0
31598,-100,4,1,0,70,0,0
33679,-100,4,1,0,49,0,0
35540,-100,4,1,0,71,0,0
37050,-100,4,1,0,70,0,1
50375,-100,4,1,0,70,0,0
50376,-100,4,1,0,70,0,1
50377,-100,4,1,0,70,0,0

[Colours]
Combo1 : 154,154,154
Combo2 : 3,137,3
Combo3 : 22,160,175
Combo4 : 193,4,4
Combo5 : 210,126,0

[HitObjects]
256,192,231,2,0,B|256:240,2,37.5
192,192,648,1,8
192,128,856,1,8
192,64,1064,2,8,B|144:64,2,37.5,0|0|0
256,64,1480,1,8
320,64,1688,1,8
384,64,1896,6,0,B|384:16,2,37.5,0|0|8
384,128,2312,1,0
384,192,2520,1,8
384,256,2728,2,0,B|336:256,2,37.5,0|0|8
448,256,3144,1,0
448,320,3353,1,8
384,320,3561,6,0,B|384:368,2,37.5
320,320,3977,1,8
256,320,4185,1,8
256,256,4393,2,0,B|304:256,2,37.5,0|0|0
256,192,4809,1,8
192,192,5017,1,8
128,192,5225,6,0,B|128:240,2,37.5,0|0|8
128,128,5641,1,0
192,128,5849,1,8
192,64,6057,2,0,B|144:64,2,37.5,0|0|8
192,64,6474,2,0,B|240:64,2,37.5,0|0|8
432,64,7098,5,4
432,128,7306,1,8
432,160,7410,1,0
432,256,7722,1,8
368,256,7930,1,0
304,256,8138,1,8
304,288,8242,1,0
224,256,8554,5,8
160,256,8762,2,0,B|160:176|240:176,1,112.5,0|8
256,176,9179,2,0,B|304:176|304:112,1,75,0|8
304,64,9595,1,0
240,64,9803,1,8
176,64,10011,1,8
80,128,10427,5,0
144,128,10635,1,8
176,128,10739,1,0
272,128,11051,2,0,B|272:208,1,75,8|0
336,208,11467,1,8
400,208,11675,5,0
400,272,11884,1,8
336,272,12092,2,0,B|208:272,1,112.5,0|8
224,272,12508,2,0,B|144:272,2,75,0|8|0
224,208,13132,1,8
224,208,13340,1,8
224,80,13756,6,0,B|144:80,1,75,0|8
112,80,14068,1,0
112,176,14380,2,0,B|112:304,2,112.5,8|0|8
176,176,15213,1,0
240,176,15421,1,8
240,208,15525,1,0
240,272,15733,1,0
240,352,15993,1,8
320,320,16253,1,0
320,144,16877,6,0,B|352:144,4,18.75,8|8|0|0|0
320,80,17293,1,0
384,80,17502,1,8
448,80,17710,1,0
448,144,17918,1,8
32,32,20415,6,0,B|112:32,1,75,2|0
104,96,20831,2,0,B|24:96,1,75,2|0
32,160,21247,2,0,B|112:160,1,75,2|0
112,272,21871,1,2
176,272,22079,1,0
176,208,22287,1,2
288,208,22703,1,0
352,208,22911,1,2
352,208,23224,1,2
448,208,23536,5,0
448,272,23744,1,0
448,336,23952,1,2
384,336,24160,1,0
384,272,24368,1,2
320,272,24576,1,0
320,272,24888,1,6
224,272,25200,6,0,B|272:272,2,37.5,8|0|0
160,272,25616,2,0,B|112:272,2,37.5,8|0|0
160,208,26033,2,0,B|112:208,2,37.5,8|0|0
224,208,26449,2,0,B|272:208,2,37.5,8|0|0
224,272,26865,1,8
224,336,27073,6,0,B|144:336,2,75,2|0|2
288,336,27697,2,0,B|368:336,2,75,0|2|0
256,288,28321,5,2
256,288,28529,1,0
256,288,28737,1,2
384,288,29154,1,2
448,288,29362,1,0
448,224,29570,1,2
448,224,29882,1,0
448,128,30194,5,2
384,128,30402,1,0
384,64,30610,1,2
320,64,30818,1,0
320,128,31026,2,0,B|320:176,2,37.5,2|0|0
256,128,31442,5,2
224,128,31546,1,0
192,128,31650,2,0,B|192:176|240:192,1,75,0|8
288,192,32067,2,0,B|288:240|240:256,1,75,0|8
192,256,32483,2,0,B|192:304|240:320,1,75,0|8
288,320,32899,2,0,B|336:320|352:272,1,75,0|8
352,224,33315,2,0,B|400:224|416:272,1,75,0|8
416,320,33731,5,0
480,320,33939,1,0
480,256,34147,1,2
416,256,34355,2,0,B|464:240|464:144|416:128,1,150
368,128,34980,2,0,B|288:128,2,75,2|0|0
368,192,35604,2,4,B|320:192,5,37.5,6|4|4|2|4|4
304,192,36228,1,6
256,368,37060,5,12
192,368,37268,1,0
192,304,37477,1,8
128,304,37685,1,0
64,304,37893,1,8
64,240,38101,1,0
64,240,38205,1,0
64,240,38309,6,0,B|64:160,1,75,8|0
128,160,38725,2,0,B|128:80,1,75,8|0
192,80,39141,2,0,B|192:160,1,75,8|0
256,160,39557,2,0,B|256:240,1,75,8|0
319,235,39973,2,0,B|319:155,1,75,8|0
320,96,40390,5,8
384,96,40598,1,0
448,96,40806,1,8
448,160,41014,1,0
448,224,41222,1,8
448,288,41430,2,0,B|368:288,1,75,0|8
368,352,41846,5,0
336,352,41950,1,0
304,352,42054,2,0,B|224:352,3,75,8|0|8|0
160,352,42886,2,0,B|80:352,2,75,8|0|8
160,240,43719,5,12
160,176,43927,1,0
96,176,44135,1,8
96,112,44343,1,0
32,112,44551,1,8
32,48,44759,1,0
96,48,44967,1,8
160,48,45175,1,0
224,48,45383,6,0,B|224:128,1,75,8|0
224,184,45799,2,0,B|304:184,1,75,8|0
304,120,46216,2,0,B|304:40,1,75,8|0
368,48,46632,1,8
256,192,47048,12,12,47880
256,192,48296,5,12
256,192,48712,1,12
128,192,49545,6,2,B|208:192,1,75,2|0
384,192,49961,2,2,B|304:192,1,75,2|0
256,192,50377,1,2
